#TITLE:Unite!;
#SUBTITLE:(Euro Power Mix);
#ARTIST:浜崎あゆみ;
#TITLETRANSLIT:;
#SUBTITLETRANSLIT:;
#ARTISTTRANSLIT:Ayumi Hamasaki;
#GENRE:;
#CREDIT:;
#BANNER:Unite euro bn2.png;
#BACKGROUND:Unite euro bg.png;
#LYRICSPATH:;
#CDTITLE:;
#MUSIC:Unite! (Euro-Power Mix).mp3;
#OFFSET:-0.060000;
#SAMPLESTART:53.973000;
#SAMPLELENGTH:12.000000;
#SELECTABLE:YES;
#BPMS:0.000000=137.970001
;
#STOPS:
;
#BGCHANGES:;
#KEYSOUNDS:;
#ATTACKS:;

//---------------dance-single - ----------------
#NOTES:
     dance-single:
     :
     Easy:
     4:
     0.345466,0.398006,0.355063,0.326274,0.000000,252.000000,215.000000,37.000000,34.000000,0.000000,0.000000,0.345466,0.398006,0.355063,0.326274,0.000000,252.000000,215.000000,37.000000,34.000000,0.000000,0.000000:
// measure 0
0000
0000
0000
0000
,  // measure 1
0000
0000
0000
0000
,  // measure 2
0000
0000
0000
0000
,  // measure 3
0000
0000
0000
0000
,  // measure 4
1001
1001
0001
0010
,  // measure 5
1000
0010
0001
0010
,  // measure 6
1001
0000
1001
0000
1000
0000
0001
0010
,  // measure 7
0000
0010
1001
0110
,  // measure 8
1001
1000
0010
0100
,  // measure 9
0001
0001
0010
0100
,  // measure 10
1000
1100
0000
0110
,  // measure 11
0002
0003
2000
3010
,  // measure 12
1001
0001
0010
0100
,  // measure 13
1000
1000
0010
0100
,  // measure 14
0001
1000
1001
0001
,  // measure 15
1001
1000
1001
0100
,  // measure 16
1001
0011
1000
0100
,  // measure 17
1001
1100
0010
0001
,  // measure 18
0010
0011
0000
0110
,  // measure 19
2000
3000
0002
0013
,  // measure 20
1001
1001
0010
0100
,  // measure 21
1001
1001
0010
0100
,  // measure 22
1000
0000
0001
1000
0100
0000
1000
0001
,  // measure 23
0100
0100
1100
0101
,  // measure 24
1001
0100
1000
0010
,  // measure 25
0001
0100
0010
0100
,  // measure 26
1001
0100
0001
0010
,  // measure 27
1000
1000
0001
0010
,  // measure 28
1001
0110
0001
0010
,  // measure 29
1000
0100
1001
0000
,  // measure 30
1001
0000
0100
0000
0100
0100
0100
0000
,  // measure 31
2000
0000
3020
0000
,  // measure 32
0230
0000
0000
0001
0301
0000
1000
0000
,  // measure 33
0002
0000
0023
0000
,  // measure 34
0230
0000
0000
0010
0310
0000
0100
0000
,  // measure 35
2000
0000
3020
0000
,  // measure 36
0230
0000
0000
0001
0301
0000
1000
0000
,  // measure 37
2000
0000
3200
0000
,  // measure 38
0320
0000
0000
0000
0032
0000
0000
0103
,  // measure 39
0020
0100
0230
0001
,  // measure 40
0302
0000
0000
1000
1003
0000
0001
0000
,  // measure 41
2000
0010
3020
0100
,  // measure 42
0230
0000
0000
0001
0301
0000
0010
0000
,  // measure 43
0002
0010
0023
0100
,  // measure 44
0230
0000
0000
1000
1300
0000
0001
0000
,  // measure 45
0020
0100
0230
0010
,  // measure 46
0320
0000
0001
0000
0032
0000
0000
1003
,  // measure 47
0020
0100
0130
0100
,  // measure 48
0002
0000
0010
0000
0013
0000
0010
0100
,  // measure 49
0200
0000
1000
0000
1300
0000
0010
0200
,  // measure 50
0000
0000
0300
0001
0000
0100
0001
0000
,  // measure 51
1001
1100
1000
0001
,  // measure 52
0100
0100
0010
0100
,  // measure 53
1001
0011
0001
1000
,  // measure 54
0100
0100
0010
0100
,  // measure 55
1000
0010
0100
0000
0001
0000
0001
0000
,  // measure 56
0100
0100
0010
0100
,  // measure 57
0001
0010
0100
0000
1000
0000
0001
0010
,  // measure 58
0000
0010
0110
1001
,  // measure 59
0010
0010
0010
0000
0000
0000
0000
0000
;

//---------------dance-single - ----------------
#NOTES:
     dance-single:
     :
     Medium:
     7:
     0.405786,0.454864,0.153541,0.518199,0.023991,296.000000,280.000000,16.000000,54.000000,0.000000,0.000000,0.405786,0.454864,0.153541,0.518199,0.023991,296.000000,280.000000,16.000000,54.000000,0.000000,0.000000:
// measure 0
0000
0000
0000
0000
,  // measure 1
0000
0000
0000
0000
,  // measure 2
0000
0000
0000
0000
,  // measure 3
0000
0000
0000
0000
,  // measure 4
1000
0100
0001
0000
1000
0100
0001
0000
,  // measure 5
1000
0100
1000
0000
0001
0100
0001
0000
,  // measure 6
0010
0100
1000
0000
1000
0100
0010
0002
,  // measure 7
0000
0003
1000
0000
1001
0000
0110
0000
,  // measure 8
0002
0000
2003
0000
3001
0010
0100
1000
,  // measure 9
2000
0000
3002
0000
1003
0010
0100
0001
,  // measure 10
0002
0000
0003
0010
0200
0000
0300
1000
,  // measure 11
0002
0000
0003
0010
0010
0000
0000
0001
,  // measure 12
2000
0000
3002
0000
1003
0010
0100
0001
,  // measure 13
0002
0000
2003
0000
3001
0100
0010
0100
,  // measure 14
0002
0000
0003
1000
0200
0000
0300
0010
,  // measure 15
0002
0000
0003
1000
1000
0010
0100
0000
,  // measure 16
1001
0000
0110
0000
1000
0010
0100
0000
,  // measure 17
1001
0000
0110
0000
0001
0010
0100
0000
,  // measure 18
1000
1100
0001
0101
,  // measure 19
2000
0000
0000
0100
3100
0000
0110
0000
,  // measure 20
1001
0000
0110
0000
0001
0100
0010
0000
,  // measure 21
1001
0000
0110
0000
1000
0100
0010
0100
,  // measure 22
1000
0000
0010
0100
0000
0001
1000
0000
,  // measure 23
0001
1000
0100
0000
1000
0001
0100
0010
,  // measure 24
0200
0000
0000
0000
0302
0000
0000
0000
1003
0000
0000
0100
0000
0000
0100
0000
,  // measure 25
2000
0000
0000
3010
0100
0001
0100
0001
,  // measure 26
2000
0000
0000
0000
3200
0000
0000
0000
0310
0000
0000
0010
0000
0000
0100
0000
,  // measure 27
1000
0000
0000
0010
0000
0000
0100
0000
0001
0000
0000
0000
0000
0000
1000
0000
,  // measure 28
0002
0000
0000
0000
0023
0000
0000
0000
0031
0000
0000
0001
0000
0000
1000
0000
,  // measure 29
0010
0000
0000
0010
0000
0000
0100
0000
0001
0000
0000
0000
0110
0000
0000
0000
,  // measure 30
1001
0000
0100
0000
0100
0100
0100
0000
,  // measure 31
0002
0010
0023
0100
,  // measure 32
0230
0000
0000
1300
1000
0001
1000
0000
,  // measure 33
0020
0100
0230
0001
,  // measure 34
0302
0000
0000
0013
0010
0100
1000
0000
,  // measure 35
2000
0010
3020
0100
,  // measure 36
0230
0000
0000
0301
0001
1000
0001
0000
,  // measure 37
0020
0100
0230
1000
,  // measure 38
2300
0000
0010
0000
3020
0000
0000
0130
,  // measure 39
0002
1000
0023
1000
,  // measure 40
0230
0000
0000
1300
1000
0001
1000
0000
,  // measure 41
0020
1000
0230
0001
,  // measure 42
0302
0000
0000
0013
0010
0100
1000
0000
,  // measure 43
2000
0001
3020
1000
,  // measure 44
0230
0000
0000
0301
0001
1000
0100
0000
,  // measure 45
0020
0100
0230
0010
,  // measure 46
0320
0000
0001
0000
0032
0000
0000
1003
,  // measure 47
2000
0000
0100
0000
3100
0010
0001
0000
,  // measure 48
0020
0000
0100
0000
0130
1000
0001
0100
,  // measure 49
0200
0000
0010
0000
0310
1000
0010
0200
,  // measure 50
0000
0300
0001
1000
0000
0001
1000
0000
,  // measure 51
1000
0001
0100
0000
0001
1000
0100
0000
,  // measure 52
1000
0100
1000
0000
0001
0100
0001
0000
,  // measure 53
0010
0100
1000
0000
0010
0100
0001
0000
,  // measure 54
1000
0010
1000
0000
0001
0010
0001
0000
,  // measure 55
1000
0001
0010
0000
0001
1000
0010
0000
,  // measure 56
1000
0100
0010
0000
0001
0100
0010
0000
,  // measure 57
1000
0100
0001
0000
0001
0010
1000
0200
,  // measure 58
0000
0300
1000
0000
0100
0000
0110
0000
,  // measure 59
0001
1000
0001
0000
0000
0000
0000
0000
;

//---------------dance-single - ----------------
#NOTES:
     dance-single:
     :
     Hard:
     9:
     0.515458,0.568580,0.143944,0.460622,0.283090,376.000000,361.000000,15.000000,48.000000,0.000000,0.000000,0.515458,0.568580,0.143944,0.460622,0.283090,376.000000,361.000000,15.000000,48.000000,0.000000,0.000000:
// measure 0
0000
0000
0000
0000
,  // measure 1
0000
0000
0000
0000
,  // measure 2
0000
0000
0000
0000
,  // measure 3
0000
0000
0000
0000
,  // measure 4
0010
1000
0010
1000
0010
0000
0000
1000
0001
0000
0010
0000
0100
0000
1000
0001
,  // measure 5
0000
0000
1000
0000
0100
0000
0010
0100
0000
0000
1000
0000
0010
0000
0100
0000
,  // measure 6
0001
0010
0001
0010
0001
0000
0000
1000
0010
0000
0100
0000
0001
1000
0002
0000
,  // measure 7
0000
0000
0003
0000
1000
0100
1000
0100
1000
0000
0000
0000
0110
0000
0001
0000
,  // measure 8
2000
0000
0000
0000
3020
0000
0000
0130
0001
1000
0000
0100
0000
0000
0010
0000
,  // measure 9
0020
0000
0000
0000
0032
0000
0000
0000
0103
0010
0000
1000
0000
0000
0001
0000
,  // measure 10
0010
0100
1000
0001
0010
0100
1000
0100
,  // measure 11
0020
0000
0000
0031
0002
1000
1003
0010
,  // measure 12
0020
0000
0000
0000
2030
0000
0000
0000
3001
0010
0000
0100
0000
0000
1000
0000
,  // measure 13
0002
0000
0000
0000
2003
0000
0000
0000
3001
0100
0000
0010
0000
0000
0100
0000
,  // measure 14
0001
0000
0000
1000
0000
0000
0100
0000
0010
0000
0000
0001
0000
0000
0100
0000
,  // measure 15
0020
0000
0000
1030
2000
0001
3001
0100
,  // measure 16
0010
0000
0000
1000
0001
0000
0000
0010
0100
0010
0000
0100
0000
0000
1000
0000
,  // measure 17
0001
0000
0000
0001
0010
0000
0000
0010
1000
0010
0000
0001
0000
0000
1000
0000
,  // measure 18
0100
0010
0001
1000
0100
0010
0001
0100
,  // measure 19
0020
0000
0000
1030
2000
0001
3001
0100
,  // measure 20
0100
0000
0000
0100
0010
0000
0000
0010
1000
0001
0000
0100
0000
0000
0010
0000
,  // measure 21
1000
0000
0000
1000
0001
0000
0000
0001
0100
0010
0000
1000
0000
0000
0001
0000
,  // measure 22
0100
0000
0010
0100
0001
0000
0010
0100
,  // measure 23
1000
0000
0000
0010
0000
0000
0100
0000
0001
0000
0000
0010
0000
0000
0100
0000
,  // measure 24
2000
0000
0000
0000
3200
0000
0000
0000
1300
0000
0000
0100
0000
0000
0100
0000
,  // measure 25
0020
0000
0000
0130
1000
0001
0001
1000
,  // measure 26
0020
0000
0000
0000
0230
0000
0000
0000
0301
0000
0000
0001
0000
0000
0100
0000
,  // measure 27
0010
0000
0000
0010
0000
0000
1000
0000
1000
0000
0000
0000
0010
0000
0100
0000
,  // measure 28
0002
0000
0000
0000
2003
0000
0000
0000
3001
0000
0000
0010
0000
0000
0100
0000
,  // measure 29
0010
0000
0000
0010
0000
0000
0001
0000
2001
0000
0000
0000
3001
0000
0000
0000
,  // measure 30
0100
0000
0000
0000
0100
0000
0000
0000
0100
0000
0000
0000
0001
0100
0001
0100
,  // measure 31
0002
0000
1000
0000
0023
0000
1000
0030
,  // measure 32
0200
0000
0000
1000
1300
0010
1001
0000
,  // measure 33
2000
0100
3020
0001
,  // measure 34
0230
0000
0000
0010
0310
1000
1001
0000
,  // measure 35
2000
0001
3200
1000
,  // measure 36
0320
0000
0000
0001
0031
0000
1001
0000
,  // measure 37
0020
1000
0230
0001
,  // measure 38
0320
0000
0100
0000
2030
0000
0000
3001
,  // measure 39
0020
0100
0100
0000
0230
1000
1000
0000
,  // measure 40
2300
0000
0000
0100
3100
0010
1001
0000
,  // measure 41
0002
0010
0010
0000
0023
0100
0100
0000
,  // measure 42
0230
0000
0000
0010
0310
0001
1001
0000
,  // measure 43
0002
0000
1000
1003
0020
0000
1000
1030
,  // measure 44
0200
0000
0000
1000
1300
0010
1001
0000
,  // measure 45
0020
0000
0100
0130
0002
0000
0010
0013
,  // measure 46
0200
0000
1000
1300
0001
0000
0100
0010
,  // measure 47
1001
0001
1000
0100
1000
0010
0100
0001
,  // measure 48
0010
0100
1000
0001
0010
0100
1000
0001
,  // measure 49
0001
1000
0010
0100
0010
1000
0001
0011
,  // measure 50
0000
0000
0000
1001
0000
0110
1001
0000
,  // measure 51
1000
0100
1000
0100
1000
0000
0000
0000
0010
0000
0100
0000
0001
0000
0100
0000
,  // measure 52
1000
0100
0001
0010
0100
1000
0100
0010
,  // measure 53
0001
1000
0100
1000
0001
0000
0000
0000
1000
0000
0010
0000
0100
0000
0001
0000
,  // measure 54
1000
0100
0001
0100
1000
0001
0100
0010
,  // measure 55
0100
0001
0100
0001
0100
0000
0000
0000
0001
0000
1000
0000
0100
0000
1000
0000
,  // measure 56
0010
0100
0001
0100
1000
0100
0010
0100
,  // measure 57
1000
0001
0100
0001
1000
0000
0000
0000
0001
0000
0010
0000
0100
0000
1001
0000
,  // measure 58
0000
0000
0000
0000
1000
0100
1000
0100
1000
0000
0000
0000
1001
0000
0000
0000
,  // measure 59
0001
1000
0001
1000
0001
0000
0000
0000
0000
0000
0000
0000
0000
0000
0000
0000
;
