#VERSION:0.83;
#TITLE:Unite!;
#SUBTITLE:(Airwave Remix);
#ARTIST:浜崎あゆみ;
#TITLETRANSLIT:;
#SUBTITLETRANSLIT:;
#ARTISTTRANSLIT:Ayumi Hamasaki;
#GENRE:;
#ORIGIN:;
#CREDIT:;
#BANNER:Unite airwave bn2.png;
#BACKGROUND:Unite airwave bg.png;
#PREVIEWVID:;
#JACKET:;
#CDIMAGE:;
#DISCIMAGE:;
#LYRICSPATH:;
#CDTITLE:;
#MUSIC:Unite! (Airwave Remix).mp3;
#OFFSET:-0.070000;
#SAMPLESTART:80.095001;
#SAMPLELENGTH:12.000000;
#SELECTABLE:YES;
#BPMS:0.000=138.000,
152.000=69.000,
168.000=138.000;
#STOPS:;
#DELAYS:;
#WARPS:;
#TIMESIGNATURES:0.000=4=4;
#TICKCOUNTS:0.000=4;
#COMBOS:0.000=1;
#SPEEDS:0.000=1.000=0.000=0;
#SCROLLS:0.000=1.000;
#FAKES:;
#LABELS:0.000=Song Start;
#BGCHANGES:;
#KEYSOUNDS:;
#ATTACKS:
;

//---------------dance-single - ----------------
#NOTEDATA:;
#CHARTNAME:;
#STEPSTYPE:dance-single;
#DESCRIPTION:;
#CHARTSTYLE:;
#DIFFICULTY:Easy;
#METER:2;
#RADARVALUES:0.200692,0.253174,0.025856,0.448172,0.000000,163.000000,160.000000,3.000000,52.000000,0.000000,0.000000,0.000000,0.000000,0.000000,0.200692,0.253174,0.025856,0.448172,0.000000,163.000000,160.000000,3.000000,52.000000,0.000000,0.000000,0.000000,0.000000,0.000000;
#CREDIT:;
#NOTES:
// measure 0
0000
0000
0000
0000
,  // measure 1
0000
0000
0000
0000
,  // measure 2
0000
0000
0000
0000
,  // measure 3
0000
0000
0000
0000
,  // measure 4
1000
0010
0000
0010
,  // measure 5
0000
0100
0000
0001
,  // measure 6
0000
0001
0000
0001
,  // measure 7
0000
1000
0000
0010
,  // measure 8
0100
0001
1000
1000
,  // measure 9
0100
1000
0001
0001
,  // measure 10
0010
0100
1000
1000
,  // measure 11
0010
0100
0001
0001
,  // measure 12
0100
1000
0010
1000
,  // measure 13
0100
0001
0010
0001
,  // measure 14
0100
1000
0010
0001
,  // measure 15
0100
0010
0100
0100
,  // measure 16
0001
0001
0002
0003
,  // measure 17
0010
0010
0020
0030
,  // measure 18
0100
1000
0000
1000
,  // measure 19
0002
0003
0020
0030
,  // measure 20
0100
0100
0200
0300
,  // measure 21
1000
1000
2000
3010
,  // measure 22
0200
0300
0020
0030
,  // measure 23
2000
3000
0002
0003
,  // measure 24
1000
1000
0002
0103
,  // measure 25
0001
0001
2000
3100
,  // measure 26
1000
1000
0010
0100
,  // measure 27
0002
0003
2000
3000
,  // measure 28
0001
0001
0020
0031
,  // measure 29
1000
1000
0020
1030
,  // measure 30
0001
0010
1001
0000
,  // measure 31
1000
1000
0001
0001
,  // measure 32
0020
0030
0200
0300
,  // measure 33
1000
0001
1001
0000
,  // measure 34
0001
0001
1000
1000
,  // measure 35
0200
0300
0020
0030
,  // measure 36
0001
0010
1000
0100
,  // measure 37
0001
0001
1000
1000
,  // measure 38
0002
0000
0023
0000
,  // measure 39
0230
0000
0000
0000
,  // measure 40
2300
0000
3020
0000
,  // measure 41
0230
0000
0000
0302
,  // measure 42
0023
0000
0230
0000
,  // measure 43
2300
0000
3001
1000
,  // measure 44
0020
0000
0230
0000
,  // measure 45
0302
0000
1003
0001
,  // measure 46
0020
0000
0230
0000
,  // measure 47
2300
0000
3001
1000
,  // measure 48
0002
0000
0023
0000
,  // measure 49
0032
0000
2003
3020
,  // measure 50
0230
0000
0000
0300
,  // measure 51
0002
0003
2000
3000
,  // measure 52
0010
0010
0100
0001
,  // measure 53
2000
3000
0002
0003
,  // measure 54
0010
0100
0100
0010
,  // measure 55
0002
0003
2000
3000
,  // measure 56
0020
0030
0200
0300
,  // measure 57
0001
1000
0100
0010
,  // measure 58
2002
0000
0000
3003
;

//---------------dance-single - ----------------
#NOTEDATA:;
#CHARTNAME:;
#STEPSTYPE:dance-single;
#DESCRIPTION:;
#CHARTSTYLE:;
#DIFFICULTY:Medium;
#METER:6;
#RADARVALUES:0.300423,0.354443,0.060331,0.439553,0.000000,244.000000,237.000000,7.000000,51.000000,0.000000,0.000000,0.000000,0.000000,0.000000,0.300423,0.354443,0.060331,0.439553,0.000000,244.000000,237.000000,7.000000,51.000000,0.000000,0.000000,0.000000,0.000000,0.000000;
#CREDIT:;
#NOTES:
// measure 0
0000
0000
0000
0000
,  // measure 1
0000
0000
0000
0000
,  // measure 2
0000
0000
0000
0000
,  // measure 3
0000
0000
0000
0000
,  // measure 4
0010
1000
1000
0001
,  // measure 5
0001
0010
0010
0100
,  // measure 6
0100
1000
1000
0010
,  // measure 7
0010
0100
0100
0001
,  // measure 8
1000
0100
0000
0001
0000
0100
0000
0001
,  // measure 9
0000
0100
0000
1000
0000
0100
0000
1000
,  // measure 10
0000
0001
0000
0010
0000
0001
0000
0010
,  // measure 11
0000
1000
0000
0010
0000
1000
0000
0010
,  // measure 12
0000
0100
0000
1000
0000
0001
0000
0001
,  // measure 13
0000
1000
0000
1000
0000
0010
0000
0100
,  // measure 14
0000
0001
0000
0001
0000
0100
0000
0010
,  // measure 15
0000
1000
0000
0100
0000
1000
0000
1000
,  // measure 16
0002
0000
2003
0000
3001
0010
0100
0000
,  // measure 17
2000
0000
3002
0000
1003
0010
0100
0000
,  // measure 18
0001
1000
0000
0001
0000
0010
0100
0000
,  // measure 19
2000
0000
0000
0001
0002
3003
0000
1000
,  // measure 20
0020
0000
0230
0000
0310
0001
1000
0000
,  // measure 21
0020
0000
0230
0000
0301
1000
0010
0000
,  // measure 22
1000
0001
0000
0010
0000
0001
1000
0000
,  // measure 23
0200
0000
0000
0010
0020
0330
0000
0100
,  // measure 24
0001
0000
1001
0000
0010
0100
0010
0000
,  // measure 25
1000
0000
1001
0000
0100
0010
0100
0000
,  // measure 26
0010
1001
0100
1001
,  // measure 27
2000
0000
0000
0001
0002
3003
0000
1000
,  // measure 28
0001
0000
0110
0000
1000
0001
0100
0000
,  // measure 29
1000
0000
0110
0000
0001
1000
0100
0001
,  // measure 30
0100
0000
0010
0100
0000
0100
1000
0000
,  // measure 31
0010
0100
0001
0000
1000
0000
0001
0100
,  // measure 32
0020
0000
0030
1000
0002
0000
0003
0100
,  // measure 33
0020
0000
0030
1000
0200
0000
0300
0010
,  // measure 34
0002
0000
0003
1000
0020
0000
0030
0100
,  // measure 35
0002
0000
0003
0010
0020
0000
0030
0100
,  // measure 36
2000
3001
0020
0130
,  // measure 37
1000
0100
1000
0001
0100
0001
1000
0100
,  // measure 38
2000
0000
3002
0000
,  // measure 39
0203
0000
0000
0320
,  // measure 40
2030
0000
3002
0023
,  // measure 41
0230
0000
0000
0000
2300
0000
3002
0203
,  // measure 42
0320
0000
0230
0000
,  // measure 43
0302
0000
0000
1000
1003
0000
0100
0000
,  // measure 44
2000
0000
3020
0000
,  // measure 45
0230
0000
0000
0010
0310
0000
1000
0000
,  // measure 46
0002
0010
0023
0100
,  // measure 47
0230
0000
0000
1000
1300
0000
0001
0000
,  // measure 48
0020
0100
0230
0010
,  // measure 49
0320
0000
0001
0000
0032
0000
1003
0010
,  // measure 50
0020
0000
0100
0000
0130
0000
0100
0001
,  // measure 51
1000
0000
1000
0000
0001
0000
0001
0010
,  // measure 52
0100
0000
1000
0000
0001
0000
1000
0100
,  // measure 53
0010
0000
0001
0000
1000
0000
0001
0100
,  // measure 54
0001
1000
0000
0001
0000
0001
0000
0010
,  // measure 55
0000
0100
0000
1000
0000
1000
0000
1000
,  // measure 56
0001
0010
0001
0000
0001
0010
0100
0000
,  // measure 57
1000
0010
1000
0000
1000
0100
0010
0000
,  // measure 58
2002
0000
0000
3003
;

//---------------dance-single - ----------------
#NOTEDATA:;
#CHARTNAME:;
#STEPSTYPE:dance-single;
#DESCRIPTION:;
#CHARTSTYLE:;
#DIFFICULTY:Hard;
#METER:8;
#RADARVALUES:0.458021,0.556982,0.448172,0.353366,0.112043,372.000000,320.000000,52.000000,41.000000,0.000000,0.000000,0.000000,0.000000,0.000000,0.458021,0.556982,0.448172,0.353366,0.112043,372.000000,320.000000,52.000000,41.000000,0.000000,0.000000,0.000000,0.000000,0.000000;
#CREDIT:;
#NOTES:
// measure 0
0000
0000
0000
0000
,  // measure 1
0000
0000
0000
0000
,  // measure 2
0000
0000
0000
0000
,  // measure 3
0000
0000
0000
0000
,  // measure 4
0100
1001
0100
1001
,  // measure 5
0010
0101
0010
1100
,  // measure 6
0010
1001
0010
1001
,  // measure 7
0100
0011
0100
1010
,  // measure 8
1000
0001
1001
1000
0100
1000
1001
0001
,  // measure 9
0100
0001
1001
1000
0100
1000
1001
0001
,  // measure 10
0010
0001
1001
1000
0010
1000
1001
0001
,  // measure 11
0010
0001
1001
1000
0010
1000
1001
0001
,  // measure 12
1000
0010
1010
0010
0100
0001
0101
0100
,  // measure 13
0010
0100
0110
0010
1000
0010
1010
1000
,  // measure 14
0100
1000
1100
0100
0010
0100
0110
0010
,  // measure 15
0001
0010
0011
0001
0010
0100
1000
0001
,  // measure 16
2000
0000
0000
0000
3002
0000
0000
1003
0100
1000
0000
0001
0000
0000
1000
0000
,  // measure 17
2000
0000
0000
0000
3002
0000
0000
0000
1003
0010
0000
0100
0000
0000
0001
0000
,  // measure 18
1000
0100
0000
0010
0000
0100
0000
1000
,  // measure 19
0002
0000
0000
0010
0013
0000
0001
1000
,  // measure 20
2000
0000
0000
0000
3200
0000
0000
0000
0310
0001
0000
0100
0000
0000
0010
0000
,  // measure 21
2000
0000
0000
0000
3002
0000
0000
0000
1003
0100
0000
0010
0000
0000
0100
0000
,  // measure 22
1000
1000
1001
0000
0001
0001
1001
0000
,  // measure 23
0020
0000
0000
0100
0130
1000
0001
0010
,  // measure 24
0011
0000
0000
0000
1100
0000
0000
0000
1000
0010
0000
0100
0000
0000
0001
0000
,  // measure 25
1100
0000
0000
0000
0011
0000
0000
0000
0001
0010
0000
0100
0000
0000
1000
0000
,  // measure 26
0020
0000
0130
0000
0001
1000
0100
1000
,  // measure 27
0002
0000
0000
0010
0013
0100
1000
0001
,  // measure 28
1001
0000
0000
0000
0110
0000
0000
0000
1000
0001
0000
0100
0000
0000
0010
0000
,  // measure 29
1010
0000
0000
0000
0101
0000
0000
0000
0001
1000
0000
0010
0000
0000
0100
0000
,  // measure 30
0001
0000
0010
1100
0000
1001
1001
0000
,  // measure 31
1000
0000
0001
0000
0100
0001
0100
0000
0001
0000
1000
0000
0100
1000
0100
0000
,  // measure 32
1000
0000
0001
0000
1001
0000
0000
0000
0001
0000
0000
0100
0000
0000
0100
0000
,  // measure 33
0020
0000
0030
0100
0001
0000
1001
0001
,  // measure 34
1000
0000
0001
0000
1001
0000
0000
0000
1000
0000
0000
1000
0000
0000
1000
0000
,  // measure 35
0100
0000
0000
0010
0000
0000
0001
0000
0001
0000
1000
0000
0001
0000
1000
0000
,  // measure 36
1010
0000
0000
0000
0101
0000
0000
0000
0001
0000
1000
0100
0000
1000
0100
0000
,  // measure 37
0010
0000
0001
1000
0000
0001
0010
0000
0100
0000
1000
0000
0001
0000
1000
0000
,  // measure 38
2001
0000
3020
0000
,  // measure 39
0230
0000
0302
2003
,  // measure 40
3020
0000
0230
0302
,  // measure 41
0023
0000
0000
0000
0230
0000
2300
3002
,  // measure 42
0023
1000
0230
0001
,  // measure 43
2300
0000
0000
0001
3001
1000
0010
0100
,  // measure 44
0002
0100
0023
1000
,  // measure 45
0230
0000
0000
0010
0310
0001
0010
0100
,  // measure 46
2000
0100
3020
0001
,  // measure 47
0230
0000
0000
0001
0301
1000
0100
1000
,  // measure 48
0020
0001
0230
1000
,  // measure 49
0320
0000
1000
0000
2030
0000
0000
3001
,  // measure 50
0200
0010
0000
0010
0000
0310
0000
0010
,  // measure 51
0100
0001
0100
0001
1000
0100
0001
0100
,  // measure 52
1000
0001
1001
1000
0000
1000
1001
0001
,  // measure 53
0010
0100
0010
0100
1000
0001
0100
0001
,  // measure 54
1000
1001
0000
1010
0000
0001
0010
0001
,  // measure 55
0100
0101
0000
1000
0000
0001
1000
0100
,  // measure 56
0010
0110
0000
1001
0000
0001
1000
0010
,  // measure 57
0100
0110
0000
0001
0000
1000
0000
0110
,  // measure 58
2002
0000
0000
3003
;
