#VERSION:0.83;
#TITLE:The DDR History;
#SUBTITLE:;
#ARTIST:DJ Slash & The DDR All-Stars;
#TITLETRANSLIT:;
#SUBTITLETRANSLIT:;
#ARTISTTRANSLIT:;
#GENRE:;
#ORIGIN:;
#CREDIT:;
#BANNER:ddr history bn2.png;
#BACKGROUND:ddr history bg.png;
#PREVIEWVID:;
#JACKET:;
#CDIMAGE:;
#DISCIMAGE:;
#LYRICSPATH:;
#CDTITLE:;
#MUSIC:DJ Slash & The DDR All-Stars - The DDR History.mp3;
#OFFSET:-1.610000;
#SAMPLESTART:0.041000;
#SAMPLELENGTH:12.000000;
#SELECTABLE:YES;
#BPMS:0.000=116.000,
47.000=106.000,
48.000=135.000,
136.000=143.000,
138.000=147.000,
140.000=150.000,
142.000=154.000,
144.000=163.000,
146.000=165.000,
148.000=168.000,
150.000=169.000,
152.000=170.000,
280.000=193.000,
282.000=260.000,
443.000=210.000,
445.000=280.000,
447.000=163.000,
448.000=200.000,
671.000=132.000,
672.000=138.000,
751.000=141.000,
752.000=155.100,
848.000=130.000,
848.500=115.000,
849.000=100.000,
849.500=70.000,
850.000=40.000,
850.500=65.000,
851.000=115.000,
851.500=135.000,
852.000=166.600,
868.000=333.200;
#STOPS:;
#DELAYS:;
#WARPS:;
#TIMESIGNATURES:0.000=4=4;
#TICKCOUNTS:0.000=4;
#COMBOS:0.000=1;
#SPEEDS:0.000=1.000=0.000=0;
#SCROLLS:0.000=1.000;
#FAKES:;
#LABELS:0.000=Song Start;
#BGCHANGES:;
#KEYSOUNDS:;
#ATTACKS:
;

//---------------dance-single - ----------------
#NOTEDATA:;
#CHARTNAME:;
#STEPSTYPE:dance-single;
#DESCRIPTION:;
#CHARTSTYLE:;
#DIFFICULTY:Easy;
#METER:5;
#RADARVALUES:0.386543,0.530063,0.365404,0.205351,0.000000,896.000000,775.000000,121.000000,68.000000,0.000000,0.000000,0.000000,0.000000,0.000000,0.386543,0.530063,0.365404,0.205351,0.000000,896.000000,775.000000,121.000000,68.000000,0.000000,0.000000,0.000000,0.000000,0.000000;
#CREDIT:;
#NOTES:
// measure 0
0000
0000
0000
0000
,  // measure 1
0000
0000
0000
0000
,  // measure 2
0000
0000
0000
0000
,  // measure 3
0000
0000
0000
0000
,  // measure 4
1001
0100
0000
0100
,  // measure 5
1000
0100
0100
0010
,  // measure 6
1001
0010
0000
0010
,  // measure 7
0100
0001
0010
0100
,  // measure 8
1001
0100
1000
1000
,  // measure 9
0001
0010
0100
0010
,  // measure 10
1001
0010
0100
1000
,  // measure 11
0001
1000
0010
0100
,  // measure 12
1001
0001
0010
0000
,  // measure 13
1001
1000
0100
0000
,  // measure 14
1001
0001
0010
0100
,  // measure 15
0020
0031
2000
3001
,  // measure 16
0200
0310
2000
3001
,  // measure 17
1001
1001
1001
1001
,  // measure 18
1001
1000
1000
0001
,  // measure 19
1000
0010
0010
0100
,  // measure 20
1001
0001
1000
0010
,  // measure 21
0100
0001
0010
0010
,  // measure 22
1001
0000
0110
0000
,  // measure 23
1001
0100
1001
0000
,  // measure 24
0001
0010
0001
1000
,  // measure 25
0010
0100
1001
0100
,  // measure 26
1001
0100
0010
0001
,  // measure 27
1000
1000
1001
0001
,  // measure 28
1001
0010
0100
1000
,  // measure 29
0001
0001
1001
1000
,  // measure 30
1001
0010
0100
0010
,  // measure 31
1001
0010
1001
0100
,  // measure 32
1000
1000
0001
0001
,  // measure 33
1001
0110
1001
0000
,  // measure 34
1001
0100
1001
0010
,  // measure 35
1001
0100
0100
0100
,  // measure 36
1001
0100
0010
0001
,  // measure 37
1000
1000
0001
0001
,  // measure 38
1001
0001
0010
0100
,  // measure 39
1000
1000
0001
0001
,  // measure 40
1000
0010
0100
0100
,  // measure 41
0001
0001
1000
1000
,  // measure 42
0001
0001
0010
0010
,  // measure 43
0001
0001
0100
0100
,  // measure 44
0010
0010
1000
1000
,  // measure 45
0001
1000
0001
0000
1000
0001
1000
0000
,  // measure 46
0010
0010
0100
0100
,  // measure 47
0001
0001
1000
1000
,  // measure 48
0001
0001
0010
0010
,  // measure 49
0001
1000
0001
0000
1000
0001
1000
0000
,  // measure 50
0100
0010
0010
0100
,  // measure 51
1000
0001
0001
1000
,  // measure 52
0010
0100
0100
0001
,  // measure 53
0010
0100
0100
1000
,  // measure 54
0001
1001
1000
1001
,  // measure 55
0001
0010
0100
1000
,  // measure 56
1000
1001
0001
1001
,  // measure 57
0010
0100
0100
0100
,  // measure 58
0010
1001
0100
1001
,  // measure 59
0002
1003
2000
3001
,  // measure 60
0010
1001
0100
1001
,  // measure 61
0002
0013
0200
1300
,  // measure 62
0010
1001
0100
1001
,  // measure 63
0001
1000
0100
0000
1000
0001
0100
0000
,  // measure 64
0010
0000
0000
0000
,  // measure 65
0100
0000
0000
0000
,  // measure 66
0010
0100
2002
3003
,  // measure 67
0010
0100
2002
3003
,  // measure 68
0010
0100
2002
3003
,  // measure 69
0010
0010
0100
0100
,  // measure 70
0020
0000
1030
0000
,  // measure 71
0100
0000
1001
0000
,  // measure 72
0100
0000
0001
0000
,  // measure 73
0100
0000
1001
0000
,  // measure 74
0100
0000
1000
0000
,  // measure 75
0010
0000
1001
0000
,  // measure 76
0010
0000
0001
0000
,  // measure 77
0010
0000
1001
0000
,  // measure 78
1000
0000
0002
0003
,  // measure 79
1000
0000
0002
0003
,  // measure 80
0100
0000
0002
0003
,  // measure 81
1000
0000
0002
0003
,  // measure 82
0010
0000
0100
1000
,  // measure 83
0100
0000
0010
0000
,  // measure 84
0001
0000
0100
0010
,  // measure 85
0100
0000
0001
0000
,  // measure 86
1000
0000
0000
0010
0000
0000
0000
0000
,  // measure 87
1000
0000
0001
0000
,  // measure 88
1000
0000
0010
0000
,  // measure 89
0100
0000
0100
0000
,  // measure 90
0010
0000
0001
0000
,  // measure 91
1000
0000
1000
0000
,  // measure 92
0010
0000
0010
0000
,  // measure 93
0100
0000
0100
0000
,  // measure 94
0001
0000
1001
0000
,  // measure 95
0010
0000
0010
0000
,  // measure 96
0100
0000
0100
0000
,  // measure 97
0001
0000
0001
0000
,  // measure 98
1000
0000
1000
0000
,  // measure 99
0010
0000
0010
0000
,  // measure 100
0100
0000
0100
0000
,  // measure 101
0001
0000
0010
0000
,  // measure 102
0100
0000
1000
0001
,  // measure 103
0000
1000
0100
0010
,  // measure 104
0000
2002
0000
3003
,  // measure 105
0000
1000
0000
0001
,  // measure 106
1000
0000
1000
0001
,  // measure 107
0000
0100
0010
1000
,  // measure 108
0000
2002
0000
3003
,  // measure 109
0000
0001
0000
0010
,  // measure 110
0000
0100
1000
0002
,  // measure 111
0000
0000
0000
0000
,  // measure 112
1003
1000
0010
0100
,  // measure 113
0001
0000
1000
0000
,  // measure 114
0010
0100
0100
0001
,  // measure 115
1000
0000
0001
0001
,  // measure 116
0010
0100
1000
0000
,  // measure 117
1000
0000
0010
0100
,  // measure 118
0001
0001
1000
0000
,  // measure 119
1000
1000
0001
0010
,  // measure 120
0100
0000
0100
0000
,  // measure 121
1000
1000
0010
0100
,  // measure 122
0001
0000
1000
0001
,  // measure 123
1000
0010
0100
0000
,  // measure 124
0100
0000
0001
0010
,  // measure 125
0010
0100
1000
0001
,  // measure 126
1001
0100
1000
0100
,  // measure 127
0001
0100
0001
0100
,  // measure 128
1000
0100
0001
0100
,  // measure 129
1000
0010
0001
0100
,  // measure 130
1001
0001
0010
0001
,  // measure 131
0010
1000
0010
1000
,  // measure 132
0010
0001
0100
1000
,  // measure 133
1001
0000
0000
0000
0000
0000
0000
1000
,  // measure 134
0000
0000
1000
0000
0000
0100
0000
0000
,  // measure 135
0100
0000
0010
0000
0001
1000
0000
0000
,  // measure 136
1000
0000
0000
0001
0000
0000
0001
0000
,  // measure 137
0010
0000
0100
1000
0000
0000
0001
0000
,  // measure 138
0000
0001
0000
0000
0010
0000
0100
0000
,  // measure 139
1000
0001
0000
0000
0001
1000
0000
0010
,  // measure 140
0000
1000
1000
1001
,  // measure 141
0001
0001
0100
1000
,  // measure 142
1000
0100
0001
0010
,  // measure 143
0010
0100
1000
0001
,  // measure 144
0001
1000
0010
1001
,  // measure 145
0001
0001
1000
0010
,  // measure 146
0010
0100
0010
1000
,  // measure 147
0001
0001
0010
0100
,  // measure 148
1000
0001
1000
1001
,  // measure 149
0001
0001
1000
0010
,  // measure 150
0010
0100
0100
0010
,  // measure 151
0010
0100
0001
0010
,  // measure 152
0010
0100
0100
1001
,  // measure 153
1000
1000
0001
0010
,  // measure 154
0010
0100
0100
0010
,  // measure 155
0001
1000
0010
0100
,  // measure 156
0001
1000
0001
1001
,  // measure 157
0100
0100
0100
0100
,  // measure 158
1000
0000
1000
0001
0000
0000
0100
0000
,  // measure 159
0100
0100
0100
0001
,  // measure 160
0001
0000
0001
1000
0000
0000
0001
0000
,  // measure 161
0001
0010
0010
0100
,  // measure 162
0100
0000
1000
0001
0000
0000
1000
0000
,  // measure 163
1000
0010
0010
0100
,  // measure 164
0100
0000
0001
1000
0001
0000
1000
0000
,  // measure 165
0000
1000
0000
0000
0100
0000
0000
0100
,  // measure 166
0000
0000
0010
0000
0000
0010
0000
0000
,  // measure 167
0001
0000
0000
0001
0000
0000
1000
0000
,  // measure 168
2002
0000
0000
3003
,  // measure 169
0220
0000
0000
0330
,  // measure 170
2002
0000
0000
3003
,  // measure 171
1001
0100
1001
0010
,  // measure 172
0001
0001
1000
0010
,  // measure 173
0100
0100
0001
0010
,  // measure 174
0100
0100
1000
0001
,  // measure 175
1000
0110
2002
3003
,  // measure 176
1000
1100
1000
1100
,  // measure 177
0001
0011
0001
0011
,  // measure 178
0010
0110
0010
0110
,  // measure 179
2002
0000
0000
3003
,  // measure 180
1001
1000
0001
0010
,  // measure 181
0100
0100
0010
0001
,  // measure 182
1001
1000
0010
0100
,  // measure 183
0001
0110
2002
3003
,  // measure 184
1001
0100
0100
1000
,  // measure 185
1001
0001
0001
0010
,  // measure 186
1001
1000
0001
0100
,  // measure 187
1001
0100
2002
3003
,  // measure 188
1001
0100
2000
3001
,  // measure 189
0010
0001
2000
3100
,  // measure 190
1001
0011
0002
0013
,  // measure 191
1001
1100
2000
3001
,  // measure 192
0010
1001
0010
1001
,  // measure 193
0100
1100
0100
1100
,  // measure 194
0001
0001
0010
0100
,  // measure 195
2002
0000
0000
3003
,  // measure 196
2000
0000
3002
0000
,  // measure 197
0013
0100
1000
0001
,  // measure 198
2000
0000
3200
0000
,  // measure 199
0310
0001
1000
0001
,  // measure 200
0020
0000
0230
0000
,  // measure 201
1300
1000
0001
2000
,  // measure 202
0002
0000
0000
3003
,  // measure 203
1001
0100
2002
3003
,  // measure 204
0002
0003
2000
3000
,  // measure 205
0010
0010
0100
0001
,  // measure 206
2002
0000
0000
3003
,  // measure 207
0010
0100
1001
0110
,  // measure 208
1001
1000
0001
0001
,  // measure 209
0010
0010
0100
0100
,  // measure 210
1000
0001
1000
1000
,  // measure 211
0010
0100
0001
0000
0010
0100
1000
0000
,  // measure 212
2002
0000
0000
3003
,  // measure 213
2000
3001
0001
0010
,  // measure 214
0200
0000
1300
0001
,  // measure 215
2000
3010
0100
0100
,  // measure 216
0002
0000
0103
0010
,  // measure 217
1000
0000
1001
0000
,  // measure 218
0100
0000
1001
0000
,  // measure 219
0100
0000
1001
0000
,  // measure 220
0010
0000
1001
0000
,  // measure 221
1000
0000
1100
0000
,  // measure 222
1000
0000
1001
0000
,  // measure 223
0001
0000
0011
0000
,  // measure 224
0001
0000
0110
0000
,  // measure 225
0001
1000
0000
1000
,  // measure 226
0000
0100
0000
0100
,  // measure 227
0000
1000
0000
0010
,  // measure 228
0100
0000
0100
0000
,  // measure 229
0001
1000
0000
1000
,  // measure 230
0000
0001
0000
0001
,  // measure 231
0000
0010
0000
0100
,  // measure 232
1000
0000
0110
0000
,  // measure 233
0001
0010
0000
0010
,  // measure 234
0000
0100
0000
1000
,  // measure 235
0000
0001
0000
1000
,  // measure 236
0010
0000
0100
0000
,  // measure 237
0001
0000
1001
0000
,  // measure 238
1000
0000
0110
0000
,  // measure 239
1001
0000
0011
0000
,  // measure 240
1001
0000
1100
0000
,  // measure 241
0001
0000
0110
0000
,  // measure 242
2002
0000
3003
0000
,  // measure 243
1000
0000
0110
0000
,  // measure 244
0001
0000
0110
0000
,  // measure 245
1000
0000
0000
1000
0000
0000
1000
0000
,  // measure 246
0001
0000
0000
0001
0000
0000
0001
0000
,  // measure 247
0010
0000
0000
0010
0000
0000
0010
0000
,  // measure 248
0100
0000
0000
0100
0000
0000
0100
0000
,  // measure 249
2002
0000
0000
0000
,  // measure 250
0000
0000
0000
3003
;

//---------------dance-single - ----------------
#NOTEDATA:;
#CHARTNAME:;
#STEPSTYPE:dance-single;
#DESCRIPTION:;
#CHARTSTYLE:;
#DIFFICULTY:Medium;
#METER:8;
#RADARVALUES:0.496984,0.643648,0.308027,0.169113,0.021139,1152.000000,1050.000000,102.000000,56.000000,0.000000,0.000000,0.000000,0.000000,0.000000,0.496984,0.643648,0.308027,0.169113,0.021139,1152.000000,1050.000000,102.000000,56.000000,0.000000,0.000000,0.000000,0.000000,0.000000;
#CREDIT:;
#NOTES:
// measure 0
0000
0000
0000
0000
,  // measure 1
0000
0000
0000
0000
,  // measure 2
0000
0000
0000
0000
,  // measure 3
0000
0000
0000
0000
,  // measure 4
1000
0100
1000
0000
0010
0000
1001
0000
,  // measure 5
0001
0100
0010
1000
0100
0100
0020
0000
,  // measure 6
0031
0100
0010
0000
1000
0000
0110
0100
,  // measure 7
0001
0010
0100
1000
0001
0010
0200
0000
,  // measure 8
1300
0010
1000
0000
0110
0000
1001
0000
,  // measure 9
0001
1000
0010
0100
0001
0001
2000
0000
,  // measure 10
3001
0010
0001
0000
0110
0000
1001
0000
,  // measure 11
0001
0010
0100
1000
0001
0000
0110
0000
,  // measure 12
1001
0000
0110
0000
0001
0010
0100
0000
,  // measure 13
1100
0000
0011
0000
0001
1000
0001
0000
,  // measure 14
0110
0000
1001
0000
1000
0010
0100
0001
,  // measure 15
0000
0110
0000
1000
0001
0000
0110
0000
,  // measure 16
0001
0011
1000
1100
,  // measure 17
1001
0110
1001
0110
,  // measure 18
1000
0010
0010
0000
1000
0001
0001
0000
,  // measure 19
1000
0100
0010
0001
0000
1000
0001
0000
,  // measure 20
1001
0000
1000
0100
0001
0100
1000
0000
,  // measure 21
1001
0000
0001
0100
0000
0100
0010
0000
,  // measure 22
1001
0000
0000
0000
0100
0100
0000
0000
,  // measure 23
0001
0100
0001
0010
0000
0100
0000
0100
,  // measure 24
1000
0001
1000
0001
0010
0100
1000
0001
,  // measure 25
1000
0001
0010
0000
1001
0000
0110
0000
,  // measure 26
0001
0010
0001
0000
1000
0100
1000
0000
,  // measure 27
0001
0100
0001
0000
1000
0010
1000
0000
,  // measure 28
0001
0010
0100
0000
1000
0010
0100
0000
,  // measure 29
0001
0100
0010
0000
1000
0100
0010
0000
,  // measure 30
1001
0000
1001
0000
0001
0010
0100
0000
,  // measure 31
1001
0000
1000
0100
0010
0000
0110
0000
,  // measure 32
1000
0100
0010
0100
1000
0001
0010
0000
,  // measure 33
0110
1001
0110
1001
,  // measure 34
0001
0110
1000
0110
,  // measure 35
1000
0001
0010
0100
0010
0100
0010
0100
,  // measure 36
1000
0000
0010
0100
0020
0000
1030
0001
,  // measure 37
1000
0000
0001
0000
1000
0001
0010
0100
,  // measure 38
1000
0010
0000
0010
0000
0100
0000
0100
,  // measure 39
0000
0001
0000
0001
0000
1000
0000
1000
,  // measure 40
0000
0001
0000
0001
0000
0010
0000
0100
,  // measure 41
0000
1000
0000
0001
0000
0010
0010
0010
,  // measure 42
0100
0000
1001
0000
1000
0001
0100
0000
,  // measure 43
0001
0000
0110
0000
1000
0100
1000
0000
,  // measure 44
0001
0010
0100
0000
1000
0100
1000
0000
,  // measure 45
0010
1000
0100
0001
0100
1000
0010
0000
,  // measure 46
1001
0000
0001
0010
0001
1000
0000
0020
,  // measure 47
0000
0130
0001
0000
1000
0100
1000
0002
,  // measure 48
0000
0000
0000
0103
0000
1000
0000
0000
,  // measure 49
0010
1000
0100
0001
0100
1000
0010
0000
,  // measure 50
0001
1001
0010
1001
,  // measure 51
0001
1000
0010
0000
0100
0010
0000
0000
,  // measure 52
0100
1001
0100
1001
,  // measure 53
0001
0000
1000
0010
0100
0000
0100
0010
,  // measure 54
1000
0000
0110
0000
0001
1000
0000
1000
,  // measure 55
0001
0000
0100
0000
0001
1000
0000
0000
,  // measure 56
0002
0000
0103
0000
0100
0010
0100
0001
,  // measure 57
0010
1001
0110
1001
,  // measure 58
0010
0011
0100
1100
,  // measure 59
2000
3001
0002
1003
,  // measure 60
0010
1001
0100
1001
,  // measure 61
0002
0013
0200
1300
,  // measure 62
0010
1001
0100
0101
,  // measure 63
0010
1000
0001
0000
0100
0010
1000
0000
,  // measure 64
0020
0000
0000
0000
,  // measure 65
0230
0000
0000
0000
,  // measure 66
0301
0010
0100
0000
2002
0000
3003
0000
,  // measure 67
1000
0010
0100
0000
2002
0000
3003
0000
,  // measure 68
0010
0100
0010
0000
2002
0000
3003
0000
,  // measure 69
1000
0100
0001
0000
0001
0010
1000
0000
,  // measure 70
0100
0100
1000
0001
,  // measure 71
1000
0000
0000
0010
0000
0100
0000
0100
,  // measure 72
0000
0000
0001
0010
,  // measure 73
0100
0000
0000
0010
0000
0001
0000
0001
,  // measure 74
0000
0000
1000
0010
,  // measure 75
0100
0000
0000
0001
0000
1000
0000
1000
,  // measure 76
0000
0000
0010
0100
,  // measure 77
0001
0000
0000
0010
0000
0100
0000
0100
,  // measure 78
0000
0000
0100
0000
,  // measure 79
1001
0000
0010
0000
,  // measure 80
1001
0000
0001
0000
,  // measure 81
1001
0000
1000
0000
,  // measure 82
1001
0000
1000
0100
,  // measure 83
1000
0100
0010
0001
,  // measure 84
0010
0001
1000
0010
,  // measure 85
1000
0010
0100
0001
,  // measure 86
0100
0000
0001
1000
0000
0000
0001
0000
,  // measure 87
0000
0010
0000
0000
0100
0000
0010
0000
,  // measure 88
0000
0001
0000
0000
1000
0000
0010
0000
,  // measure 89
0000
0100
0000
0000
0001
0000
0010
0000
,  // measure 90
0000
0001
0000
0000
1000
0000
0001
0000
,  // measure 91
0000
0010
0000
0000
0100
0000
0010
0000
,  // measure 92
0000
0001
0000
0000
1000
0000
0010
0000
,  // measure 93
0000
0100
0000
0000
0001
0000
1000
0000
,  // measure 94
0000
0001
0000
0000
0100
0000
0010
0000
,  // measure 95
0000
1000
0000
0000
0100
0000
0010
0000
,  // measure 96
0000
0001
0000
0000
0100
0000
0010
0000
,  // measure 97
0000
0100
0000
0000
0001
0000
0010
0000
,  // measure 98
0000
0100
0000
0000
1000
0000
0001
0000
,  // measure 99
0000
1000
0000
0000
0100
0000
1000
0000
,  // measure 100
0000
0100
0000
0000
0001
0000
0100
0000
,  // measure 101
0000
1000
0000
0000
0010
0000
0100
0000
,  // measure 102
0000
0001
0000
0000
1000
0000
0001
0000
,  // measure 103
0010
0100
0010
0001
,  // measure 104
0000
1001
0000
1000
,  // measure 105
0010
1000
0010
0100
,  // measure 106
0001
0000
0001
0010
,  // measure 107
0100
1000
0100
0010
,  // measure 108
0000
1001
0000
1000
,  // measure 109
0001
0010
0001
1000
,  // measure 110
0010
1000
0001
0200
,  // measure 111
0000
0320
0000
1030
,  // measure 112
0001
0000
0001
0000
0010
0000
0100
1000
,  // measure 113
0001
0000
0000
1000
0000
0000
0001
0010
,  // measure 114
0001
0000
1000
0000
1000
0000
0010
1000
,  // measure 115
0010
0000
0000
0100
0001
0000
1000
0000
,  // measure 116
1000
0000
0001
0010
0001
0000
0000
1000
,  // measure 117
0000
0000
0001
0010
0001
0000
1000
0000
,  // measure 118
0010
0000
0100
0001
0100
0000
0000
0010
,  // measure 119
1000
0000
1001
0000
1001
0000
0001
0010
,  // measure 120
0001
0000
0000
0100
0000
0000
0010
1000
,  // measure 121
0001
0000
0010
0000
0100
0000
1000
0100
,  // measure 122
1000
0000
0000
1000
0001
0000
1001
0000
,  // measure 123
1001
0000
0001
1000
0100
0000
0000
0010
,  // measure 124
0000
0000
0100
1000
0001
0000
1001
0000
,  // measure 125
1001
0000
1000
0001
0010
0000
0000
0010
,  // measure 126
0100
1000
0001
0001
,  // measure 127
0010
0100
1000
1000
,  // measure 128
0010
1001
0100
1001
,  // measure 129
0100
1001
0220
0330
,  // measure 130
1000
0001
0010
0000
0200
0000
1300
0000
,  // measure 131
1000
0001
0010
0000
0200
0000
1300
0000
,  // measure 132
0001
0000
0000
1000
0000
0000
0010
0000
,  // measure 133
0200
0000
0000
0300
0000
0000
0000
0001
,  // measure 134
0000
0000
1000
0000
0000
0010
0000
0000
,  // measure 135
0100
0000
0010
0000
1000
0001
0000
0000
,  // measure 136
1000
0000
0000
0001
0000
0000
0010
0000
,  // measure 137
0001
0000
0100
0001
0000
0000
1000
0000
,  // measure 138
0000
0001
0000
0000
0010
0000
0100
0000
,  // measure 139
0010
0001
0000
0000
1000
0100
0000
0100
,  // measure 140
0000
0010
0001
1001
,  // measure 141
0100
0000
0100
0000
1000
0001
1000
0000
,  // measure 142
0000
0001
0000
0000
1000
0000
0010
0000
,  // measure 143
0010
0000
0100
0000
0001
1000
0001
0000
,  // measure 144
0000
0010
0000
0000
0100
0000
1000
0000
,  // measure 145
0001
0000
0001
0000
0010
0100
0010
0000
,  // measure 146
0000
0100
0000
0000
1000
0010
0100
0000
,  // measure 147
0010
0000
0100
0000
0001
1000
0001
0000
,  // measure 148
0000
0001
0000
0000
1000
0000
1001
0000
,  // measure 149
1001
0000
0010
0000
0100
1000
0100
0000
,  // measure 150
0000
0010
0000
0000
0001
0000
1001
0000
,  // measure 151
1001
0000
1000
0000
0001
1000
0010
0000
,  // measure 152
0000
0100
0000
0000
0100
0000
0001
0000
,  // measure 153
1001
0000
1001
0000
1000
1000
0010
0000
,  // measure 154
0000
0100
0000
0000
0100
0000
1001
0000
,  // measure 155
0110
0000
1001
0000
0001
0010
0100
0000
,  // measure 156
0000
1000
0001
0000
0010
0000
1001
0000
,  // measure 157
0010
0000
1000
0100
1000
0000
0001
0000
,  // measure 158
1000
0000
0001
0010
0000
0000
1001
0000
,  // measure 159
0100
0000
0001
0100
0001
0000
0010
0000
,  // measure 160
0100
0000
1000
0001
0000
0000
1000
0010
,  // measure 161
1000
0000
0001
0100
0001
0000
1000
0100
,  // measure 162
1000
0000
0001
0010
0000
0000
1000
0010
,  // measure 163
0100
0000
0001
0010
0100
0000
1000
0001
,  // measure 164
0100
0000
0001
1000
0000
0000
1001
0000
,  // measure 165
0000
0100
0000
0000
0010
0000
0000
0001
,  // measure 166
0000
0010
0100
0000
0000
1000
0000
0000
,  // measure 167
0001
0000
0000
1000
0000
0010
0100
0000
,  // measure 168
1001
0100
0100
0100
,  // measure 169
0001
0001
0001
0010
,  // measure 170
0100
0100
0100
1000
,  // measure 171
1001
0100
0010
0110
,  // measure 172
1001
0000
0000
1000
0000
0000
1000
0000
0000
1000
0000
0000
0010
0000
0100
0000
,  // measure 173
0001
0000
0000
0001
0000
0000
0001
0000
0000
0001
0000
0000
0010
0000
0100
0000
,  // measure 174
1000
0000
0000
1000
0000
0000
1000
0000
0000
1000
0000
0000
0010
0000
0100
0000
,  // measure 175
0001
0000
1000
0000
0001
0000
0000
0010
0000
0000
0000
0000
0110
0000
0000
0000
,  // measure 176
1000
0001
0100
0001
1000
0100
1000
0010
,  // measure 177
0100
0001
0100
0010
0100
0001
0010
0000
,  // measure 178
0001
1000
0100
1000
0010
1000
0001
0010
,  // measure 179
0100
1000
0001
1000
0100
0100
0100
0000
,  // measure 180
1001
0000
0010
0000
1000
0100
0010
0100
,  // measure 181
1000
0000
0010
0000
1001
0000
0001
1000
,  // measure 182
0010
0000
1001
0000
0010
0100
0001
1000
,  // measure 183
0001
0000
0010
0000
0001
0000
0000
1000
0000
0000
0000
0000
0100
0000
0000
0000
,  // measure 184
1001
0000
0010
0000
0001
0010
0001
0000
,  // measure 185
0110
0000
1000
0000
0001
1000
0010
0000
,  // measure 186
1001
0000
0001
0000
1000
0100
1000
0000
,  // measure 187
0010
0100
1001
0010
,  // measure 188
0100
0000
1000
0000
0001
1000
0001
0000
,  // measure 189
0010
0100
1000
0000
0010
0100
0001
0000
,  // measure 190
2000
0000
0000
3010
0100
0001
1000
0000
,  // measure 191
0001
0010
0001
0000
1000
0100
1000
0000
,  // measure 192
0010
0100
0001
1000
0001
0010
0100
0000
,  // measure 193
1001
0000
0010
0000
0011
0000
1000
0001
,  // measure 194
0002
0000
0013
0100
1000
0001
0010
0000
,  // measure 195
1000
0001
0010
0010
0001
1000
0100
0000
,  // measure 196
2000
0000
3010
0200
0000
0000
0000
0302
,  // measure 197
0000
0013
0100
0000
1000
0002
0000
1003
,  // measure 198
0020
0000
0130
0002
0000
0000
0000
0023
,  // measure 199
0000
0130
1000
0001
0000
1000
0010
0000
,  // measure 200
0200
0000
0301
2000
0000
0000
0000
3001
,  // measure 201
0000
0010
0100
1000
0001
0100
0010
2000
,  // measure 202
0002
0000
0000
3003
,  // measure 203
1000
0100
1000
0020
0000
0130
0001
0000
,  // measure 204
2000
0000
3010
0100
0000
0100
0000
0001
,  // measure 205
0000
1000
0100
0000
1000
0100
0000
0100
,  // measure 206
0020
0000
0000
0000
0000
0030
0000
0001
,  // measure 207
0000
0000
0000
1000
0000
0000
0001
0000
0000
0000
0000
0000
0001
0000
0000
0000
0100
0000
0000
0000
0010
0000
0000
0000
,  // measure 208
1000
0001
1000
0000
0001
0010
0001
0000
,  // measure 209
1000
0100
1000
0000
0001
1000
0001
0000
,  // measure 210
0010
0100
1000
0000
1000
0100
0010
0000
,  // measure 211
0010
0001
0100
0000
0010
1000
0100
0000
,  // measure 212
2002
0000
0000
3003
,  // measure 213
0001
0000
0000
0100
0000
0000
0020
0000
0000
0000
0030
0000
0000
0000
0000
0000
,  // measure 214
0100
0000
0000
0000
0000
0000
0001
0000
0001
0000
0000
0100
0000
0000
0010
0000
,  // measure 215
0100
0000
0000
0001
0000
0000
2000
0000
0000
0000
3000
0000
0000
0000
0000
0000
,  // measure 216
0010
0000
0000
0000
0000
0000
0100
0000
0001
0000
0000
1000
0000
0000
0010
0000
,  // measure 217
1000
0001
1000
0000
,  // measure 218
0010
0100
0001
0000
,  // measure 219
1000
0100
1000
0000
,  // measure 220
0001
0100
0001
0000
,  // measure 221
0010
0100
1000
0000
,  // measure 222
0010
0100
0001
0000
,  // measure 223
1000
0000
0000
0001
0000
0000
0010
0000
,  // measure 224
0100
0000
0110
0000
,  // measure 225
1000
0001
0010
0100
,  // measure 226
0010
0001
2000
3000
,  // measure 227
0010
0100
0002
0003
,  // measure 228
1000
0100
0020
0030
,  // measure 229
0001
1000
0010
0100
,  // measure 230
0010
1000
0002
0003
,  // measure 231
0010
0100
2000
3000
,  // measure 232
0010
0100
0002
0003
,  // measure 233
1000
0000
0000
0100
0000
0000
0010
0000
,  // measure 234
0100
1000
0002
0003
,  // measure 235
0100
0010
2000
3001
,  // measure 236
0100
0000
0000
0010
0000
0000
1000
0000
,  // measure 237
0100
0000
0000
0010
0000
0000
0100
0000
,  // measure 238
1000
0000
0000
0001
0000
0000
1000
0000
,  // measure 239
0100
0000
0000
1000
0000
0000
0001
0000
,  // measure 240
0010
0100
1000
0001
,  // measure 241
1000
0000
0000
1000
0000
0000
0100
0000
,  // measure 242
0010
0000
0000
0001
0000
0000
0010
0000
,  // measure 243
0100
0000
0000
1000
0000
0000
0001
0000
,  // measure 244
1000
0000
0000
0010
0000
0000
0100
0000
,  // measure 245
0010
0000
0000
0100
0000
0000
0001
0000
,  // measure 246
1000
0000
0000
0001
0000
0000
0100
0000
,  // measure 247
0010
0000
0000
0010
0000
0000
0100
0000
,  // measure 248
0001
0000
0000
0001
0000
0000
0010
0000
,  // measure 249
2002
0000
0000
0000
,  // measure 250
0000
0000
0000
3003
;

//---------------dance-single - ----------------
#NOTEDATA:;
#CHARTNAME:;
#STEPSTYPE:dance-single;
#DESCRIPTION:;
#CHARTSTYLE:;
#DIFFICULTY:Hard;
#METER:10;
#RADARVALUES:0.681628,0.870817,0.320106,0.120795,0.140424,1580.000000,1474.000000,106.000000,40.000000,0.000000,0.000000,0.000000,0.000000,0.000000,0.681628,0.870817,0.320106,0.120795,0.140424,1580.000000,1474.000000,106.000000,40.000000,0.000000,0.000000,0.000000,0.000000,0.000000;
#CREDIT:;
#NOTES:
// measure 0
0000
0000
0000
0000
,  // measure 1
0000
0000
0000
0000
,  // measure 2
0000
0000
0000
0000
,  // measure 3
0000
0000
0000
0000
,  // measure 4
1000
0000
0000
0001
0000
0000
0100
0000
0000
0000
0010
0000
0100
0000
0001
0000
,  // measure 5
1000
0100
1000
0100
1000
0000
0010
0000
0100
0000
0100
0000
0001
0000
1000
0000
,  // measure 6
0001
0000
0000
1000
0000
0000
0010
0000
0000
0000
0100
0000
0001
0000
1000
0001
,  // measure 7
1000
0000
0010
1000
0010
0000
0100
0001
0100
0000
0001
0000
2000
0000
0000
0000
,  // measure 8
3001
0000
0000
0010
0000
0000
0010
0000
0000
0000
0100
0000
1000
0000
0001
0000
,  // measure 9
0010
0001
0010
0001
0010
0000
0100
0000
1000
0000
1000
0000
0001
0000
1000
0000
,  // measure 10
0010
0000
0000
0100
0000
0000
0100
0000
0000
0000
0001
0000
1000
0000
0010
0100
,  // measure 11
0010
0000
1000
0001
1000
0000
0100
1000
0100
0000
1001
0000
1001
0000
0000
0000
,  // measure 12
1001
0000
1000
0010
0001
1000
0100
0001
,  // measure 13
0000
0110
0000
1000
0001
0010
0100
0010
,  // measure 14
0001
0000
0110
0000
1000
0001
0010
0100
,  // measure 15
0000
1000
0010
0100
0010
1000
0001
0010
,  // measure 16
0100
1000
0100
0001
0010
1000
0100
0010
,  // measure 17
0110
0000
0110
0000
1001
0100
0110
0000
,  // measure 18
1001
0001
0010
0100
0010
0001
1000
0000
,  // measure 19
1001
1000
0100
0001
0000
0100
1000
0010
,  // measure 20
1010
0000
1000
0001
0010
0100
1000
0100
,  // measure 21
0110
0000
0010
0100
0000
1000
0001
1000
,  // measure 22
0010
1010
0000
0000
0001
0101
0000
0000
,  // measure 23
1000
0001
0010
1001
0000
0110
0000
1000
,  // measure 24
0001
1000
0010
0100
0010
0100
0001
1000
,  // measure 25
0010
0100
0001
0000
1001
0000
0110
1000
,  // measure 26
1010
0010
0100
0001
1000
0001
0010
0100
,  // measure 27
1000
0000
0001
0010
0001
0000
1000
0000
0010
0000
0000
0000
1001
0000
1000
0000
,  // measure 28
0001
0010
0100
0010
0001
1000
0010
0100
,  // measure 29
0001
0000
0000
0011
0000
0000
0010
0000
0000
0000
0010
0000
0100
0000
1000
0000
,  // measure 30
0001
1000
0010
1000
0001
0010
0100
0000
,  // measure 31
1001
1000
0001
0010
0011
0000
1000
0001
,  // measure 32
1000
0010
0100
0010
1000
0100
0010
0000
,  // measure 33
1001
0110
1001
1001
,  // measure 34
1001
0001
0010
0100
1000
1000
0100
0010
,  // measure 35
0001
0001
0010
0100
0010
0100
0010
0100
,  // measure 36
1001
0001
0010
0100
0020
0000
0130
1000
,  // measure 37
0001
1000
0010
0100
0001
1000
0001
0000
,  // measure 38
1001
0000
0110
0000
1000
0001
0010
0100
,  // measure 39
0010
0001
1000
0100
1000
0010
0100
0001
,  // measure 40
0010
0000
0100
0000
1000
0000
0001
0000
1000
0000
0000
0001
1000
0000
0000
1000
,  // measure 41
0100
0000
0000
0100
1000
0000
0000
1000
0001
0000
0000
0001
0100
0000
0000
0100
,  // measure 42
0010
1000
0001
0010
0001
1000
0001
0010
,  // measure 43
0000
0010
0100
1000
0001
1000
0001
0010
,  // measure 44
0000
1001
0000
0110
0000
1001
0000
0000
,  // measure 45
0010
1000
0100
0001
0100
0010
0001
0100
,  // measure 46
0010
1000
0001
1000
0010
0100
0001
0010
,  // measure 47
0000
0010
0100
1000
0001
0100
0010
0200
,  // measure 48
0000
0000
0000
1300
0000
0001
0000
0000
,  // measure 49
0010
0001
0100
1000
0100
0010
1000
0100
,  // measure 50
1000
0001
0010
0001
0010
0100
1000
0010
,  // measure 51
0100
0000
1001
0000
0001
0010
0000
0010
,  // measure 52
0100
1000
0001
1000
0010
0100
0001
1000
,  // measure 53
0000
1001
0000
0011
0000
1001
0000
0001
,  // measure 54
0010
0100
1000
0001
1000
0001
0010
0100
,  // measure 55
1000
0000
1001
0000
0001
0010
0100
0000
,  // measure 56
1001
0000
0110
0000
1000
0001
0010
0100
,  // measure 57
1000
0010
1000
0100
0010
0001
0100
0000
,  // measure 58
0001
1000
0010
0000
0100
0001
1000
0000
,  // measure 59
0002
1000
1003
0000
0020
0100
0130
0000
,  // measure 60
0010
1000
0001
0000
0100
0010
1000
0000
,  // measure 61
0002
0010
0013
0000
0200
1000
1300
0000
,  // measure 62
1000
0001
1000
0000
0010
0100
0010
0000
,  // measure 63
1000
0001
0010
0100
0010
0001
1000
0000
,  // measure 64
0010
1000
0100
0001
0100
0010
0001
0100
,  // measure 65
0010
1000
0100
0001
0100
1000
0010
0100
,  // measure 66
0001
1000
0100
0010
2002
0000
3003
0000
,  // measure 67
1000
0001
0010
0100
2002
0000
3003
0000
,  // measure 68
1000
0001
0010
0100
2002
0000
3003
0000
,  // measure 69
1000
0001
0100
0010
0100
0001
1000
0001
,  // measure 70
0010
0000
0010
0000
0001
0000
1000
0100
,  // measure 71
1000
0000
0001
0010
0000
0100
0000
0100
,  // measure 72
0000
1000
0010
0000
0100
0000
0001
0100
,  // measure 73
0001
0000
1000
0010
0000
0100
0000
0100
,  // measure 74
0000
0000
0001
1000
0001
0000
1000
0010
,  // measure 75
1000
0000
0001
0010
0000
0100
0000
0100
,  // measure 76
0000
1000
0001
0000
1000
0000
0001
0010
,  // measure 77
0001
0000
1000
0010
0000
0100
0000
0100
,  // measure 78
0000
0001
1000
0001
0020
0000
0130
0000
,  // measure 79
1000
0000
0002
1003
,  // measure 80
0010
0000
2000
3001
,  // measure 81
0010
0000
0200
1300
,  // measure 82
0001
1000
0000
1000
0002
0000
0013
0000
,  // measure 83
0100
1000
0002
0013
,  // measure 84
0100
0000
1000
0000
0001
1000
0001
1000
,  // measure 85
0001
0010
0001
0010
0100
0010
0100
0010
,  // measure 86
0100
1000
0100
1000
0000
0000
0001
0000
,  // measure 87
0010
0000
0100
1000
0100
0000
1000
0000
,  // measure 88
0001
0000
1000
0010
1000
0000
0001
0000
,  // measure 89
1000
0000
0001
0100
0001
0000
0010
0000
,  // measure 90
0100
0000
1000
0001
0000
0001
1000
0000
,  // measure 91
0001
0000
1000
0010
0000
0010
1000
0000
,  // measure 92
0001
0000
1000
0100
0000
0100
1000
0000
,  // measure 93
0001
0000
0100
0010
0000
0010
0100
0001
,  // measure 94
0000
1000
0000
0001
0010
0001
1000
0000
,  // measure 95
0001
0000
1000
0010
1000
0000
0001
0000
,  // measure 96
0010
0000
0100
1000
0100
0000
0010
0000
,  // measure 97
0001
0000
1000
0001
1000
0000
0010
0000
,  // measure 98
0100
0000
0001
0010
0000
0010
0001
0000
,  // measure 99
1000
0000
0001
0010
0000
0010
0001
0000
,  // measure 100
1000
0000
0010
0100
0000
0100
0010
0000
,  // measure 101
1000
0000
0100
0010
0000
0010
0100
1000
,  // measure 102
0000
0001
0000
1000
0010
1000
0001
0000
,  // measure 103
0010
0100
1000
1001
,  // measure 104
0001
0011
0010
0100
,  // measure 105
1000
0001
1000
0010
,  // measure 106
1010
0000
1010
0010
,  // measure 107
0100
0001
0010
1001
,  // measure 108
0001
0110
0000
1000
,  // measure 109
0001
0010
0001
1000
,  // measure 110
0010
1000
0001
2000
,  // measure 111
0000
3002
0000
0013
,  // measure 112
1001
0000
0110
0000
1001
0000
1000
0001
,  // measure 113
0010
0000
0000
0100
0000
0000
0110
0000
,  // measure 114
1001
0000
0110
0000
1001
0000
1000
0001
,  // measure 115
0010
0000
0000
0001
1000
0000
1010
0000
,  // measure 116
1001
0000
0001
0010
0001
0000
1000
0010
,  // measure 117
0000
0000
0100
0001
0100
0000
1001
0000
,  // measure 118
0011
0000
0001
0010
0100
0000
1000
0001
,  // measure 119
0010
0000
0100
1000
0001
0000
1000
0010
,  // measure 120
0100
0010
1000
0001
0000
0000
0010
0100
,  // measure 121
1000
0001
1000
0000
0010
0000
0100
0001
,  // measure 122
1000
0001
0010
0100
1000
0000
0110
0000
,  // measure 123
1001
0000
0001
1000
0001
0010
0100
0010
,  // measure 124
0000
0000
0001
0010
0100
0000
1001
0000
,  // measure 125
0110
0000
1000
0001
0010
0000
0000
0100
,  // measure 126
1000
0001
0100
0010
1000
0010
0100
0001
,  // measure 127
0100
0010
0100
0001
1000
0001
0010
0100
,  // measure 128
1000
0010
0100
0010
1000
0001
0010
0001
,  // measure 129
0010
0100
1000
0100
0010
0001
0100
0010
,  // measure 130
1000
0001
1000
0010
0100
0010
0100
0001
,  // measure 131
1000
0010
1000
0001
0100
0010
0100
0001
,  // measure 132
1000
0000
0001
0010
0000
0100
1000
0000
,  // measure 133
1001
0000
0001
0000
1000
0000
0001
1000
,  // measure 134
0000
1000
0001
0000
0001
1000
0000
1000
,  // measure 135
0010
0000
0100
0001
0010
0100
1000
0000
,  // measure 136
1000
0001
0000
0001
0100
0000
0100
0010
,  // measure 137
1000
0001
0010
0100
0010
0000
0010
0001
,  // measure 138
0000
0001
1000
0000
1000
0010
0100
0001
,  // measure 139
1000
0001
0010
0000
0010
0100
1000
0001
,  // measure 140
1000
0000
1000
0001
0010
0100
1000
0000
,  // measure 141
1001
0000
1001
0000
0001
0010
0100
0010
,  // measure 142
0001
1000
0000
0000
1000
0010
0100
0001
,  // measure 143
1000
0000
1001
0000
0001
1000
0001
0010
,  // measure 144
0100
1000
0000
0000
0110
0000
0001
1000
,  // measure 145
0010
0000
0100
0001
1000
0001
0010
0100
,  // measure 146
1000
0001
0000
0000
1000
0001
1000
0000
,  // measure 147
0010
0000
0100
0001
1000
0001
0010
0100
,  // measure 148
1000
0001
0000
0000
1001
0000
0001
1000
,  // measure 149
0010
0100
0010
0000
1000
0001
0010
0100
,  // measure 150
0010
0001
0000
0000
1000
0010
0100
0010
,  // measure 151
1000
0001
0010
0000
0010
0001
1000
0010
,  // measure 152
0100
0001
0000
0000
0010
0100
1000
0001
,  // measure 153
0010
0100
1000
0000
0001
1000
0001
0000
,  // measure 154
1000
0001
0000
0000
0010
0100
1000
0000
,  // measure 155
1001
0000
0110
0000
0001
1000
0001
0000
,  // measure 156
0000
0010
0100
0000
1001
0000
1000
0100
,  // measure 157
0010
0001
0100
0010
1000
0100
0010
0001
,  // measure 158
0100
0010
1000
0001
0000
0000
0001
0010
,  // measure 159
0100
0010
0001
0100
0010
1000
0001
0010
,  // measure 160
0100
0010
0001
1000
0000
0000
0010
1000
,  // measure 161
0100
0001
0100
1000
0010
0001
0010
1000
,  // measure 162
0100
0001
0100
0010
0000
0000
0010
0001
,  // measure 163
0100
1000
0100
0001
0010
1000
0010
0001
,  // measure 164
0100
1000
0100
0001
0000
0000
1001
0000
,  // measure 165
1000
0001
0000
0001
0100
0000
0100
0010
,  // measure 166
0000
0010
1000
0000
0001
0001
0000
1000
,  // measure 167
0010
0000
0010
1000
0000
0000
1001
0000
,  // measure 168
1001
0000
0000
1000
0000
0000
0100
0000
0000
0100
0000
0000
0010
0000
0100
0000
,  // measure 169
1000
0000
0000
0001
0000
0000
0100
0000
0000
0100
0000
0000
0010
0000
0100
0000
,  // measure 170
0001
0000
0000
0001
0000
0000
0100
0000
0000
0100
0000
0000
0010
0000
0100
0000
,  // measure 171
0001
0000
1000
0000
0001
0000
0100
0001
0000
0000
0000
0000
1001
0000
0000
0000
,  // measure 172
1000
0100
0000
0100
1000
0000
1000
0010
0000
0010
0100
0000
0001
0000
0100
0000
,  // measure 173
0001
0100
0000
0100
0001
0000
0001
0010
0000
0010
0100
0000
1000
0000
0100
0000
,  // measure 174
1000
0001
0000
0001
0010
0000
0010
0100
0000
0100
0010
0000
0001
0000
0100
0000
,  // measure 175
0001
0000
1000
0000
0001
0000
0100
0001
0000
0000
0000
0000
0200
0000
0000
0000
,  // measure 176
0301
0000
1000
0100
1000
0000
0001
0000
1000
0100
1000
0000
0001
0000
1000
0100
,  // measure 177
1000
0000
0001
0100
0001
0000
1000
0000
0001
0100
0001
0000
2000
0000
0000
0000
,  // measure 178
3001
0000
1000
0100
1000
0000
0001
0000
0100
0010
0100
0000
0001
0000
1000
0100
,  // measure 179
1000
0000
0001
0010
0001
0010
0001
0010
0100
0000
1000
0000
1001
0000
0000
0000
,  // measure 180
1000
0100
0000
0100
1000
0000
1000
0001
0000
0001
1000
0000
0010
0000
0100
0000
,  // measure 181
0001
0100
0000
0100
0001
0000
0001
1000
0000
1000
0001
0000
0010
0000
0100
0000
,  // measure 182
1000
0100
0000
1000
0100
0000
0010
0001
0000
0010
0001
0000
0010
0000
0100
0000
,  // measure 183
1000
0000
0001
0000
1000
0000
0100
1000
0000
0000
0000
0000
0002
0000
0000
0000
,  // measure 184
1003
0100
0000
1000
0001
0000
0100
0001
0000
1000
0100
0000
0010
0000
0100
0000
,  // measure 185
1000
0001
0000
1000
0001
0000
1000
0010
0000
0100
0010
0000
1000
0000
0001
0000
,  // measure 186
1000
0100
0000
0001
0100
0000
1000
0100
0000
0001
0100
0000
1000
0000
0001
0000
,  // measure 187
0010
1001
1001
1001
,  // measure 188
1000
0100
1000
0000
0001
0100
0001
0000
,  // measure 189
1000
0000
0001
0000
1000
0100
1000
0100
1000
0000
0001
0010
0000
0000
0000
0000
,  // measure 190
0001
0010
0100
1000
0001
0010
0100
0000
,  // measure 191
1000
0000
0001
0000
1000
0001
1000
0000
0010
0000
0100
0001
0000
0000
1000
0000
,  // measure 192
0001
0010
0100
0000
0010
0001
1000
0000
,  // measure 193
0010
0000
0100
0000
0001
0000
0010
0000
0100
0000
1000
0000
0001
0000
1000
0100
,  // measure 194
1000
0000
0001
0000
1000
0000
0010
0000
0100
0000
0001
1000
0000
0000
0001
0010
,  // measure 195
0001
0000
1000
0010
0000
0000
0100
0000
0001
0000
1000
0000
0001
0000
0000
0000
,  // measure 196
2000
0000
3001
0100
0000
0100
0001
2000
,  // measure 197
0000
3001
1000
0001
0010
0100
0010
0001
,  // measure 198
2000
0000
3010
0100
0000
0100
0001
2000
,  // measure 199
0000
3001
0010
0100
0010
0001
1000
0010
,  // measure 200
2000
0000
3001
0010
0000
0100
1000
0002
,  // measure 201
0000
1003
0010
0100
0010
0100
0001
2000
,  // measure 202
0002
0000
0000
3003
,  // measure 203
0001
0100
0001
0020
0000
0130
1000
0000
,  // measure 204
1001
0000
0100
1000
0000
1000
0000
1001
,  // measure 205
0000
0110
0001
0000
0110
1000
0000
1000
,  // measure 206
0002
0000
0013
0100
0000
0100
0000
1001
,  // measure 207
0000
0000
0000
0001
0000
0000
0110
0000
0000
0000
0000
0000
1000
0000
0000
0000
0110
0000
0000
0000
0011
0000
0000
0000
,  // measure 208
1001
1000
0100
0010
0100
1000
0010
0100
,  // measure 209
0001
0010
0001
0010
0100
1000
0100
1000
,  // measure 210
0001
0010
0100
0010
0001
1000
0010
0100
,  // measure 211
0001
1000
0001
0010
0100
1000
0100
0010
,  // measure 212
2002
0000
0000
3003
,  // measure 213
0001
0000
0000
0100
0000
0000
0020
0000
0100
0000
0000
0000
0030
0000
0000
0000
,  // measure 214
0100
0000
0000
0000
0000
0000
0001
0000
0100
0000
0000
0010
0000
0000
0100
0000
,  // measure 215
0001
0000
0000
1000
0000
0000
0020
0000
1000
0000
0000
0000
0030
0000
0000
0000
,  // measure 216
0001
0000
0000
0000
0000
0000
1000
0000
0001
0000
0000
0100
0000
0000
0010
0000
,  // measure 217
1000
0010
1000
0010
,  // measure 218
0100
0000
0001
0000
0100
0000
0001
1000
,  // measure 219
0100
1000
0001
0100
,  // measure 220
0010
0100
0001
0010
,  // measure 221
0100
0000
0000
1000
0000
0000
0100
0000
,  // measure 222
0010
0000
0000
0001
0000
0000
0010
0000
,  // measure 223
0100
0000
0000
1000
0000
0000
0010
0000
,  // measure 224
0100
0000
0001
0100
0001
1000
0100
0000
,  // measure 225
1000
0001
0010
0001
,  // measure 226
1000
0000
0010
0000
0100
0000
0010
0100
,  // measure 227
0001
1000
0100
1000
,  // measure 228
0001
0000
0001
1000
0000
1000
0010
0000
,  // measure 229
0100
0001
0010
0100
,  // measure 230
1000
0000
0001
0000
0010
0000
0100
1000
,  // measure 231
0001
1000
0001
0010
,  // measure 232
0001
0000
0001
0010
0000
0010
0001
0000
,  // measure 233
1000
0000
0010
1000
0010
0000
0100
0000
,  // measure 234
0001
0000
0100
0001
0100
0000
0001
0000
,  // measure 235
1000
0000
0100
1000
0100
0000
0010
0000
,  // measure 236
0001
0000
0010
0001
0010
0000
0001
0000
,  // measure 237
1000
0100
1000
0100
1000
0100
1000
0000
,  // measure 238
0001
0100
0001
0100
0001
0100
0001
0000
,  // measure 239
1000
0010
1000
0010
0100
0001
0100
0001
,  // measure 240
1000
0010
0100
0001
0010
0100
1000
0010
,  // measure 241
0100
0000
0000
1001
0000
0000
0001
0000
,  // measure 242
1000
0000
0000
0001
0000
0000
0001
0000
,  // measure 243
0010
0000
0000
1001
0000
0000
0010
0000
,  // measure 244
0100
0000
0000
1001
0000
0000
0100
0000
,  // measure 245
0010
0000
0000
1001
0000
0000
0010
0000
,  // measure 246
1001
0000
0000
0010
0000
0000
1001
0000
,  // measure 247
1001
0000
0000
1100
0000
0000
1001
0000
,  // measure 248
1001
0000
0000
0011
0000
0000
0110
0000
,  // measure 249
2002
0000
0000
0000
,  // measure 250
0000
0000
0000
3003
;
