#TITLE:Syncronized Love;
#SUBTITLE:(Millenium Ventura Mix);
#ARTIST:Joe Rinoie;
#TITLETRANSLIT:;
#SUBTITLETRANSLIT:;
#ARTISTTRANSLIT:;
#GENRE:;
#CREDIT:;
#BANNER:Synclovemvm bn2.png;
#BACKGROUND:Synclovemvm bg.png;
#LYRICSPATH:;
#CDTITLE:;
#MUSIC:Joe Rinoie - Synchronized Love (Millennium Ventura Mix).mp3;
#OFFSET:-0.765000;
#SAMPLESTART:51.529999;
#SAMPLELENGTH:12.000000;
#SELECTABLE:YES;
#BPMS:0.000000=170.000000
;
#STOPS:
;
#BGCHANGES:;
#KEYSOUNDS:;
#ATTACKS:;

//---------------dance-single - ----------------
#NOTES:
     dance-single:
     :
     Easy:
     5:
     0.449800,0.518436,0.468305,0.209243,0.000000,316.000000,269.000000,47.000000,21.000000,0.000000,0.000000,0.449800,0.518436,0.468305,0.209243,0.000000,316.000000,269.000000,47.000000,21.000000,0.000000,0.000000:
// measure 0
0000
0000
0000
0000
,  // measure 1
0000
0000
0000
0000
,  // measure 2
0000
0000
0000
0000
,  // measure 3
0000
0000
0000
0000
,  // measure 4
0010
0010
0100
0100
,  // measure 5
1000
1000
0001
0010
,  // measure 6
0001
0001
1000
1000
,  // measure 7
0010
0010
0100
0100
,  // measure 8
1001
1000
0100
1000
,  // measure 9
0010
0010
0100
0001
,  // measure 10
0010
0010
0100
0010
,  // measure 11
1000
0001
0110
0110
,  // measure 12
1001
1000
0100
0001
,  // measure 13
0100
1000
0010
0100
,  // measure 14
1001
0100
0010
0001
,  // measure 15
0200
0000
0310
0000
1000
0001
0010
0100
,  // measure 16
1000
0000
1001
0000
0000
0100
0010
0100
,  // measure 17
0001
1001
1100
0001
,  // measure 18
0010
0010
0100
0100
,  // measure 19
1100
1100
0011
0011
,  // measure 20
1001
0000
1000
0100
1000
0000
0001
0000
,  // measure 21
0010
0010
0100
0100
,  // measure 22
1001
0000
0001
0010
0001
0000
0010
0000
,  // measure 23
0100
0000
1000
0000
0000
0010
0010
0000
,  // measure 24
1001
0000
0011
0000
1000
0100
1000
0000
,  // measure 25
0010
0000
0100
0000
0001
0010
0100
0000
,  // measure 26
1100
0001
0011
0100
,  // measure 27
1000
0000
1000
0001
0000
0001
0000
1000
,  // measure 28
0010
1001
0010
0010
,  // measure 29
0001
0010
0100
0000
0010
0000
0100
0000
,  // measure 30
1000
0000
1001
0000
0001
0100
0001
0000
,  // measure 31
0100
0000
1001
0000
0100
1000
0100
0000
,  // measure 32
2000
0000
0000
3020
0000
0000
2030
0000
,  // measure 33
3002
0000
0000
0023
0000
0000
0032
0000
,  // measure 34
2003
0000
0000
3020
0000
0000
0230
0000
,  // measure 35
0301
0000
1001
0000
0010
0100
0100
0000
,  // measure 36
1001
0100
0010
0100
,  // measure 37
1001
0010
0001
0100
,  // measure 38
1001
0100
1000
0010
,  // measure 39
0001
0010
0001
0000
1000
0100
1000
0100
,  // measure 40
0000
0000
0010
0000
1001
0000
0100
0010
,  // measure 41
0000
0000
1000
0000
1001
0000
0001
0010
,  // measure 42
0000
0000
0100
0000
0100
0000
0100
1000
,  // measure 43
0010
0100
0001
0000
1001
0000
1100
0000
,  // measure 44
2000
0000
3200
0000
,  // measure 45
0310
0000
0100
0000
1000
0010
0100
0000
,  // measure 46
0002
0000
0023
0000
,  // measure 47
0130
0000
1000
0000
0010
0100
0010
1000
,  // measure 48
0001
1000
1000
0001
,  // measure 49
0010
0010
0100
1000
,  // measure 50
0010
0010
0100
0001
,  // measure 51
1000
1000
0001
0010
,  // measure 52
1001
1000
1100
1000
,  // measure 53
1001
0001
0011
0001
,  // measure 54
1001
1000
1010
1000
,  // measure 55
1001
0001
0101
0001
,  // measure 56
1001
0000
0000
0000
0000
0000
0000
1001
,  // measure 57
0000
0000
0000
0000
0000
1010
0000
0101
,  // measure 58
0000
0000
1001
0000
,  // measure 59
1000
0001
0000
1001
0000
0110
0000
0010
,  // measure 60
0001
0000
1000
0100
1000
0000
1001
0000
,  // measure 61
0001
0000
1000
0100
1000
0000
0001
0000
,  // measure 62
1001
0000
0001
0100
0010
0000
1000
0100
,  // measure 63
0010
0000
0001
1000
0100
0000
0110
0000
,  // measure 64
0002
0000
0000
0000
0023
0000
0000
0230
,  // measure 65
0000
1300
0001
0000
0010
0100
1000
0000
,  // measure 66
0002
0000
0000
0000
0023
0000
0000
0230
,  // measure 67
0000
1300
0010
1000
0010
1000
0010
0200
,  // measure 68
0000
0000
0000
0000
,  // measure 69
0000
0000
0000
0300
0000
0000
0000
0000
;

//---------------dance-single - ----------------
#NOTES:
     dance-single:
     :
     Medium:
     7:
     0.529512,0.587561,0.567944,0.278990,0.000000,372.000000,315.000000,57.000000,28.000000,0.000000,0.000000,0.529512,0.587561,0.567944,0.278990,0.000000,372.000000,315.000000,57.000000,28.000000,0.000000,0.000000:
// measure 0
0000
0000
0000
0000
,  // measure 1
0000
0000
0000
0000
,  // measure 2
0000
0000
0000
0000
,  // measure 3
0000
0000
0000
0000
,  // measure 4
0001
0000
0011
0000
0110
0000
0010
0100
,  // measure 5
1000
0000
1100
0000
0110
0000
0100
0010
,  // measure 6
0001
0000
0101
0000
0110
0000
0100
0010
,  // measure 7
1000
0000
1010
0000
0110
0000
0100
0010
,  // measure 8
0001
0000
1001
0000
1100
0000
1000
0001
,  // measure 9
0100
0000
1001
0000
0011
0000
1000
0001
,  // measure 10
0010
0000
1001
0000
1100
0000
0001
1000
,  // measure 11
0010
0110
1001
0110
,  // measure 12
1001
0000
0001
1000
0100
0000
0110
0000
,  // measure 13
0001
0010
0001
0000
1000
0010
0100
0000
,  // measure 14
0101
0000
0001
0100
0010
0000
1000
0000
,  // measure 15
0100
0010
0001
0000
1000
0100
0010
0100
,  // measure 16
2000
0000
3001
0000
0000
0100
0100
0010
,  // measure 17
1000
0000
1000
0001
0000
0100
0000
0200
,  // measure 18
0000
0000
0320
0000
0000
1030
0000
0001
,  // measure 19
0100
1100
0010
0011
,  // measure 20
1001
0000
1000
0100
0010
0000
0011
0000
,  // measure 21
2000
3100
0002
0103
,  // measure 22
1001
0000
0001
0100
0010
0000
1010
0000
,  // measure 23
0002
0000
0103
0000
2000
0100
3100
0000
,  // measure 24
1001
0000
0100
0000
1000
0100
1000
0000
,  // measure 25
0010
0100
0010
0000
0001
1000
0001
0000
,  // measure 26
1001
0000
0001
0002
0010
0000
0100
0000
,  // measure 27
1003
1100
0110
0011
,  // measure 28
1001
0000
1000
0000
0001
0010
0001
0000
,  // measure 29
1000
0100
1000
0000
0001
0010
0100
0000
,  // measure 30
1001
0000
0001
0000
1000
0010
1000
0000
,  // measure 31
0001
0100
0001
0000
1000
0010
0100
0000
,  // measure 32
0002
0000
0013
0200
0000
0310
0001
0000
,  // measure 33
2000
0000
3010
0200
0000
0310
1000
0000
,  // measure 34
0002
0000
0013
0200
0000
0000
1300
0000
,  // measure 35
1001
0000
0110
0000
1000
0001
1000
0000
,  // measure 36
1000
0001
0000
0010
0000
0100
0000
0010
,  // measure 37
0000
0001
0000
1000
0000
0010
0000
0010
,  // measure 38
0000
0100
0000
0010
0000
1000
0000
1000
,  // measure 39
0000
0001
0000
0001
0000
1000
0100
2000
,  // measure 40
0000
3001
0100
0000
1001
0000
0100
0002
,  // measure 41
0000
1003
0100
0000
1001
0000
0010
0002
,  // measure 42
0000
0013
0100
0000
1001
0000
1000
0100
,  // measure 43
0010
0000
1001
0000
0001
0010
0100
0000
,  // measure 44
2000
0000
0000
0000
3200
0000
0000
0310
,  // measure 45
0001
1000
0010
1000
0010
1000
0001
0000
,  // measure 46
0002
0000
0000
0000
0023
0000
0000
0130
,  // measure 47
0000
0100
1000
0100
1000
0100
1000
0010
,  // measure 48
0100
0000
0001
0000
0100
0000
0010
1000
,  // measure 49
0100
0000
0001
0000
1000
0100
1000
0100
,  // measure 50
1000
0001
0010
1000
,  // measure 51
0100
0010
0001
0000
1000
0100
1000
0010
,  // measure 52
1000
1001
0011
0101
,  // measure 53
1001
1100
1010
1000
,  // measure 54
1001
0011
0100
1100
,  // measure 55
1001
0000
1001
0000
0010
0100
0010
0000
,  // measure 56
1001
0000
0010
0100
0010
0000
0000
1001
,  // measure 57
0000
0000
0100
0001
0100
0101
0000
1010
,  // measure 58
0000
0010
1001
0100
,  // measure 59
1000
0001
0000
0010
0000
0100
0000
1000
,  // measure 60
0001
0000
1000
0010
1000
0000
1001
0000
,  // measure 61
0001
0000
1000
0010
1000
0000
1001
0000
,  // measure 62
1000
0000
0001
0010
0001
0000
1000
0010
,  // measure 63
1000
0000
0100
0010
0001
0000
0010
0100
,  // measure 64
2000
0000
0000
0000
3200
0000
0000
0320
,  // measure 65
0000
1030
0001
1000
0001
1000
1000
0000
,  // measure 66
0020
0000
0000
0000
0230
0000
0000
0302
,  // measure 67
0000
0103
0010
1000
0010
1000
0010
0200
,  // measure 68
0000
0000
0000
0000
,  // measure 69
0000
0000
0000
0300
0000
0000
0000
0000
;

//---------------dance-single - ----------------
#NOTES:
     dance-single:
     :
     Hard:
     9:
     0.602106,0.622123,0.388593,0.288954,0.079711,423.000000,384.000000,39.000000,29.000000,0.000000,0.000000,0.602106,0.622123,0.388593,0.288954,0.079711,423.000000,384.000000,39.000000,29.000000,0.000000,0.000000:
// measure 0
0000
0000
0000
0000
,  // measure 1
0000
0000
0000
0000
,  // measure 2
0000
0000
0000
0000
,  // measure 3
0000
0000
0000
0000
,  // measure 4
0010
0000
0000
0010
0000
0000
0010
0000
0000
0000
0100
0000
0001
0000
1000
0000
,  // measure 5
0010
0000
0000
0010
0000
0000
0010
0000
1000
0000
0100
0000
0010
0000
0001
0000
,  // measure 6
0010
0000
0000
0010
0000
0000
0010
0000
0000
0000
0100
0000
1000
0000
0001
0000
,  // measure 7
0010
0000
0000
0010
0000
0000
0010
0000
0001
0000
0100
0000
0010
0000
0100
0000
,  // measure 8
0001
0000
0000
1000
0000
0000
0001
0000
0000
0000
0001
0000
0010
0000
0100
0000
,  // measure 9
1000
0000
0000
0001
0000
0000
1000
0000
0001
0000
0010
0000
0100
0000
0010
0000
,  // measure 10
0001
0000
0000
1000
0000
0000
0001
0000
0000
0000
0001
0000
0000
0000
1000
0000
,  // measure 11
0100
0000
0000
0010
0000
0000
0001
0000
0110
0000
0000
0000
0110
0000
0000
0000
,  // measure 12
1001
0000
0100
0010
0001
0000
0010
0000
,  // measure 13
0100
1000
0010
0100
0010
1000
0100
0010
,  // measure 14
0001
0000
1000
0100
1000
0000
0010
0000
,  // measure 15
0100
0001
0010
0100
0010
0001
0100
0001
,  // measure 16
1000
0000
1000
0000
0000
1000
0001
0010
,  // measure 17
0100
0000
0010
0100
0000
1100
0000
1002
,  // measure 18
0100
1000
0010
0103
,  // measure 19
1001
0110
1100
0101
,  // measure 20
1001
0000
1000
0000
0100
0000
0010
0000
0001
0000
0000
0010
0000
0000
0100
0000
,  // measure 21
1000
0010
0100
0000
0110
0000
1001
0000
,  // measure 22
1010
0000
1000
0000
0010
0000
0100
0000
0001
0000
0000
0100
0000
0000
0010
0000
,  // measure 23
0000
1000
0100
0001
0000
0100
0010
0001
,  // measure 24
0100
0100
0010
0000
1000
1000
0001
0010
,  // measure 25
0100
0000
0000
0010
0000
0000
0001
0000
1000
0000
0000
0001
0000
0000
0010
0000
,  // measure 26
0100
0000
1000
0001
0000
0001
1000
0000
,  // measure 27
1001
0000
0100
1001
0000
1100
0000
0101
,  // measure 28
0100
0000
1001
0000
1000
0100
0010
0000
,  // measure 29
0001
0100
0010
0000
1000
0001
0010
0000
,  // measure 30
0100
0000
1001
0000
1000
0100
0001
0000
,  // measure 31
0100
1000
0010
0000
0100
0001
0010
0000
,  // measure 32
0002
0000
0013
0200
0000
1300
0001
0000
,  // measure 33
2000
0000
3010
0200
0000
0301
1000
0000
,  // measure 34
0001
0100
1000
0100
0010
1000
0100
0010
,  // measure 35
1001
0000
0110
0000
1000
1001
1001
0000
,  // measure 36
1000
0001
0010
0100
0020
0000
0130
2000
,  // measure 37
0000
3001
0010
0100
0020
0000
0130
2000
,  // measure 38
0000
3100
0010
0100
1000
0100
0010
0001
,  // measure 39
1000
0010
0200
0000
0001
0000
0310
2000
,  // measure 40
0000
3010
0100
0001
0020
0000
0130
0002
,  // measure 41
0000
1003
0010
0100
0020
0000
1030
0002
,  // measure 42
0000
1003
0010
0100
0010
1000
0001
0010
,  // measure 43
0100
1000
0001
0100
0010
1000
0100
0010
,  // measure 44
0002
1000
1003
0000
1000
0100
0010
0001
,  // measure 45
0000
0100
0010
1000
0010
0100
0001
0000
,  // measure 46
2000
0001
3001
0000
0001
0010
0100
1000
,  // measure 47
0000
0100
0010
0100
1000
0001
0100
0010
,  // measure 48
1000
0100
1000
0000
0001
0100
0001
0000
,  // measure 49
1000
0010
1000
0000
0001
0010
0001
0000
,  // measure 50
0100
0000
0100
1001
0000
0010
0100
0000
,  // measure 51
0001
0011
0010
0110
,  // measure 52
1001
0000
0000
1000
0000
0000
0100
0000
0000
0000
1000
0000
0000
0000
0010
0000
,  // measure 53
0100
0000
0000
0100
0000
0000
0001
0000
0010
0000
0100
0000
1000
0000
0001
0000
,  // measure 54
1001
0000
0000
0100
0000
0000
1100
0000
0000
0000
0010
0000
0000
0000
0100
0000
,  // measure 55
0001
0000
0000
0011
0000
0000
0010
0000
0100
0000
1000
0000
0010
0000
0100
0000
,  // measure 56
1001
0001
1000
0100
0020
0000
0130
1100
,  // measure 57
0000
0001
0010
0100
0010
0011
0000
2001
,  // measure 58
0000
3001
0100
0010
1010
0000
1000
0001
,  // measure 59
0010
0011
0000
0011
0000
1100
0000
1100
,  // measure 60
0001
0100
1000
0100
0002
0000
0013
0100
,  // measure 61
1000
0100
0010
0001
0200
0000
0000
0320
,  // measure 62
0000
1030
0100
0001
0100
0001
0100
1000
,  // measure 63
0010
0100
0001
0010
0100
1000
0100
0001
,  // measure 64
0200
0000
0000
0000
2300
0000
0000
3020
,  // measure 65
0000
1030
0001
0100
1000
0100
0001
0010
,  // measure 66
0200
0000
0000
0000
0320
0000
0000
0032
,  // measure 67
0000
1003
0100
1000
0010
0100
0010
0001
,  // measure 68
0020
0000
0000
0000
,  // measure 69
0000
0000
0000
0030
0000
0000
0000
0000
;
