#TITLE:Super Mario World Theme;
#SUBTITLE:(F-Zero X Remix);
#ARTIST:Koji Kondo (Remixed by Tony Thai);
#TITLETRANSLIT:;
#SUBTITLETRANSLIT:;
#ARTISTTRANSLIT:;
#GENRE:;
#CREDIT:;
#BANNER:smwfzxr bn.png;
#BACKGROUND:smwfzxr bg.png;
#LYRICSPATH:;
#CDTITLE:;
#MUSIC:smw_donut_f-zerox.mp3;
#OFFSET:-0.305000;
#SAMPLESTART:44.495003;
#SAMPLELENGTH:12.000000;
#SELECTABLE:YES;
#BPMS:0.000000=270.000000
,87.000000=135.000000
,103.000000=270.000000
,119.000000=135.000000
,127.000000=270.000000
,255.000000=135.000000
,271.000000=270.000000
,287.000000=135.000000
,295.000000=270.000000
;
#STOPS:
;
#BGCHANGES:;
#KEYSOUNDS:;
#ATTACKS:;

//---------------dance-single - ----------------
#NOTES:
     dance-single:
     :
     Easy:
     7:
     0.515771,0.683640,0.102503,0.079725,0.022779,317.000000,308.000000,9.000000,7.000000,0.000000,0.000000,0.515771,0.683640,0.102503,0.079725,0.022779,317.000000,308.000000,9.000000,7.000000,0.000000,0.000000:
// measure 0
0000
0000
0000
0000
,  // measure 1
0000
0000
0000
0000
,  // measure 2
0000
0000
0000
0000
,  // measure 3
0000
0000
0000
0000
,  // measure 4
0000
0000
0000
0000
,  // measure 5
0000
0000
0000
0001
,  // measure 6
0010
0100
0100
1000
,  // measure 7
0010
0100
0100
0001
,  // measure 8
0010
0100
1000
0001
,  // measure 9
0010
0100
1000
0100
,  // measure 10
0001
0100
0100
1000
,  // measure 11
0100
0100
0100
0010
,  // measure 12
0001
1000
0010
0100
,  // measure 13
0001
1001
0000
1000
,  // measure 14
0010
0100
0100
0001
,  // measure 15
0010
0100
0100
1000
,  // measure 16
0010
0100
0001
1000
,  // measure 17
0100
0010
0001
1000
,  // measure 18
0100
0001
0001
0100
,  // measure 19
1000
0010
0010
1000
,  // measure 20
0100
1000
0001
0010
,  // measure 21
0100
0000
1001
0000
0000
0000
1000
0001
,  // measure 22
0010
0000
0100
1000
0010
0000
1000
0001
,  // measure 23
0100
0000
0000
0000
0001
0000
0010
0000
0100
0000
0000
0000
1000
0000
0000
0010
,  // measure 24
0000
0000
0100
0000
0001
0000
0000
0010
0000
0000
0000
0000
0001
0000
0010
0000
,  // measure 25
0001
0010
0100
1000
0100
1000
0010
0000
,  // measure 26
1000
0001
0100
0010
,  // measure 27
1000
0001
0100
0001
,  // measure 28
0010
0100
1000
0001
,  // measure 29
0010
0000
0100
0000
1000
0000
0010
0100
,  // measure 30
0010
0100
0002
0000
0000
0000
0000
0000
,  // measure 31
0000
0000
0000
0000
1003
0000
0000
0001
0000
0000
1000
0000
0001
0000
0000
0000
,  // measure 32
0010
0100
0000
1000
,  // measure 33
0010
0100
0000
0001
,  // measure 34
0010
0100
1000
0001
,  // measure 35
0010
1001
0000
1000
,  // measure 36
0100
0001
0100
1000
,  // measure 37
0100
0001
0100
1000
,  // measure 38
0010
1000
0100
0001
,  // measure 39
0100
1000
0010
1000
,  // measure 40
0100
0001
0100
0001
,  // measure 41
0100
1000
0100
0001
,  // measure 42
0100
0010
0100
0001
,  // measure 43
0001
1000
1000
0001
,  // measure 44
0000
1000
0000
0000
0001
0000
2002
0000
,  // measure 45
0000
0000
3003
0001
,  // measure 46
0010
0100
1000
0001
,  // measure 47
2002
0000
3003
1000
,  // measure 48
0001
0100
0100
0010
,  // measure 49
1000
0001
0001
0010
,  // measure 50
0100
1000
0010
0100
,  // measure 51
0001
0010
0100
0001
,  // measure 52
1000
0010
0010
0100
,  // measure 53
0001
1000
1000
0100
,  // measure 54
0001
0100
0001
0100
,  // measure 55
1000
1001
0000
1000
,  // measure 56
0010
0100
0000
0001
,  // measure 57
0010
0100
0000
1000
,  // measure 58
0010
0100
0001
1000
,  // measure 59
0100
0001
0100
1000
,  // measure 60
1000
0001
0000
0001
,  // measure 61
0001
1000
0000
1000
,  // measure 62
0010
0100
0100
0010
,  // measure 63
1000
1001
0000
0010
,  // measure 64
1000
0001
1000
0010
,  // measure 65
1000
0001
0010
0100
,  // measure 66
1000
0001
0100
0001
,  // measure 67
1000
0001
0100
0010
,  // measure 68
1000
0100
1000
0001
,  // measure 69
0010
0001
0100
0001
,  // measure 70
0001
1000
1000
0001
,  // measure 71
0010
0100
1000
2002
,  // measure 72
0000
0000
0000
0000
3003
0000
1000
0010
,  // measure 73
0100
0000
0000
0000
0010
0000
0000
0010
0000
0000
0010
0000
1000
0000
0000
0000
,  // measure 74
0100
0001
0000
0100
,  // measure 75
1000
0010
0000
1000
,  // measure 76
0001
0100
0000
0001
,  // measure 77
1000
0010
0000
1000
,  // measure 78
0010
0100
0001
1000
,  // measure 79
0001
0010
0100
1000
,  // measure 80
0100
0010
0001
1000
,  // measure 81
0001
0100
0010
1000
,  // measure 82
0100
1000
0100
0001
,  // measure 83
0010
0001
0010
1000
,  // measure 84
0100
0010
0001
1000
,  // measure 85
0100
0010
0001
1001
;

//---------------dance-single - ----------------
#NOTES:
     dance-single:
     :
     Medium:
     8:
     0.541803,0.683640,0.170839,0.102503,0.068336,333.000000,318.000000,15.000000,9.000000,0.000000,0.000000,0.541803,0.683640,0.170839,0.102503,0.068336,333.000000,318.000000,15.000000,9.000000,0.000000,0.000000:
// measure 0
0000
0000
0000
0000
,  // measure 1
0000
0000
0000
0000
,  // measure 2
0000
0000
0000
0000
,  // measure 3
0000
0000
0000
0000
,  // measure 4
0000
0000
0000
0000
,  // measure 5
0000
0000
0000
1000
,  // measure 6
1000
0010
0100
0001
,  // measure 7
0001
0010
0100
1000
,  // measure 8
1000
0010
0100
0001
,  // measure 9
0000
0001
0000
0000
0000
0000
1000
0000
,  // measure 10
1000
0010
0100
0100
,  // measure 11
0001
0100
1000
0100
,  // measure 12
0010
0000
0001
0000
0010
0100
0000
0000
,  // measure 13
0010
0010
0010
1001
,  // measure 14
1000
0010
0100
0001
,  // measure 15
0001
0100
1000
0010
,  // measure 16
0100
0001
0010
0010
,  // measure 17
0100
0000
0001
1000
0001
0000
0010
0000
,  // measure 18
0100
1000
0001
0100
,  // measure 19
0001
0100
0001
1000
,  // measure 20
0010
0100
0001
1000
,  // measure 21
1000
0000
0000
0000
1001
0000
0000
0000
0000
0000
0000
0000
1000
0000
0000
0010
,  // measure 22
0000
0000
1000
0000
0001
0000
0000
0010
0000
0000
0000
0000
0010
0000
0100
0000
,  // measure 23
0010
0000
0000
0001
0000
0000
1000
0000
1000
0000
0000
0000
0010
0000
0000
0100
,  // measure 24
0000
0000
0001
0000
0010
0000
0000
0100
0000
0000
0000
0000
1000
0000
0010
0000
,  // measure 25
0100
0001
1000
0100
0010
0001
1000
0000
,  // measure 26
1000
0010
0010
0100
,  // measure 27
0100
0001
0001
1000
,  // measure 28
1000
0100
0100
0010
,  // measure 29
0010
0000
1000
0000
0010
0000
1000
0010
,  // measure 30
1000
0010
1000
0000
1000
0000
0002
0000
,  // measure 31
0000
0000
0000
0000
1003
0000
0000
0010
0000
0000
0100
0000
0001
0000
0000
0000
,  // measure 32
0010
0100
0000
1000
,  // measure 33
0010
0100
0000
0001
,  // measure 34
0000
0000
1000
0000
0000
0000
0001
0010
,  // measure 35
0100
1000
0001
0100
0010
1000
0100
0000
,  // measure 36
0100
1100
0000
0010
,  // measure 37
0010
0011
0000
1000
,  // measure 38
0001
0101
0000
0001
,  // measure 39
1000
0001
0010
0100
,  // measure 40
1000
0010
0000
0100
,  // measure 41
0001
0010
0000
0100
,  // measure 42
1000
0010
0100
0100
,  // measure 43
0001
0010
0100
2000
,  // measure 44
0000
3002
0000
0000
1003
0000
2002
0000
,  // measure 45
0000
0000
3003
0001
,  // measure 46
0010
0100
1000
0001
,  // measure 47
2002
0000
3003
1000
,  // measure 48
0001
0000
0100
0000
0000
0010
1000
0000
,  // measure 49
0001
0001
0000
0010
,  // measure 50
0100
0100
0001
1000
,  // measure 51
0000
0010
0000
0000
0000
0000
0100
0000
,  // measure 52
1000
0000
1001
0000
0000
1000
0001
0000
,  // measure 53
0010
0010
0000
1000
,  // measure 54
0100
0010
0001
0100
,  // measure 55
0100
0010
1000
0001
,  // measure 56
0010
0100
1000
0001
,  // measure 57
0100
0000
0010
0000
0000
1000
0001
0000
,  // measure 58
0001
0100
0001
0100
,  // measure 59
0100
0010
0010
0001
,  // measure 60
0100
0000
0010
0000
0000
1000
0100
0000
,  // measure 61
0010
0000
0001
0000
0000
0001
1000
0000
,  // measure 62
0010
0000
0100
0000
0001
1000
0001
0000
,  // measure 63
0000
0000
0000
0000
1001
0000
0000
0000
0000
0000
0000
0000
1000
0000
0000
0001
,  // measure 64
0000
0000
0010
0000
0100
0000
0000
0100
0000
0000
0000
0000
0010
0000
0001
0000
,  // measure 65
0010
0000
0000
0001
0000
0000
1000
0000
0010
0000
0100
0000
0001
0000
0000
0100
,  // measure 66
0000
0000
0010
0000
1000
0000
0000
0001
0000
0000
0000
0000
1000
0000
0010
0000
,  // measure 67
0100
0001
1000
0100
0010
0001
1000
0000
,  // measure 68
1000
0001
0001
1000
,  // measure 69
1000
0001
0001
0010
,  // measure 70
0100
1000
0010
0100
,  // measure 71
0001
0010
0100
2002
,  // measure 72
0000
0000
0000
0000
3003
0000
0001
0010
,  // measure 73
0100
0000
1000
0000
0010
0000
0000
0010
0000
0000
0010
0000
0100
0000
0000
0000
,  // measure 74
0001
1000
0000
0100
,  // measure 75
1000
0001
0000
0100
,  // measure 76
0000
0000
0010
0000
0000
0000
1000
0010
,  // measure 77
0100
0001
1000
0100
0010
0001
0100
0000
,  // measure 78
0100
1001
0000
0010
,  // measure 79
0010
1001
0000
1000
,  // measure 80
0010
0100
0001
1000
,  // measure 81
0010
0100
0001
0010
,  // measure 82
0010
1001
0000
0100
,  // measure 83
0100
1001
0000
0001
,  // measure 84
0010
0100
1000
0001
,  // measure 85
0100
0010
1000
1001
;

//---------------dance-single - ----------------
#NOTES:
     dance-single:
     :
     Hard:
     9:
     0.740302,1.171955,0.626409,0.068336,0.250564,455.000000,400.000000,55.000000,6.000000,0.000000,0.000000,0.740302,1.171955,0.626409,0.068336,0.250564,455.000000,400.000000,55.000000,6.000000,0.000000,0.000000:
// measure 0
0000
0000
0000
0000
,  // measure 1
0000
0000
0000
0000
,  // measure 2
0000
0000
0000
0000
,  // measure 3
0000
0000
0000
0000
,  // measure 4
0000
0000
0000
0000
,  // measure 5
0000
0000
0000
0010
,  // measure 6
1000
0000
1001
0000
0000
0001
0010
0100
,  // measure 7
0000
1100
0000
0000
0000
0010
0100
0000
,  // measure 8
0001
0101
0001
1001
,  // measure 9
0000
0100
0000
0000
0000
1000
0010
0000
,  // measure 10
0100
0000
1001
0000
0000
0001
1000
0100
,  // measure 11
0000
0110
0000
0000
0000
1000
0010
0000
,  // measure 12
0100
0000
0001
0010
0100
1000
0000
0000
,  // measure 13
1000
0000
0001
0010
0100
1000
0010
0000
,  // measure 14
0100
0000
1001
0000
0000
1000
0001
0100
,  // measure 15
0000
1001
0000
0000
0000
0010
1000
0000
,  // measure 16
1010
0001
0101
1001
,  // measure 17
0000
0110
0000
0000
0000
1000
0010
0100
,  // measure 18
0001
0000
1001
0000
0000
0001
0100
0001
,  // measure 19
0000
1001
0000
0000
0000
1000
0010
0000
,  // measure 20
1010
0000
1000
0010
0100
0001
0000
0000
,  // measure 21
1000
0000
0000
0000
1000
0000
0000
0000
1000
0000
0001
0000
1000
0000
0000
0010
,  // measure 22
0000
0000
0100
0000
0001
0000
0000
0010
0000
0000
0000
0000
0100
1000
0001
0000
,  // measure 23
0010
0000
0000
0100
0010
0000
0000
0000
0001
0000
0000
0000
1000
0000
0000
0100
,  // measure 24
0000
0000
0010
0000
0001
0000
0000
1000
0000
0000
0000
0000
0001
0010
0100
1000
,  // measure 25
0001
0100
0010
1000
0001
0010
0100
1000
0001
1000
0010
0100
0001
0000
0010
0000
,  // measure 26
0100
0000
1000
0010
0100
0001
1000
0100
,  // measure 27
0000
0010
0000
0000
0000
0001
0010
0100
,  // measure 28
1000
0000
1001
0000
0000
1001
0000
0000
,  // measure 29
0100
0000
0100
0000
0000
0100
1000
0010
,  // measure 30
1000
0000
0010
0000
1000
0000
0000
0001
0010
0100
0000
1000
0000
1000
0000
0010
,  // measure 31
1000
0100
1000
0100
0010
0000
0000
0100
0000
0000
0001
0000
0010
0000
0000
0000
,  // measure 32
1001
0100
1100
0001
,  // measure 33
0101
1000
1001
0010
,  // measure 34
1010
0100
0101
0001
,  // measure 35
0011
0000
0001
0010
0100
1000
0010
0000
,  // measure 36
1001
0000
0100
0000
1001
0000
0001
0010
,  // measure 37
0100
1000
0000
0000
0100
0000
1000
0000
,  // measure 38
1100
0001
0101
1000
,  // measure 39
1000
0000
1000
0010
0100
0001
0010
0000
,  // measure 40
0100
0000
0100
0000
1001
0000
1000
0010
,  // measure 41
0100
0001
0000
0000
0000
0000
0001
0010
,  // measure 42
0100
1000
0001
0100
0010
1000
0001
0010
,  // measure 43
0100
1000
0001
0100
0010
0100
0001
0000
,  // measure 44
0000
1001
0000
0000
1000
0000
2002
0000
,  // measure 45
0000
0000
3003
0001
,  // measure 46
0010
0100
1000
0001
,  // measure 47
2002
0000
3003
0010
,  // measure 48
1000
0100
1000
0100
,  // measure 49
0001
0000
0100
0000
1000
0100
0001
0000
,  // measure 50
0100
0001
0100
1000
,  // measure 51
1000
0000
0001
0010
0100
1000
0010
0000
,  // measure 52
0010
1000
0100
0001
,  // measure 53
0001
0100
1100
1001
,  // measure 54
1000
0000
0001
0010
0100
1000
0000
0000
,  // measure 55
1000
0010
1001
1001
,  // measure 56
0000
0000
1100
0000
0000
0001
0010
0100
,  // measure 57
0000
1100
0000
0000
0000
0001
0100
0000
,  // measure 58
0010
1001
0110
1001
,  // measure 59
0000
1001
0000
0000
0000
1000
0010
0000
,  // measure 60
0010
0000
1001
0000
0000
1000
0001
1000
,  // measure 61
0000
0001
0000
0000
0000
1000
0010
0000
,  // measure 62
0100
0000
1000
0100
0001
1000
0000
0000
,  // measure 63
0010
0000
0000
0000
1001
0000
0000
0000
0000
0000
0000
0000
0010
0000
0000
1000
,  // measure 64
0000
0000
0100
0000
0010
0000
0000
1000
0000
0000
0000
0000
0001
0100
0010
0000
,  // measure 65
1000
0000
0000
0001
1000
0000
0000
0000
0010
0000
0000
0000
0100
0000
0000
1000
,  // measure 66
0000
0000
0010
0000
0100
0000
0000
0001
0000
0000
0000
0000
0010
1000
0100
1000
,  // measure 67
0001
0010
0100
1000
0001
0100
0010
1000
0001
0100
0010
0100
0010
0000
0000
0000
,  // measure 68
0010
0000
1001
0000
0000
1000
0010
0100
,  // measure 69
0000
1001
0000
0000
0000
0001
0010
0100
,  // measure 70
1000
0000
0110
0000
0000
1001
0000
0000
,  // measure 71
0100
0000
0100
0000
0000
0100
1000
0001
,  // measure 72
1000
0000
0001
0000
1000
0000
0000
0001
0010
0100
0000
1000
0000
0010
0000
0100
,  // measure 73
0001
1000
0010
0100
0001
0000
0000
0010
0000
0000
0100
0000
1000
0000
0000
0000
,  // measure 74
1010
0001
0101
0001
,  // measure 75
1001
0100
0100
0001
,  // measure 76
0001
1000
0010
0100
,  // measure 77
0100
0000
0001
0010
0100
1000
0010
0100
,  // measure 78
0001
0000
1000
0000
0001
0000
1000
0010
,  // measure 79
0100
0001
0000
0000
1000
0000
0010
0000
,  // measure 80
1001
1001
0110
2002
,  // measure 81
0000
0000
3003
0100
,  // measure 82
1000
0000
1000
0000
0010
0000
0100
0001
,  // measure 83
0010
0100
0000
0000
0000
0000
1000
0010
,  // measure 84
0100
0001
1000
0001
0010
0100
1000
0010
,  // measure 85
0100
0001
1000
0100
0010
0001
1000
0000
;
