#TITLE:Storm Depths X;
#SUBTITLE:;
#ARTIST:Joshua Tummel & Tony Thai;
#TITLETRANSLIT:;
#SUBTITLETRANSLIT:;
#ARTISTTRANSLIT:;
#GENRE:;
#CREDIT:;
#BANNER:Stormdx bn.png;
#BACKGROUND:Stormdx bg.png;
#LYRICSPATH:;
#CDTITLE:;
#MUSIC:Stormdx.mp3;
#OFFSET:0.310000;
#SAMPLESTART:35.500000;
#SAMPLELENGTH:12.000000;
#SELECTABLE:YES;
#BPMS:0.000000=154.000000
;
#STOPS:
;
#BGCHANGES:;
#KEYSOUNDS:;
#ATTACKS:;

//---------------dance-single - ----------------
#NOTES:
     dance-single:
     :
     Easy:
     3:
     0.309726,0.309331,0.093251,0.000000,0.000000,279.000000,267.000000,12.000000,0.000000,0.000000,0.000000,0.309726,0.309331,0.093251,0.000000,0.000000,279.000000,267.000000,12.000000,0.000000,0.000000,0.000000:
// measure 0
0000
0000
0000
0000
,  // measure 1
0000
0000
0000
0000
,  // measure 2
0000
0000
0000
0000
,  // measure 3
0000
0000
0000
0000
,  // measure 4
0000
0000
0000
0000
,  // measure 5
0010
1000
0001
0100
,  // measure 6
0010
1000
0000
0000
,  // measure 7
0100
0001
1000
0010
,  // measure 8
0100
0001
1000
0100
,  // measure 9
1001
0010
1000
0001
,  // measure 10
0100
1000
0000
0000
,  // measure 11
0100
0001
1000
0010
,  // measure 12
1000
0100
0010
0100
,  // measure 13
1001
0100
1000
0010
,  // measure 14
0001
1000
0001
0100
,  // measure 15
0010
1000
0100
0001
,  // measure 16
0100
1000
0010
0001
,  // measure 17
0100
0010
1000
0001
,  // measure 18
0010
0001
0100
1001
,  // measure 19
0010
0001
0100
0100
,  // measure 20
0010
0001
0100
0100
,  // measure 21
0010
1000
0100
0100
,  // measure 22
0010
1000
0100
0100
,  // measure 23
0010
1000
0100
0001
,  // measure 24
0010
1000
0100
0001
,  // measure 25
0100
1000
0010
0001
,  // measure 26
0100
1000
0010
0001
,  // measure 27
0010
1000
0001
0100
,  // measure 28
0010
1000
0001
0010
,  // measure 29
0100
0001
1000
0010
,  // measure 30
0100
0001
1000
0100
,  // measure 31
1001
0010
1000
0001
,  // measure 32
0100
1000
0010
0001
,  // measure 33
0100
0001
1000
0010
,  // measure 34
1000
0100
0010
0100
,  // measure 35
1001
0100
1000
0010
,  // measure 36
0001
1000
0001
0100
,  // measure 37
0010
1000
0100
0001
,  // measure 38
0100
1000
0010
0001
,  // measure 39
0100
0000
0010
0000
1000
0100
0001
0000
,  // measure 40
0010
0001
0100
1001
,  // measure 41
0010
0001
0100
0100
,  // measure 42
0010
0001
0100
0100
,  // measure 43
0010
1000
0100
0100
,  // measure 44
0010
1000
0100
0100
,  // measure 45
0010
1000
0001
0010
,  // measure 46
0100
1000
0001
0100
,  // measure 47
0010
0001
1000
0010
,  // measure 48
0100
0001
1000
0100
,  // measure 49
1001
0010
0001
0100
,  // measure 50
0010
0000
1000
0000
0001
0000
0010
1000
,  // measure 51
0100
0001
1000
0010
,  // measure 52
0100
0001
1000
0100
,  // measure 53
1001
0010
1000
0001
,  // measure 54
0100
0000
1000
0000
0010
0000
0001
1000
,  // measure 55
0100
0001
1000
0010
,  // measure 56
1000
0100
0010
0100
,  // measure 57
1001
0100
1000
0010
,  // measure 58
0001
1000
0001
0100
,  // measure 59
0010
1000
0100
0001
,  // measure 60
0100
1000
0010
0001
,  // measure 61
0100
0010
1000
0001
,  // measure 62
0010
0001
0100
1001
,  // measure 63
0010
0001
0100
0100
,  // measure 64
0010
0001
0100
0100
,  // measure 65
0010
1000
0100
0100
,  // measure 66
0010
1000
0100
0100
,  // measure 67
0010
0010
0001
0100
,  // measure 68
1000
1000
0010
0001
,  // measure 69
0100
0100
1000
0010
,  // measure 70
0001
0001
0100
0010
,  // measure 71
1001
0000
0110
0000
,  // measure 72
0001
0000
0000
1000
0000
0000
0000
0000
;

//---------------dance-single - ----------------
#NOTES:
     dance-single:
     :
     Medium:
     6:
     0.399647,0.449936,0.264211,0.000000,0.000000,360.000000,326.000000,34.000000,0.000000,0.000000,0.000000,0.399647,0.449936,0.264211,0.000000,0.000000,360.000000,326.000000,34.000000,0.000000,0.000000,0.000000:
// measure 0
0000
0000
0000
0000
,  // measure 1
0000
0000
0000
0000
,  // measure 2
0000
0000
0000
0000
,  // measure 3
0000
0000
0000
0000
,  // measure 4
0000
0000
0000
0000
,  // measure 5
1000
1000
0001
0100
,  // measure 6
0010
0001
1000
0010
,  // measure 7
1000
0100
0010
0001
,  // measure 8
0010
0000
0100
0000
1000
0000
0100
0010
,  // measure 9
0001
1000
0010
0100
,  // measure 10
1000
0001
0010
0100
,  // measure 11
1000
0001
0010
0100
,  // measure 12
1000
0000
0010
0000
0100
0000
0001
1000
,  // measure 13
0010
0000
0100
0000
0001
0000
1000
0010
,  // measure 14
0100
0000
0001
0000
0100
0000
0010
1000
,  // measure 15
0001
0100
1000
0001
,  // measure 16
0010
0000
0100
0000
0001
0010
0100
1000
,  // measure 17
0010
0100
0010
0100
,  // measure 18
0001
1000
0010
0001
,  // measure 19
1010
0100
0001
0100
,  // measure 20
1010
0010
0001
0100
,  // measure 21
1010
1000
0100
0010
,  // measure 22
1010
0010
0001
0100
,  // measure 23
0010
1000
0100
0000
0100
0000
1000
0000
,  // measure 24
0001
0100
1000
0000
0100
0000
0010
0000
,  // measure 25
0001
0010
1000
0000
0100
0000
1000
0000
,  // measure 26
0001
0010
0100
0000
1000
0000
0100
0000
,  // measure 27
1001
0010
0100
0001
,  // measure 28
0100
1000
0010
0000
0001
0000
1000
0000
,  // measure 29
0100
0000
0010
1000
0001
0000
0100
1000
,  // measure 30
0010
0000
0100
0001
0010
0000
1000
1000
,  // measure 31
0010
0100
0001
1000
,  // measure 32
0010
0100
0001
0100
,  // measure 33
0001
0100
1000
0100
,  // measure 34
0001
0010
1000
0100
,  // measure 35
1001
0000
1000
0000
0100
0010
0100
0000
,  // measure 36
1001
0000
0001
0000
0100
0010
0100
0000
,  // measure 37
1001
0100
0110
1100
,  // measure 38
0010
0011
0100
0101
,  // measure 39
1000
0001
0100
1000
0010
0100
0000
0000
,  // measure 40
0001
0010
0100
1000
0010
0100
0000
0000
,  // measure 41
0010
1000
0100
0000
0010
1000
0100
0000
,  // measure 42
0010
0001
0100
0000
0010
0001
0100
0000
,  // measure 43
0010
1000
0001
0000
0010
1000
0001
0000
,  // measure 44
0100
0001
1000
0000
0100
0001
1000
0000
,  // measure 45
1001
0100
0010
0100
,  // measure 46
1001
0100
0010
0100
,  // measure 47
1001
0010
0100
0010
,  // measure 48
1001
0000
0100
0100
0010
0000
0100
0000
,  // measure 49
1001
0110
0010
0100
,  // measure 50
1010
0101
0100
1000
,  // measure 51
0011
1100
0100
1000
,  // measure 52
1001
0110
0101
1001
,  // measure 53
1001
0010
0100
1000
,  // measure 54
0010
0000
0001
0000
0100
0010
1000
0001
,  // measure 55
0010
0100
0001
0010
,  // measure 56
1001
1001
1001
1001
,  // measure 57
0010
1000
0100
0000
0001
0100
1000
0000
,  // measure 58
0100
1000
0010
0000
0100
0001
0010
0000
,  // measure 59
1000
0100
0001
0000
1000
0010
0001
0000
,  // measure 60
0100
0100
1000
0000
0001
0001
0010
0000
,  // measure 61
0010
1000
0100
0000
1000
0001
1000
0000
,  // measure 62
0010
0001
0100
0000
0001
1000
0001
0000
,  // measure 63
0010
1000
0100
0001
0100
1000
0010
0000
,  // measure 64
0001
1000
0100
0010
0001
1000
0010
0000
,  // measure 65
0010
0001
0100
1000
0100
0001
0010
0000
,  // measure 66
0010
1000
0100
0001
0100
1000
0010
0000
,  // measure 67
1001
0100
0010
0001
,  // measure 68
0100
0000
0010
0000
1000
0000
1001
0100
,  // measure 69
0010
0001
1000
0100
,  // measure 70
1000
0000
0010
0100
1001
0000
0100
0000
,  // measure 71
1000
0000
0001
0000
,  // measure 72
0010
0000
0000
0100
0000
0000
0000
0000
;

//---------------dance-single - ----------------
#NOTES:
     dance-single:
     :
     Hard:
     9:
     0.511770,0.562420,0.334149,0.000000,0.085480,461.000000,418.000000,43.000000,0.000000,0.000000,0.000000,0.511770,0.562420,0.334149,0.000000,0.085480,461.000000,418.000000,43.000000,0.000000,0.000000,0.000000:
// measure 0
0000
0000
0000
0000
,  // measure 1
0000
0000
0000
0000
,  // measure 2
0000
0000
0000
0000
,  // measure 3
0000
0000
0000
0000
,  // measure 4
0000
0000
0000
0000
,  // measure 5
0010
0000
0001
0000
1000
0100
0010
0001
,  // measure 6
1000
0100
1000
0000
0010
0000
0000
0000
1001
0000
0000
0000
0000
0000
0000
0000
,  // measure 7
0010
1000
0100
0000
1000
0010
0001
0000
,  // measure 8
0100
1000
0010
0000
0100
0001
1000
0000
,  // measure 9
0010
0000
0100
0000
1000
0001
0100
0010
,  // measure 10
1000
0001
1000
0000
0001
0000
0000
0000
0110
0000
0000
0000
0000
0000
0000
0000
,  // measure 11
0010
1000
0100
0000
0100
0001
0100
0000
,  // measure 12
1000
0000
0001
0000
0010
0000
0001
0100
0001
0000
1000
0000
0010
0000
0100
0000
,  // measure 13
1001
0000
0010
0001
0100
1000
0010
1000
,  // measure 14
0010
0000
0001
0100
1000
0010
0100
1000
,  // measure 15
0010
0100
0010
0010
0001
1000
0001
0001
,  // measure 16
0010
0000
0100
1000
0000
0100
0100
0100
,  // measure 17
1000
0100
1000
0010
1000
0100
1000
0010
,  // measure 18
1000
0001
0010
0001
1000
0001
0010
0100
,  // measure 19
1001
0000
0000
0000
0000
0000
0010
1000
0010
0000
0000
0000
0000
0000
0100
0001
,  // measure 20
0100
0000
0000
0000
0000
0000
0100
0010
0100
0000
0000
0000
0000
0000
0001
1000
,  // measure 21
0001
0000
0000
0000
0000
0000
0010
0001
1000
0000
0000
0000
0000
0000
0100
1000
,  // measure 22
0001
0000
0100
0000
1000
0000
0000
0100
0010
0000
0010
0000
0100
0000
0100
0000
,  // measure 23
0001
0001
1000
0001
0001
1000
0001
1000
,  // measure 24
0000
0000
0000
0000
0000
1000
0100
0001
,  // measure 25
0010
0010
0100
0010
0010
0100
0010
0100
,  // measure 26
0000
0000
0000
0110
,  // measure 27
0010
1000
0100
1000
0010
0000
0010
1000
,  // measure 28
0001
0100
0001
0000
0010
0000
0000
0000
1001
0000
0000
0000
0110
0000
0000
0000
,  // measure 29
0010
1000
0100
1000
0010
0001
0010
1000
,  // measure 30
0010
0001
0100
0001
0100
1000
0010
1000
,  // measure 31
1001
0100
0010
0100
,  // measure 32
0001
0100
0001
0000
1000
0000
0000
0000
0010
0000
0000
0000
0100
0000
0000
0000
,  // measure 33
0001
1000
0010
1000
0100
0010
0001
1000
,  // measure 34
0010
0100
0001
0010
0100
1000
0001
0000
,  // measure 35
1001
0000
0100
0000
0001
0000
0010
1000
,  // measure 36
0100
0001
0010
0100
,  // measure 37
1001
0010
1000
0001
,  // measure 38
0010
0000
0001
0000
0100
0010
1000
0001
,  // measure 39
0010
0000
0001
0100
1000
0000
0100
0001
,  // measure 40
0010
0000
0100
0100
0100
0010
0010
0000
,  // measure 41
0010
1000
0100
0000
1000
0001
0100
0000
,  // measure 42
0001
0010
0100
0000
1000
0010
0100
0000
,  // measure 43
0001
1000
0001
0000
0010
0100
0010
0000
,  // measure 44
1001
0000
0000
0110
0000
0000
1000
0010
0100
0001
0010
0100
,  // measure 45
0010
1000
0100
0001
0100
1000
0010
0001
,  // measure 46
1001
0110
1001
0110
,  // measure 47
0010
1000
0100
0001
0100
1000
0010
0001
,  // measure 48
1001
0000
0110
0000
1001
0000
0110
0100
,  // measure 49
1001
0100
0010
0001
,  // measure 50
0001
0100
0001
0000
0010
0000
0000
0000
0100
0000
0000
0000
0010
0000
0000
0000
,  // measure 51
0010
0000
1000
0000
0100
0000
1000
0100
1000
0000
0100
0000
0001
0000
0010
0001
,  // measure 52
0010
0100
0100
1000
0010
0000
1001
0000
,  // measure 53
1001
0000
0010
0000
0000
0000
0010
0100
,  // measure 54
1000
0100
1000
0000
0001
0000
0100
0000
1000
0000
0010
0000
0100
0000
0010
0000
,  // measure 55
1001
0000
0000
0000
0000
0000
1000
0100
1000
0000
0000
0000
0000
0000
0001
0100
,  // measure 56
0001
0000
1001
0000
,  // measure 57
0010
1000
0001
0100
0010
1000
0100
0010
,  // measure 58
0001
1000
0010
0100
0010
1000
0001
0010
,  // measure 59
0010
1000
0100
1000
0010
1000
0001
1000
,  // measure 60
0010
1000
0100
1000
0001
0010
0001
0100
,  // measure 61
1000
0010
0100
0001
1000
0010
1000
0010
,  // measure 62
0001
0100
1000
0100
0001
0010
1000
0010
,  // measure 63
1001
0000
0000
0100
0001
0000
0000
0010
,  // measure 64
1000
0000
0000
0100
1000
0000
0000
0010
,  // measure 65
0001
0000
0000
0100
1000
0000
0000
0010
,  // measure 66
0100
0000
0000
1000
0010
0100
0001
0010
,  // measure 67
1001
0110
1001
0110
,  // measure 68
1010
1100
0101
0011
,  // measure 69
0101
0000
1001
0000
1010
0100
1000
0100
,  // measure 70
0010
0001
0010
0100
0110
0010
1001
0000
,  // measure 71
1001
0100
0100
0000
1001
0010
0010
0000
,  // measure 72
0110
0001
0000
1001
0000
0000
0000
0000
;
