#TITLE:Spaceport Alpha;
#SUBTITLE:(Remake);
#ARTIST:David Wise (Remake by Dave Phaneuf);
#TITLETRANSLIT:;
#SUBTITLETRANSLIT:;
#ARTISTTRANSLIT:;
#GENRE:;
#CREDIT:;
#BANNER:Spaceport Alpha BN.png;
#BACKGROUND:Spaceport Alpha BG.PNG;
#LYRICSPATH:;
#CDTITLE:;
#MUSIC:DKR Spaceport Alpha.mp3;
#OFFSET:1.030000;
#SAMPLESTART:51.680000;
#SAMPLELENGTH:12.000000;
#LASTBEATHINT:0.070000;
#SELECTABLE:YES;
#BPMS:0.000000=140.000000
;
#STOPS:
;
#BGCHANGES:;
#KEYSOUNDS:;
#ATTACKS:;

//---------------dance-single - ----------------
#NOTES:
     dance-single:
     :
     Easy:
     4:
     0.327845,0.415270,0.206421,0.000000,0.000000,189.000000,172.000000,17.000000,0.000000,0.000000,0.000000,0.327845,0.415270,0.206421,0.000000,0.000000,189.000000,172.000000,17.000000,0.000000,0.000000,0.000000:
// measure 0
0000
0000
0000
0000
,  // measure 1
0000
0000
0000
0000
,  // measure 2
0000
0000
0000
0000
,  // measure 3
0000
0000
0000
0000
,  // measure 4
0000
0000
0000
0010
,  // measure 5
0000
0100
0000
1000
,  // measure 6
0000
0001
0000
0100
,  // measure 7
0001
1000
0010
0100
,  // measure 8
1000
0001
0001
0010
,  // measure 9
0100
0001
1000
0010
,  // measure 10
0100
1000
0110
1001
,  // measure 11
0010
0001
0010
0110
,  // measure 12
0001
0100
0001
1001
,  // measure 13
0100
1000
0100
0110
,  // measure 14
0010
0000
1000
0000
0010
0100
1000
0000
,  // measure 15
0001
1000
0001
1000
,  // measure 16
1000
0000
1000
0000
1000
0100
0001
0000
,  // measure 17
1000
0010
0100
0001
,  // measure 18
1000
0000
0001
0100
1000
0100
0001
0000
,  // measure 19
0100
0001
0100
0010
,  // measure 20
1000
0010
1000
0010
,  // measure 21
0100
0000
0010
0000
0100
1000
0001
0000
,  // measure 22
1000
0000
0001
0000
1000
0010
0100
0000
,  // measure 23
0010
0000
0100
0000
0010
0001
1000
0000
,  // measure 24
0001
0000
1000
0000
0001
0100
1000
0000
,  // measure 25
0001
0000
1000
0000
0001
1000
0100
0000
,  // measure 26
0010
0100
0010
0011
,  // measure 27
1010
1100
0101
1001
,  // measure 28
0110
0000
1000
0100
0001
0000
1000
1000
,  // measure 29
1000
0000
0001
0001
0001
0000
0010
0010
,  // measure 30
0010
0000
0100
0100
0100
0000
1000
0100
,  // measure 31
0001
0000
0100
0000
1000
0000
0001
0100
,  // measure 32
1000
0000
0100
0000
0001
0000
0010
1000
,  // measure 33
0100
0000
0010
0000
0100
0000
0010
1000
,  // measure 34
0100
0000
1001
0000
0001
0001
0010
0000
,  // measure 35
1000
0100
0001
0010
,  // measure 36
1000
0100
0001
0100
,  // measure 37
1000
0010
0001
0100
,  // measure 38
1000
0010
0001
1001
,  // measure 39
0010
0100
0110
1001
,  // measure 40
0100
0000
0010
0000
0110
0000
1000
0100
,  // measure 41
0001
0000
0010
0001
0100
0000
0001
0010
,  // measure 42
0100
0000
0001
0100
1000
0000
1001
0000
;

//---------------dance-single - ----------------
#NOTES:
     dance-single:
     :
     Medium:
     6:
     0.409373,0.519088,0.267133,0.000000,0.012142,236.000000,214.000000,22.000000,0.000000,0.000000,0.000000,0.409373,0.519088,0.267133,0.000000,0.012142,236.000000,214.000000,22.000000,0.000000,0.000000,0.000000:
// measure 0
0000
0000
0000
0000
,  // measure 1
0000
0000
0000
0000
,  // measure 2
0000
0000
0000
0000
,  // measure 3
0000
0000
0000
0000
,  // measure 4
0000
0000
0000
0010
,  // measure 5
0000
0010
0001
0000
1000
0000
0100
0000
,  // measure 6
0000
1000
0001
0000
1000
0000
1000
0100
,  // measure 7
0001
0100
0010
1001
,  // measure 8
0010
1000
0100
0001
0100
0001
0100
0000
,  // measure 9
0010
0001
0100
0110
,  // measure 10
0110
0000
1001
0000
0001
0001
1000
0100
,  // measure 11
0001
0000
0000
0001
0001
0001
1000
0100
,  // measure 12
0001
0000
0000
0000
0000
0010
1000
0100
,  // measure 13
0001
0000
0000
1000
0100
0001
1000
0010
,  // measure 14
1000
0100
1000
0001
0010
1000
0100
0001
,  // measure 15
0001
0000
1000
0010
0010
0000
1001
0000
,  // measure 16
0110
0000
1001
0000
0000
0100
1000
0001
,  // measure 17
0001
0000
0010
0100
0100
0000
0001
0010
,  // measure 18
0100
1000
1001
0000
0110
0000
0010
0000
,  // measure 19
0000
1000
0001
0000
0100
0000
0100
0000
,  // measure 20
0000
0001
1000
0000
0110
0000
1000
0100
,  // measure 21
0001
0100
1000
0000
0010
0010
0010
0000
,  // measure 22
0000
0100
0100
0000
0000
0000
0010
0001
,  // measure 23
0100
0001
0010
0000
1000
1000
1000
0000
,  // measure 24
0000
0001
0001
0000
0000
0000
0001
0100
,  // measure 25
1000
0100
0001
0000
0100
0100
0100
0000
,  // measure 26
0000
0010
0010
0000
0000
0000
0010
1000
,  // measure 27
0100
1000
0010
0000
0110
0000
0100
0001
,  // measure 28
0001
0000
1000
0100
0100
0000
1001
0000
,  // measure 29
0010
0000
0000
0000
0001
0000
0000
0001
0000
0000
0001
0000
0100
0000
0000
0000
,  // measure 30
0010
0000
0000
0000
1000
0000
0000
1000
0000
0000
1000
0000
0001
0000
0010
0000
,  // measure 31
0100
1000
0001
0010
0100
1000
0001
0100
,  // measure 32
1000
0100
0001
0100
1000
0001
1000
0010
,  // measure 33
0100
0001
1000
0010
0100
0001
1000
0100
,  // measure 34
0001
0100
1000
0100
0001
0000
0010
0000
,  // measure 35
1000
0000
0001
0000
0100
0000
1000
0010
,  // measure 36
0001
0100
1000
0000
1001
0000
1000
0100
,  // measure 37
0001
0000
1000
0100
0001
0000
0100
1000
,  // measure 38
0010
0001
0100
0000
0110
0000
0011
0000
,  // measure 39
1100
0000
0001
0001
0001
0000
1010
0000
,  // measure 40
0101
0000
1000
1000
1000
0000
0011
0001
,  // measure 41
0001
0100
1100
0100
0100
1000
0001
0001
,  // measure 42
1000
1000
1001
0000
0010
0010
1001
0000
;

//---------------dance-single - ----------------
#NOTES:
     dance-single:
     :
     Hard:
     9:
     0.560285,0.545042,0.437127,0.000000,0.230706,323.000000,287.000000,36.000000,0.000000,0.000000,0.000000,0.560285,0.545042,0.437127,0.000000,0.230706,323.000000,287.000000,36.000000,0.000000,0.000000,0.000000:
// measure 0
0000
0000
0000
0000
,  // measure 1
0000
0000
0000
0000
,  // measure 2
0000
0000
0000
0000
,  // measure 3
0000
0000
0000
0000
,  // measure 4
0000
0000
0000
0000
0000
0000
0000
0000
0000
0000
0000
0000
0010
0000
1000
0010
,  // measure 5
1000
0000
0001
0000
0110
0000
0000
0000
1001
0000
0000
0000
0100
0000
0001
0100
,  // measure 6
0001
0000
1000
0000
0110
0000
0000
0000
1001
0000
0000
0000
0010
0000
1000
0010
,  // measure 7
1000
0000
0001
0000
0100
0000
0001
0100
0001
0000
0010
0000
1000
0000
0100
0000
,  // measure 8
0100
0000
0000
0000
1001
0000
0000
0000
0110
0000
0000
0000
0010
0000
1000
0010
,  // measure 9
1000
0000
0001
0000
0100
0000
0001
0100
0001
0000
0010
0000
0100
0000
0001
0100
,  // measure 10
1000
0000
0100
0001
0100
0000
0000
0000
1001
0000
0000
0000
1000
0000
0001
0100
,  // measure 11
0001
0000
1000
0000
0100
0000
0000
0000
0001
0000
0000
0000
0001
0000
1000
0100
,  // measure 12
1000
0000
0000
0000
1001
0000
0000
0000
0110
0000
0000
0000
0001
0000
1000
0100
,  // measure 13
1000
0000
0000
0000
0000
0000
1000
0100
1000
0000
0100
0000
0001
0000
0100
0001
,  // measure 14
0100
0000
0001
0100
0001
0000
0000
0000
0010
0000
0010
0000
0001
0000
1000
0100
,  // measure 15
1000
0000
0010
0000
1000
0000
0001
0100
0001
0000
0010
0000
1000
0000
1000
0000
,  // measure 16
1000
0000
0000
0000
1001
0000
0000
0000
1000
0000
1000
0000
0001
0000
1000
0100
,  // measure 17
1000
0000
0010
0000
1000
0000
0001
0100
0001
0000
0000
0000
0010
0000
0001
0100
,  // measure 18
1000
0100
0001
0000
1001
0000
0000
0000
0010
0000
0100
0000
0010
0000
1000
0010
,  // measure 19
1000
0000
0001
0000
0110
0000
0000
0000
1001
0000
0000
0000
0100
0000
0001
0100
,  // measure 20
0001
0000
1000
0000
0110
0000
0000
0000
1001
0000
0000
0000
1000
0000
0100
1000
,  // measure 21
0100
0000
1000
0000
0001
0000
0000
0000
1000
0000
0100
0000
0001
0000
0001
0100
,  // measure 22
0001
0000
0100
0000
0010
0000
0000
0000
0100
0000
0010
0000
0010
0000
0001
0010
,  // measure 23
0001
0000
0010
0000
1000
0000
0000
0000
0001
0000
1000
0000
0100
0000
0001
0100
,  // measure 24
0001
0000
1001
0000
0100
0001
0010
1000
,  // measure 25
0100
0001
0100
1000
0100
0001
0010
1000
,  // measure 26
0100
0001
0100
1000
0100
0001
0100
1000
,  // measure 27
0010
0001
0010
1000
0010
0001
0100
1000
,  // measure 28
0010
0001
0010
1000
0010
0001
0110
1000
,  // measure 29
0100
0000
1001
0100
0001
0000
0110
0001
,  // measure 30
0010
0000
1001
0010
1000
0000
1010
0000
,  // measure 31
0101
0000
0000
0000
0011
0000
0000
0000
1100
0000
0000
0000
1000
0000
0100
1000
,  // measure 32
0100
0000
1000
0000
0010
0000
0001
0010
0001
0000
0000
0000
1010
0000
0000
0000
,  // measure 33
0101
0000
0000
0000
0011
0000
0000
0000
1100
0000
0000
0000
1000
0000
0100
1000
,  // measure 34
0100
0000
1000
0000
0010
0000
0001
0010
0001
0000
0000
0000
0100
0000
1000
0000
,  // measure 35
0001
0010
0100
1000
0010
0100
0001
1000
,  // measure 36
0100
0010
0001
0100
0010
1000
0001
0010
,  // measure 37
0100
0001
0100
1000
0010
0100
0001
0010
,  // measure 38
0100
1000
0001
0010
0100
1000
1001
0000
,  // measure 39
0110
1010
0101
1001
,  // measure 40
0110
0011
1100
1000
,  // measure 41
1000
0000
0000
0000
0001
0000
0000
0000
0001
0000
0000
0000
0001
0100
1000
0100
,  // measure 42
0001
0100
1000
0100
0001
0100
1000
0100
0001
0100
1000
0100
0001
0000
0000
0000
;
