#TITLE:Spaceport Alpha;
#SUBTITLE:(Area 100 Mix);
#ARTIST:Mii-D;
#TITLETRANSLIT:;
#SUBTITLETRANSLIT:;
#ARTISTTRANSLIT:;
#GENRE:;
#CREDIT:;
#BANNER:Spaceport Alhpa (A100Mix) bn.png;
#BACKGROUND:Spaceport Alhpa (A100Mix) bg.png;
#LYRICSPATH:;
#CDTITLE:;
#MUSIC:Spaceport Alpha (Area 100 Mix).mp3;
#OFFSET:0.140000;
#SAMPLESTART:49.645000;
#SAMPLELENGTH:12.000000;
#SELECTABLE:YES;
#BPMS:0.000000=145.000000
;
#STOPS:7.500000=0.200000
;
#BGCHANGES:;
#KEYSOUNDS:;
#ATTACKS:;

//---------------dance-single - BASIC----------------
#NOTES:
     dance-single:
     BASIC:
     Easy:
     3:
     0.342689,0.386866,0.362086,0.244408,0.000000,265.000000,225.000000,40.000000,27.000000,0.000000,0.000000,0.342689,0.386866,0.362086,0.244408,0.000000,265.000000,225.000000,40.000000,27.000000,0.000000,0.000000:
0000
0000
0000
0000
,
0000
0000
0000
0000
,
0001
0000
0001
0001
,
1000
0000
1000
1000
,
0001
0000
1000
0001
,
1000
0000
1000
0001
,
1001
0200
0300
0100
,
0001
1001
0010
0010
,
1001
0200
0300
0010
,
1000
0001
1001
1000
,
0100
2100
3000
0001
,
0010
2000
3000
1000
,
0100
0102
0003
1000
,
0010
0001
0110
0100
,
1001
0001
1000
1000
,
0001
0000
1000
0001
2000
0000
3000
0000
,
1001
0001
1000
1000
,
0010
0000
0100
0010
0200
0000
0300
0000
,
1001
0000
0100
0100
,
0010
0000
0100
0100
,
1001
1000
0200
0310
,
0002
0003
2000
3000
,
0001
0001
0200
0310
,
2000
3000
0002
0003
,
1000
0100
0001
0100
,
1000
0010
0001
0100
,
1000
1000
0001
0001
,
0020
0000
0030
0100
2000
0000
3000
0000
,
1001
0000
0100
0000
,
1001
0000
0010
0000
,
1001
2000
3000
0001
,
0010
0100
0010
0100
,
1000
0002
0003
1000
,
0110
1001
0220
0330
,
1000
1000
0010
0010
,
0100
0001
0001
1000
,
0100
0100
0010
0010
,
0001
1000
1000
0100
,
0010
0001
2000
3000
,
0001
1000
0200
0300
,
0010
0001
1000
0100
,
1000
0001
1000
0001
2000
0000
3000
0000
,
1001
0000
1000
0001
,
1000
0000
1000
0001
,
1001
0000
0010
0100
,
0010
0000
0100
0100
,
1001
2100
3000
0001
,
0010
0110
0100
0100
,
1001
0102
0003
1000
,
0010
0100
0110
0000
,
1001
0010
0100
1000
,
1001
0010
0100
0001
,
1001
0010
0010
0100
,
1001
0000
0010
0100
0100
0000
0100
0000
,
1001
0001
1000
1000
,
0010
0000
0010
0100
0200
0000
0300
0000
,
1001
1000
0001
0001
,
0010
0000
0010
0100
0100
0000
0100
0000
,
1001
0001
0010
0010
,
0001
0000
1000
0001
2000
0000
3000
0000
,
1001
1000
0010
0010
,
1000
0000
0001
1000
0001
0000
0010
0000
,
1001
0000
1000
1100
,
1001
0000
0001
0101
,
1001
0000
0000
0010
0100
0000
0110
0000
,
1001
0000
0000
0010
0200
0000
0300
0000
;

//---------------dance-single - ANOTHER----------------
#NOTES:
     dance-single:
     ANOTHER:
     Medium:
     5:
     0.437090,0.446384,0.353034,0.398295,0.009052,338.000000,299.000000,39.000000,44.000000,0.000000,0.000000,0.437090,0.446384,0.353034,0.398295,0.009052,338.000000,299.000000,39.000000,44.000000,0.000000,0.000000:
0000
0000
0000
0000
,
0000
0000
0000
0000
,
1001
0000
0000
1000
0010
0000
0100
0000
,
0101
0000
0000
0010
0100
0000
1000
0000
,
1100
0000
0000
1000
0001
0000
0100
0000
,
0110
0000
0000
0100
0001
0000
1000
0000
,
0001
0010
0002
0000
0003
0010
0100
1000
,
0010
0100
0200
0000
0310
0000
0010
0000
,
1000
0100
2000
0000
3000
0001
0100
0010
,
0100
0001
1000
0001
2000
0000
3000
0000
,
1002
0000
0103
0000
0010
0000
1000
0001
,
0010
0100
0100
0010
,
2001
0000
3010
0000
0100
0000
0001
1000
,
0010
0100
0110
0001
,
1000
0010
1000
0000
0001
0100
0001
0000
,
0010
0001
0001
1000
0002
0000
0003
0100
,
0001
0010
0001
0000
1000
0100
1000
0000
,
0010
0010
0100
0010
0200
0000
0300
0000
,
1001
0000
0000
0010
0100
0000
1000
0000
,
0110
0000
0000
0001
0010
0000
0100
0000
,
1001
0000
0001
0000
0200
0000
0310
1000
,
0002
0000
0003
0010
0200
0000
0300
0000
,
1001
0000
1000
0000
0200
0000
0310
0001
,
2000
0000
3000
0010
0200
0000
0300
0000
,
0001
0000
0100
0000
1000
0000
0100
0001
,
0010
0000
1000
0000
0010
0000
0001
0100
,
1000
0010
0001
0100
,
2000
0000
3000
0100
0002
0000
0003
0000
,
1001
0000
0000
0000
0000
0000
1000
0000
1000
0000
0000
0001
0000
0000
0010
0000
,
1001
0000
0000
0000
0000
0000
0001
0000
0001
0000
0000
1000
0000
0000
0010
0000
,
1001
0000
0200
0000
0300
0010
0001
1000
,
0010
0100
0100
0000
0101
0000
1010
0000
,
0001
0000
0200
0000
0300
0001
0100
0010
,
1000
0001
1000
0001
1000
0000
0000
0001
,
0200
0000
0300
0001
0020
0000
0030
0100
,
1000
0000
0001
0100
0001
0000
0000
0010
,
0002
0000
0003
0100
2000
0000
3000
0100
,
0001
0000
0010
0100
1000
0000
0000
0001
,
0010
0000
0011
0000
1000
0010
0000
0100
,
0001
0000
1001
0000
0200
0000
0300
0001
,
1000
0020
0130
0002
,
1003
0100
1000
0100
2000
0000
3000
0000
,
1001
0000
0001
0100
,
1000
0000
0001
0100
,
1001
0000
1000
0100
,
0001
0000
1000
0100
,
1001
1000
0002
0000
0003
1000
0100
0010
,
0001
0100
0200
0000
0301
0000
1000
0000
,
1001
0001
2000
0000
3000
0001
0100
0000
,
0001
0100
0001
1000
0100
0000
1000
0001
,
0100
0010
0020
0000
0030
0100
0001
0010
,
0100
1000
2000
0000
3000
0000
0000
0001
,
0100
0010
0020
0000
0030
0100
0001
1000
,
0010
0100
0010
0100
0020
0000
0030
0000
,
1000
2100
3010
0102
,
1003
0010
0100
0010
2000
0000
3000
0001
,
0100
2010
3100
0012
,
1003
0100
0010
0001
1000
0000
0010
0100
,
0001
2001
3100
1002
,
0013
0100
1000
0010
0100
0000
0000
0001
,
0100
0120
1030
0210
,
1300
0001
0100
0010
1000
0000
0001
0000
,
1001
0000
0000
0001
0100
0000
0101
0000
,
1001
0000
0000
0001
1000
0000
1100
0000
,
1001
0000
0000
0010
0100
0000
0110
0000
,
1001
0000
0000
1001
0220
0000
0330
0000
;

//---------------dance-single - MANIAC----------------
#NOTES:
     dance-single:
     MANIAC:
     Hard:
     9:
     0.611667,0.714215,0.434503,0.217252,0.230830,473.000000,425.000000,48.000000,24.000000,0.000000,0.000000,0.611667,0.714215,0.434503,0.217252,0.230830,473.000000,425.000000,48.000000,24.000000,0.000000,0.000000:
// measure 0
0000
0000
0000
0000
,  // measure 1
0000
0000
0000
0000
,  // measure 2
0001
0000
1000
0100
0001
0000
0110
0000
,  // measure 3
1000
0000
0001
0100
1000
0000
0110
0000
,  // measure 4
1001
0000
0000
0100
1001
0000
0101
0000
,  // measure 5
1001
0000
0000
0100
1001
0000
1100
0000
,  // measure 6
0001
0000
1000
0100
1000
0000
0010
0000
0010
0000
0000
0000
0100
0000
0000
0000
,  // measure 7
0001
0100
0200
0000
0301
1000
1000
0001
,  // measure 8
1000
0000
0001
0100
0001
0000
0010
0000
1001
0000
0000
0000
0100
0000
0000
0000
,  // measure 9
0001
0000
1000
0100
1000
0000
0001
0100
0001
0000
0000
0000
0000
0000
0000
0000
,  // measure 10
1001
0010
0012
0000
0000
0103
0010
1000
,  // measure 11
0001
0000
0010
0000
2100
0000
0000
0000
0001
0000
3000
0000
0000
0000
1000
0001
,  // measure 12
0100
0010
2010
0000
0000
3010
0100
0001
,  // measure 13
1000
0000
0001
0100
0001
0000
1000
0100
1000
0000
0000
0000
0010
0000
0000
0000
,  // measure 14
0100
1001
0010
0101
,  // measure 15
1000
0000
0001
0100
0010
0000
1000
0000
0200
0000
0000
0000
0300
0000
1000
0000
,  // measure 16
0001
0101
0010
1001
,  // measure 17
1000
0000
0001
0100
0001
1000
0010
0000
0200
0000
0000
0000
0310
0000
0000
0000
,  // measure 18
1001
0000
0000
0001
0010
0000
0100
0000
,  // measure 19
1001
0000
0000
1000
0010
0000
0100
0000
,  // measure 20
0001
0000
1000
0100
1000
0000
0001
0000
0200
0000
0000
0000
0310
0000
1000
0000
,  // measure 21
0200
0000
0000
1300
0002
0000
0103
0000
,  // measure 22
0010
0000
0100
0001
0100
0000
0010
0000
2000
0000
0000
0000
3100
0000
0001
0000
,  // measure 23
0200
0000
0000
1300
0002
0000
1003
0000
,  // measure 24
0001
0100
1000
0100
0001
0010
0100
1000
,  // measure 25
0010
1000
0100
0001
0100
1000
0010
0100
,  // measure 26
0001
1000
0001
0010
0001
1000
0010
0100
,  // measure 27
0001
0001
0001
0100
0010
0010
0010
1000
,  // measure 28
1001
0000
0000
0000
0000
0000
0001
0000
1000
0000
0001
0100
0000
0000
0010
0000
,  // measure 29
1010
0000
0000
0000
0000
0000
1000
0000
0001
0000
1000
0100
0000
0000
0011
0000
,  // measure 30
1001
0000
0000
0000
0100
0000
0001
1000
0001
0000
0000
0000
0010
0000
0000
0000
,  // measure 31
0100
1000
1000
0001
0010
0001
0010
0001
,  // measure 32
1000
0000
0100
0000
0100
0000
1000
0001
1000
0000
0000
0000
0010
0000
0000
0000
,  // measure 33
0100
0000
0010
1000
0010
0000
0100
0001
0100
0000
0000
0000
0000
0000
0001
0000
,  // measure 34
1000
0100
0010
0001
0100
1000
0100
0001
,  // measure 35
0010
0000
0100
1000
0100
0000
1000
0000
0002
0000
0000
0000
0000
0000
0103
0000
,  // measure 36
0010
1000
0100
1000
0010
0100
0001
0010
,  // measure 37
0001
0000
0100
0010
0100
0000
0001
0000
2000
0000
0000
0000
3000
0000
0001
0100
,  // measure 38
0001
0000
1000
0000
0100
0010
0000
0001
,  // measure 39
1000
0100
0001
0100
2000
0000
3000
0001
,  // measure 40
0100
0000
0000
0000
0010
0000
0000
0000
1000
0000
0001
0000
0100
0000
0001
1000
,  // measure 41
0010
1000
0001
1000
0010
1000
0001
1000
0020
0000
0000
0000
0030
0000
0000
0000
,  // measure 42
1001
0000
1000
1000
,  // measure 43
0100
0000
0001
0100
,  // measure 44
1001
0000
1000
1000
,  // measure 45
0010
0000
0010
0100
,  // measure 46
1001
0000
1000
0000
0001
0000
0000
0000
0000
0000
1000
0100
0010
0000
0001
0000
,  // measure 47
1000
0000
0100
1000
0200
0000
0000
0000
0310
0000
0001
0000
1000
0000
0001
0000
,  // measure 48
1001
0000
0001
0000
1000
0000
0000
0000
0000
0000
0001
0100
0010
0000
1000
0000
,  // measure 49
0001
0000
1000
0100
1000
0000
0001
0100
0001
0000
0000
0000
1000
0000
0010
0000
,  // measure 50
1001
0000
0001
0000
0010
0000
0000
0000
0001
0000
1000
0100
1000
0000
0010
0000
,  // measure 51
1001
0001
0100
0000
0100
0000
0010
1000
,  // measure 52
1001
0000
0001
0000
0010
0000
0000
0000
0001
0000
1000
0100
1000
0000
0010
0000
,  // measure 53
1001
0000
1100
0000
0110
0000
0010
0100
,  // measure 54
1000
0000
0001
0010
0001
0000
1000
0000
0001
0000
1000
0100
1000
0000
0001
0000
,  // measure 55
1000
0000
0001
1000
0001
0000
0010
0000
0002
0000
0000
0000
0003
0000
1000
0000
,  // measure 56
0001
0000
1000
0100
1000
0000
0100
0000
1000
0000
0001
0010
0001
0000
1000
0000
,  // measure 57
0010
0000
0100
0001
0100
0001
1000
0000
2001
0000
0000
0000
3001
0000
0010
0000
,  // measure 58
0100
0000
1000
0001
1000
0000
0001
0000
0100
0000
0010
0100
0010
0000
1000
0000
,  // measure 59
0001
0000
1000
0001
1000
0000
0010
0000
0200
0000
0000
0000
0300
0000
0001
0000
,  // measure 60
1000
0000
0001
0100
0001
0000
1000
0000
0001
0000
0100
0010
0100
0000
0001
0000
,  // measure 61
1000
0000
0001
0100
0001
0100
0010
0000
2002
0000
0000
0000
3003
0000
0000
0000
,  // measure 62
1001
0000
1000
0100
1000
0000
0010
0000
1001
0000
0000
0000
1100
0000
0000
0000
,  // measure 63
1001
0000
0001
0100
0001
0000
0010
0000
1001
0000
0000
0000
0101
0000
0000
0000
,  // measure 64
1001
0000
0001
1000
0001
0000
0110
0000
1001
0000
0000
0000
0110
0000
0000
0000
,  // measure 65
1001
0000
0010
0100
0010
0000
1001
0000
0220
0000
0000
0000
0330
0000
0000
0000
;
