#VERSION:0.83;
#TITLE:Sky High;
#SUBTITLE:(Hyper FST Mix);
#ARTIST:Lucyfer;
#TITLETRANSLIT:;
#SUBTITLETRANSLIT:;
#ARTISTTRANSLIT:;
#GENRE:;
#ORIGIN:;
#CREDIT:;
#BANNER:skyhighfst bn2.png;
#BACKGROUND:skyhighfst bg.png;
#PREVIEWVID:;
#JACKET:;
#CDIMAGE:;
#DISCIMAGE:;
#LYRICSPATH:;
#CDTITLE:;
#MUSIC:Lucyfer - Sky High (Hyper FST Mix).mp3;
#OFFSET:-1.700000;
#SAMPLESTART:59.279999;
#SAMPLELENGTH:12.000000;
#SELECTABLE:YES;
#BPMS:0.000=175.900;
#STOPS:31.250=0.380;
#DELAYS:;
#WARPS:;
#TIMESIGNATURES:0.000=4=4;
#TICKCOUNTS:0.000=4;
#COMBOS:0.000=1;
#SPEEDS:0.000=1.000=0.000=0;
#SCROLLS:0.000=1.000;
#FAKES:;
#LABELS:0.000=Song Start;
#BGCHANGES:;
#KEYSOUNDS:;
#ATTACKS:
;

//---------------dance-single - ----------------
#NOTEDATA:;
#CHARTNAME:;
#STEPSTYPE:dance-single;
#DESCRIPTION:;
#CHARTSTYLE:;
#DIFFICULTY:Easy;
#METER:5;
#RADARVALUES:0.414856,0.481983,0.299619,0.414856,0.005762,252.000000,226.000000,26.000000,36.000000,0.000000,0.000000,0.000000,0.000000,0.000000,0.414856,0.481983,0.299619,0.414856,0.005762,252.000000,226.000000,26.000000,36.000000,0.000000,0.000000,0.000000,0.000000,0.000000;
#CREDIT:;
#NOTES:
// measure 0
0000
0000
0000
0000
,  // measure 1
0000
0000
0000
0000
,  // measure 2
0000
0000
0000
0000
,  // measure 3
1000
1000
1000
1000
,  // measure 4
0001
0001
0001
0001
,  // measure 5
0010
0010
0010
0010
,  // measure 6
0100
0100
1000
1000
,  // measure 7
0000
0000
0001
0000
0000
0000
0001
0000
0000
0000
0000
0000
0000
0100
0000
0000
,  // measure 8
1000
1000
0010
0010
,  // measure 9
0100
1001
0100
0001
,  // measure 10
1000
1000
0001
0001
,  // measure 11
0010
1001
0010
0100
,  // measure 12
1000
1000
0010
0010
,  // measure 13
0100
1001
0010
0100
,  // measure 14
0001
0100
0010
1000
,  // measure 15
0100
0010
2002
3003
,  // measure 16
1000
0010
0001
0001
,  // measure 17
1000
0100
0001
0010
,  // measure 18
0100
0000
1000
0000
0001
0000
1000
0010
,  // measure 19
0000
0020
0000
0000
0130
0000
0001
0000
,  // measure 20
1000
2000
3000
0002
,  // measure 21
0003
0020
0030
0200
,  // measure 22
1300
0002
0003
1000
,  // measure 23
0010
0100
2002
3003
,  // measure 24
1000
1000
0010
1001
,  // measure 25
0100
0001
0010
1001
,  // measure 26
0100
1000
0010
1001
,  // measure 27
0100
0001
1001
0110
,  // measure 28
2000
0000
0000
3001
0200
0000
0000
0310
,  // measure 29
2000
0000
0000
0000
3002
0000
0000
0103
,  // measure 30
0010
1000
0000
0001
0000
0100
0000
1001
,  // measure 31
0000
2002
3003
0000
1000
0000
0001
0000
,  // measure 32
1001
1001
0001
0001
,  // measure 33
0010
0000
0010
0000
0100
0000
0100
1000
,  // measure 34
0000
0001
0000
0000
1000
0000
1000
0000
,  // measure 35
0010
0000
0010
0100
0000
0001
1000
0000
,  // measure 36
1001
1001
1000
2000
,  // measure 37
3010
0020
0130
0200
,  // measure 38
0301
0002
1003
2000
,  // measure 39
3010
0000
0020
0000
0130
0000
0001
2000
,  // measure 40
0000
0000
3001
0000
0010
0000
0100
0010
,  // measure 41
0000
0002
0000
0003
0100
0000
0100
0000
,  // measure 42
1001
1001
0001
1000
,  // measure 43
0001
0000
0010
0000
0100
0000
1000
0001
,  // measure 44
0000
1000
0001
0000
1000
0010
1000
0000
,  // measure 45
1001
0000
0001
0100
0000
0010
1000
0000
,  // measure 46
0002
2003
3001
0001
,  // measure 47
0010
0000
0010
0000
0100
0000
0100
1000
,  // measure 48
0000
0001
1000
0000
0000
0010
0100
0001
,  // measure 49
0000
0001
1000
0010
0000
0100
0001
2000
,  // measure 50
3000
0000
1001
0000
0110
0000
0000
1001
,  // measure 51
0000
0110
0000
0000
1000
0001
1000
0000
,  // measure 52
0001
0002
0013
0020
,  // measure 53
0130
1000
0001
1001
,  // measure 54
1000
0020
0130
0001
,  // measure 55
0020
0031
1000
1001
,  // measure 56
0001
0002
0013
0020
,  // measure 57
0031
1000
0100
1001
,  // measure 58
1000
0200
0310
0002
,  // measure 59
1003
0001
0020
0030
;

//---------------dance-single - ----------------
#NOTEDATA:;
#CHARTNAME:;
#STEPSTYPE:dance-single;
#DESCRIPTION:;
#CHARTSTYLE:;
#DIFFICULTY:Medium;
#METER:7;
#RADARVALUES:0.525156,0.550837,0.449428,0.276571,0.005762,319.000000,280.000000,39.000000,24.000000,0.000000,0.000000,0.000000,0.000000,0.000000,0.525156,0.550837,0.449428,0.276571,0.005762,319.000000,280.000000,39.000000,24.000000,0.000000,0.000000,0.000000,0.000000,0.000000;
#CREDIT:;
#NOTES:
// measure 0
0000
0000
0000
0000
,  // measure 1
0000
0000
0000
0000
,  // measure 2
0000
0000
0000
0000
,  // measure 3
0010
1001
0100
1001
,  // measure 4
1000
0100
1000
0000
0001
0100
0001
0000
,  // measure 5
0010
1001
0100
1001
,  // measure 6
0010
0100
0010
0000
0100
0000
1001
0000
,  // measure 7
0000
0000
0100
0000
0000
0000
1001
0000
0000
0000
0000
0000
0000
0100
0000
0000
,  // measure 8
1000
0100
0001
0000
1000
0100
0001
0000
,  // measure 9
0010
1001
0010
1001
,  // measure 10
0001
0100
1000
0000
0001
0100
1000
0000
,  // measure 11
0010
1001
0010
1001
,  // measure 12
1000
0010
0001
0000
1000
0010
0001
0000
,  // measure 13
0100
1001
0100
1001
,  // measure 14
0001
0010
1000
0000
0001
0010
1000
0000
,  // measure 15
0100
1001
2002
3003
,  // measure 16
1000
0100
0010
0000
0001
0000
0100
0000
,  // measure 17
0010
1000
0100
0000
0010
0000
0001
0000
,  // measure 18
1000
0000
0100
0000
1001
0000
0100
0010
,  // measure 19
0000
1001
0000
0000
0100
0000
1001
0000
,  // measure 20
1000
2000
3010
0020
,  // measure 21
0130
0200
0301
0020
,  // measure 22
0130
0200
1300
2000
,  // measure 23
3001
0002
0013
0110
,  // measure 24
1001
0000
0001
0000
1000
0010
0000
1000
,  // measure 25
0000
0100
0000
0010
0000
0001
0000
0000
,  // measure 26
1001
0000
0001
0000
1000
0010
0000
0100
,  // measure 27
0000
0001
0000
0010
0000
0100
0000
2000
,  // measure 28
0000
0000
0000
3010
0200
0000
0000
0301
,  // measure 29
0010
0000
0020
0000
0230
0000
0000
1300
,  // measure 30
0010
0100
0001
0100
0000
0001
0000
0110
,  // measure 31
0000
1000
0100
1000
0001
0100
0010
0000
,  // measure 32
1001
1001
0110
0101
,  // measure 33
1001
0000
1000
0001
0010
0000
0010
0100
,  // measure 34
1000
0000
1000
0001
1000
0000
0100
0010
,  // measure 35
0001
0000
1000
0001
0010
0000
0100
0000
,  // measure 36
1001
1001
2002
3003
,  // measure 37
0001
0002
0013
0020
,  // measure 38
0130
2000
3001
2000
,  // measure 39
3010
0100
0001
1000
0001
0010
0100
0020
,  // measure 40
0030
0000
1001
0000
1000
0000
0001
0010
,  // measure 41
0000
1001
0000
1000
0100
0010
0001
0000
,  // measure 42
1001
0000
1001
0000
1000
0001
0100
0000
,  // measure 43
0010
1000
0100
0000
0010
0001
0100
0000
,  // measure 44
0010
1000
0010
0000
0100
0001
0100
0000
,  // measure 45
0010
1000
0100
0000
0010
0001
0100
0000
,  // measure 46
1001
0000
1001
0000
0001
0010
0100
0000
,  // measure 47
1000
0001
1000
0000
0100
1000
0100
0000
,  // measure 48
1000
0001
1000
0000
0001
0100
0001
0010
,  // measure 49
0000
0010
0001
1000
0000
1000
0001
0020
,  // measure 50
0030
0000
1001
0000
1000
0000
0001
2000
,  // measure 51
0000
3002
0000
0000
1003
0010
0100
0000
,  // measure 52
0001
0100
1000
0000
1000
0100
0001
0000
,  // measure 53
0010
0000
1001
0000
0010
0100
0100
0000
,  // measure 54
1000
0100
0001
0000
0001
0100
1000
0000
,  // measure 55
0010
0000
1001
0000
0010
0100
0100
0000
,  // measure 56
0001
0010
0100
1000
0010
0100
0001
0000
,  // measure 57
0010
0000
1001
0000
0010
0100
0100
0000
,  // measure 58
1000
0100
1000
0100
0010
0001
0010
0001
,  // measure 59
1000
0010
0200
0300
;

//---------------dance-single - ----------------
#NOTEDATA:;
#CHARTNAME:;
#STEPSTYPE:dance-single;
#DESCRIPTION:;
#CHARTSTYLE:;
#DIFFICULTY:Hard;
#METER:9;
#RADARVALUES:0.628870,0.619692,0.242000,0.230476,0.063381,382.000000,361.000000,21.000000,20.000000,0.000000,0.000000,0.000000,0.000000,0.000000,0.628870,0.619692,0.242000,0.230476,0.063381,382.000000,361.000000,21.000000,20.000000,0.000000,0.000000,0.000000,0.000000,0.000000;
#CREDIT:;
#NOTES:
// measure 0
0000
0000
0000
0000
,  // measure 1
0000
0000
0000
0000
,  // measure 2
0000
0000
0000
0000
,  // measure 3
1000
0000
1001
0000
0001
0000
1000
0010
,  // measure 4
0100
0001
0010
0100
1000
0001
1000
0001
,  // measure 5
0010
0000
1001
0000
0001
1000
0100
1000
,  // measure 6
0010
0100
0001
1000
1001
0000
0110
0000
,  // measure 7
0000
0000
1001
0000
0000
0000
0110
0000
0000
0000
0000
0000
0000
0100
0000
0000
,  // measure 8
1000
0100
0000
0000
1000
0100
0000
0000
0010
0001
0000
0000
0010
0001
0000
0000
,  // measure 9
1000
0010
0100
0010
1000
0001
1000
0000
,  // measure 10
0001
0100
0000
0000
0001
0100
0000
0000
0010
1000
0000
0000
0010
1000
0000
0000
,  // measure 11
0001
0010
0100
0010
0001
1000
0010
0000
,  // measure 12
1000
0100
1000
0100
0010
0001
0010
0001
,  // measure 13
1000
0010
0100
0010
1000
0001
1001
0000
,  // measure 14
0001
0001
0100
0100
0010
0010
1000
1000
,  // measure 15
0001
1000
0001
1000
2002
0000
3003
0000
,  // measure 16
1000
0100
0010
0100
1000
0010
0100
0002
,  // measure 17
0000
1003
0010
0100
0010
1000
0001
0020
,  // measure 18
0000
0130
0000
1001
0000
1000
0001
0010
,  // measure 19
0000
1001
0000
0001
1000
0100
1000
0000
,  // measure 20
0001
0000
1000
0000
0100
0000
0010
0001
,  // measure 21
0000
0010
0100
1000
0001
1000
0010
0100
,  // measure 22
0000
0001
0000
1000
0001
0000
0100
0010
,  // measure 23
0000
1001
0000
0001
1000
0010
1000
0000
,  // measure 24
1001
0000
1000
0100
0001
1000
0100
0001
,  // measure 25
0000
1000
0000
0110
0000
1001
0000
1000
,  // measure 26
0001
0000
1000
0010
0001
1000
0010
0001
,  // measure 27
0000
1000
0000
0010
0000
0100
0000
0002
,  // measure 28
0000
0000
0000
0013
0200
0000
0000
1300
,  // measure 29
0002
0000
1003
0000
0100
0000
0000
0010
,  // measure 30
0001
0001
0001
0010
0000
0100
0000
1000
,  // measure 31
0000
0000
0001
1000
0001
0000
0010
0000
0100
0000
1000
0001
1000
0000
0100
0000
,  // measure 32
1000
1001
0001
0011
,  // measure 33
1000
0100
1000
0010
0100
0001
0010
0200
,  // measure 34
0000
2300
0000
3000
0000
0100
0010
0002
,  // measure 35
0000
1003
0010
0200
0000
0301
1000
0000
,  // measure 36
0100
0000
1001
0000
0100
1000
0001
0010
,  // measure 37
0000
0010
0100
1000
0000
1000
0001
0020
,  // measure 38
0000
0230
0000
0000
0000
1300
0100
0010
,  // measure 39
0000
0010
0100
1000
0000
1000
0001
2000
,  // measure 40
3000
0000
1001
0000
1000
0001
0010
0100
,  // measure 41
0010
0001
1000
0001
1000
0001
1000
0000
,  // measure 42
1001
0000
1000
0010
1000
0010
0100
0001
,  // measure 43
0010
0100
1000
0001
1000
0001
0010
0100
,  // measure 44
1000
0010
1000
0010
0100
0001
1000
0001
,  // measure 45
0010
0100
1000
0100
0010
0001
1000
0001
,  // measure 46
2000
0000
3002
0000
1003
0010
0100
0001
,  // measure 47
0010
0001
0010
0100
1000
0100
1000
0010
,  // measure 48
0100
0001
0100
0001
0010
0100
1000
0100
,  // measure 49
1000
0100
0010
0002
0000
1003
0100
1000
,  // measure 50
1001
0000
1100
0000
1000
0001
0100
0010
,  // measure 51
2000
0000
3200
0000
1300
0001
0010
0000
,  // measure 52
0001
0010
0001
0010
0100
1000
0100
1000
,  // measure 53
0001
0100
0001
0100
0010
1000
1000
0000
,  // measure 54
0100
0010
0100
0010
0001
1000
0001
1000
,  // measure 55
0100
1000
0100
1000
0001
0100
0100
0000
,  // measure 56
0001
0010
0100
1000
0001
0100
0010
1000
,  // measure 57
0001
0100
0010
0100
0001
1000
1000
0000
,  // measure 58
0001
0100
0010
1000
0001
0100
0010
1000
,  // measure 59
0100
0010
0001
0100
2000
0000
3000
0000
;
