#VERSION:0.83;
#TITLE:Shrek's Theme;
#SUBTITLE:(Heavy Dance Remix);
#ARTIST:HGW & JP (Remixed by Dave Phaneuf);
#TITLETRANSLIT:;
#SUBTITLETRANSLIT:;
#ARTISTTRANSLIT:;
#GENRE:;
#ORIGIN:;
#CREDIT:;
#BANNER:shrekhdr bn2.png;
#BACKGROUND:shrekhdr bg.png;
#PREVIEWVID:;
#JACKET:;
#CDIMAGE:;
#DISCIMAGE:;
#LYRICSPATH:;
#CDTITLE:;
#MUSIC:Shrek's Theme (Heavy Dance Remix).mp3;
#OFFSET:1.360000;
#SAMPLESTART:83.250000;
#SAMPLELENGTH:12.000000;
#SELECTABLE:YES;
#BPMS:0.000=168.000;
#STOPS:;
#DELAYS:;
#WARPS:;
#TIMESIGNATURES:0.000=4=4;
#TICKCOUNTS:0.000=4;
#COMBOS:0.000=1;
#SPEEDS:0.000=1.000=0.000=0;
#SCROLLS:0.000=1.000;
#FAKES:;
#LABELS:0.000=Song Start;
#BGCHANGES:;
#KEYSOUNDS:;
#ATTACKS:
;

//---------------dance-single - ----------------
#NOTEDATA:;
#CHARTNAME:;
#STEPSTYPE:dance-single;
#DESCRIPTION:;
#CHARTSTYLE:;
#DIFFICULTY:Easy;
#METER:5;
#RADARVALUES:0.474572,0.556521,0.796253,0.017124,0.000000,388.000000,295.000000,93.000000,2.000000,0.000000,0.000000,0.000000,0.000000,0.000000,0.474572,0.556521,0.796253,0.017124,0.000000,388.000000,295.000000,93.000000,2.000000,0.000000,0.000000,0.000000,0.000000,0.000000;
#CREDIT:;
#NOTES:
// measure 0
0000
0000
0000
0000
,  // measure 1
0000
0000
0000
0000
,  // measure 2
0000
0000
0000
0000
,  // measure 3
0000
0000
0000
0000
,  // measure 4
1001
0010
0100
1100
,  // measure 5
0100
0010
0110
0010
,  // measure 6
0001
1001
1000
0100
,  // measure 7
1001
1010
0001
0011
,  // measure 8
0110
1000
1100
1001
,  // measure 9
0100
0110
1100
0001
,  // measure 10
1001
0010
1000
0001
,  // measure 11
0001
0010
1100
0001
,  // measure 12
0100
0010
0100
0001
,  // measure 13
0011
0010
0100
1100
,  // measure 14
1000
0010
0110
0001
,  // measure 15
1000
1100
0100
0010
,  // measure 16
1001
0100
1000
0010
,  // measure 17
0100
0010
1000
0001
,  // measure 18
0010
0100
1000
0100
,  // measure 19
0010
0100
1001
0100
,  // measure 20
0001
0011
1000
0100
,  // measure 21
1001
0010
1001
0110
,  // measure 22
1001
1000
0001
0010
,  // measure 23
0010
0100
0001
0001
,  // measure 24
0010
0100
0100
1000
,  // measure 25
0010
0010
0100
1000
,  // measure 26
0100
0001
0010
0001
,  // measure 27
0100
1000
0010
0100
,  // measure 28
1001
1000
0001
0010
,  // measure 29
0001
1000
0001
1000
,  // measure 30
0100
0001
0100
1000
,  // measure 31
1001
0010
0100
0001
,  // measure 32
0010
0100
0001
1000
,  // measure 33
0100
0100
0100
0100
,  // measure 34
1001
1000
1010
1001
,  // measure 35
0001
0011
1001
1000
,  // measure 36
1100
1001
0001
0101
,  // measure 37
1001
0001
1100
1001
,  // measure 38
1000
0101
1001
0001
,  // measure 39
1010
1001
1000
0011
,  // measure 40
1001
1000
0001
1000
,  // measure 41
0000
0000
0010
0010
,  // measure 42
0100
0010
0000
0000
,  // measure 43
0010
1000
0100
1001
,  // measure 44
0000
0000
1100
1100
,  // measure 45
0011
1100
0001
0001
,  // measure 46
0011
0000
1000
1100
,  // measure 47
0000
0001
1001
1000
,  // measure 48
0010
0100
0010
1000
,  // measure 49
0001
0010
0100
1000
,  // measure 50
0001
0011
1001
1000
,  // measure 51
0100
0100
0010
0100
,  // measure 52
0001
0010
1000
0010
,  // measure 53
0001
0100
1001
0100
,  // measure 54
1000
1000
0010
0100
,  // measure 55
0101
0001
0010
0010
,  // measure 56
0100
0010
0011
0100
,  // measure 57
1000
0010
0001
0010
,  // measure 58
1000
0100
0010
2002
,  // measure 59
0000
3003
1001
0100
,  // measure 60
1000
0010
1000
0001
,  // measure 61
0010
0010
0100
1000
,  // measure 62
0001
1000
1010
0100
,  // measure 63
0010
0011
0100
0010
,  // measure 64
1010
0100
0010
0011
,  // measure 65
0100
0010
1001
0100
,  // measure 66
0110
0011
0100
1010
,  // measure 67
0110
0100
0011
1001
,  // measure 68
1000
0110
1100
0001
,  // measure 69
0011
0110
1100
1001
,  // measure 70
0100
1000
0001
0110
,  // measure 71
1001
0110
1001
0000
,  // measure 72
0010
1001
0000
0100
,  // measure 73
1001
0100
0001
0100
,  // measure 74
1000
0010
0001
0110
,  // measure 75
1000
0001
0110
1000
,  // measure 76
1001
0010
1000
0100
,  // measure 77
0010
0001
1001
0100
,  // measure 78
0001
0110
1000
0110
,  // measure 79
1001
0000
0010
0011
,  // measure 80
0000
0100
1100
0000
,  // measure 81
0110
1001
0000
0000
;

//---------------dance-single - ----------------
#NOTEDATA:;
#CHARTNAME:;
#STEPSTYPE:dance-single;
#DESCRIPTION:;
#CHARTSTYLE:;
#DIFFICULTY:Medium;
#METER:7;
#RADARVALUES:0.539397,0.591304,0.522274,0.042809,0.000000,441.000000,380.000000,61.000000,5.000000,0.000000,0.000000,0.000000,0.000000,0.000000,0.539397,0.591304,0.522274,0.042809,0.000000,441.000000,380.000000,61.000000,5.000000,0.000000,0.000000,0.000000,0.000000,0.000000;
#CREDIT:;
#NOTES:
// measure 0
0000
0000
0000
0000
,  // measure 1
0000
0000
0000
0000
,  // measure 2
0000
0000
0000
0000
,  // measure 3
0000
0000
0000
0000
,  // measure 4
0010
0000
0001
0010
0100
0000
0100
0000
,  // measure 5
1000
0010
0100
0000
0001
0000
1000
0100
,  // measure 6
1000
0000
1000
0000
0001
0100
0001
0000
,  // measure 7
1001
0000
0010
0100
1000
0000
0010
0000
,  // measure 8
0100
0010
1000
0000
0001
0000
1000
0100
,  // measure 9
0010
0000
0100
0000
1000
0010
0100
0010
,  // measure 10
1000
0000
0001
0000
1000
0100
0010
0000
,  // measure 11
0001
0000
1000
0010
0100
0000
0010
0000
,  // measure 12
1000
0100
0010
0000
0001
0000
0001
0100
,  // measure 13
0010
1000
1000
0002
,  // measure 14
0003
0110
0010
1000
,  // measure 15
0001
0011
0010
0110
,  // measure 16
1001
0000
1000
0000
0001
0010
0100
0000
,  // measure 17
1000
0000
0001
0100
0010
0000
1000
0000
,  // measure 18
0100
0010
0100
0000
1000
0000
0001
0010
,  // measure 19
0100
0000
1000
0010
0100
0000
0010
0000
,  // measure 20
0100
0001
1001
0010
,  // measure 21
0100
1100
0010
0110
,  // measure 22
1001
0000
0100
0000
0010
0100
1000
0000
,  // measure 23
0010
0100
0011
0100
,  // measure 24
1000
0010
0100
0000
0001
0000
1000
0000
,  // measure 25
1100
0000
0010
0000
0001
0010
0100
0000
,  // measure 26
0100
0000
1000
1000
0100
0000
0001
0000
,  // measure 27
0100
1000
0010
0000
0001
0000
0100
0000
,  // measure 28
1001
0000
1000
0000
0100
0010
0100
0000
,  // measure 29
1000
0010
1010
0100
,  // measure 30
0001
0010
0100
0000
1000
0000
0001
0000
,  // measure 31
0011
0000
1000
0000
1000
0100
0010
0000
,  // measure 32
0001
0000
0100
0000
1001
0000
0010
1000
,  // measure 33
0001
0100
0010
0000
0100
0000
0100
0000
,  // measure 34
1001
0000
1000
0100
1000
0000
1001
0000
,  // measure 35
0001
0100
0001
0000
1001
0000
1000
0010
,  // measure 36
1000
0000
1001
0000
0001
0010
0001
0000
,  // measure 37
1001
0000
0001
1000
0100
0000
1001
0000
,  // measure 38
1000
0001
0100
0000
1001
0000
0001
1000
,  // measure 39
0010
0000
1001
0000
1000
0001
0010
0000
,  // measure 40
1001
0100
0100
0100
,  // measure 41
0000
0000
0000
0000
1000
0000
0001
0010
,  // measure 42
0001
0010
0100
0000
0000
0000
0000
0000
,  // measure 43
1000
0100
1000
1000
0001
0000
1001
0000
,  // measure 44
0000
0000
1001
0100
,  // measure 45
1001
0000
1001
0000
0001
0010
0001
0010
,  // measure 46
0100
0000
1000
0000
0010
0100
0010
0000
,  // measure 47
1000
0000
0001
1000
0001
0000
1010
0000
,  // measure 48
0001
0010
0100
0000
0011
0000
0100
1000
,  // measure 49
0010
0000
0101
0000
0010
0100
1000
0000
,  // measure 50
1010
0000
0100
0010
0001
0000
0110
0000
,  // measure 51
1100
1100
1010
0101
,  // measure 52
0011
0000
0100
1000
0010
0000
0101
0000
,  // measure 53
0010
0100
0001
1000
0010
0000
1001
0000
,  // measure 54
0001
0010
0100
0000
1100
0000
1000
0001
,  // measure 55
0010
0000
0011
0000
0001
0100
0010
0000
,  // measure 56
1010
0000
1000
0100
0010
0000
0011
0000
,  // measure 57
0100
0010
0100
0010
0100
0000
0100
0000
,  // measure 58
1001
0001
0010
2002
,  // measure 59
3000
0000
1003
0100
0010
0000
0001
0000
,  // measure 60
0010
0100
1000
0000
0100
0000
0100
0010
,  // measure 61
1000
0000
0001
0010
0100
1000
0001
0000
,  // measure 62
0001
0000
1000
0100
0010
0000
0100
0000
,  // measure 63
1000
0002
0003
0100
,  // measure 64
0010
1000
0001
0011
,  // measure 65
0110
0000
1000
0100
0010
0000
0011
0000
,  // measure 66
0001
0010
0100
0000
1100
0000
0100
0010
,  // measure 67
0001
0000
1000
0010
0100
0010
1000
0000
,  // measure 68
1000
0000
0001
0010
0100
0000
0010
0000
,  // measure 69
0001
0100
0010
1000
,  // measure 70
0020
1000
0001
1030
,  // measure 71
0100
0100
1001
0001
,  // measure 72
1000
0100
1000
0000
0001
0000
1000
0100
,  // measure 73
1000
0000
0001
0010
0001
0000
1001
0000
,  // measure 74
1000
0100
1000
0000
1001
0000
0001
0010
,  // measure 75
0010
0000
1001
0000
1000
0100
0100
0000
,  // measure 76
0010
0000
0001
0010
0100
0000
1000
0000
,  // measure 77
0010
1000
0100
0000
0010
0000
0001
0100
,  // measure 78
0010
0000
0100
0000
0010
1000
0100
0000
,  // measure 79
1001
0100
0011
1001
,  // measure 80
0100
1010
1001
0100
,  // measure 81
0110
1001
0000
0000
;

//---------------dance-single - ----------------
#NOTEDATA:;
#CHARTNAME:;
#STEPSTYPE:dance-single;
#DESCRIPTION:;
#CHARTSTYLE:;
#DIFFICULTY:Hard;
#METER:9;
#RADARVALUES:0.621347,0.695651,0.385284,0.162675,0.145552,508.000000,463.000000,45.000000,19.000000,0.000000,0.000000,0.000000,0.000000,0.000000,0.621347,0.695651,0.385284,0.162675,0.145552,508.000000,463.000000,45.000000,19.000000,0.000000,0.000000,0.000000,0.000000,0.000000;
#CREDIT:;
#NOTES:
// measure 0
0000
0000
0000
0000
,  // measure 1
0000
0000
0000
0000
,  // measure 2
0000
0000
0000
0000
,  // measure 3
0000
0000
0000
0000
,  // measure 4
1001
0000
1000
0001
0010
0000
1100
0000
,  // measure 5
1000
0001
0100
0000
1010
0000
1000
0001
,  // measure 6
0010
0000
0101
0000
0001
1000
0100
0000
,  // measure 7
1001
0000
0001
0010
0100
0000
1001
0000
,  // measure 8
1000
0100
0010
0000
1001
0000
0010
0100
,  // measure 9
0101
0000
1001
0000
0010
0100
1100
0000
,  // measure 10
1001
0000
1100
0000
0100
0010
0001
0000
,  // measure 11
0001
1000
0100
0010
0001
0000
0100
0010
,  // measure 12
0100
0001
1000
0000
0100
0010
0100
0010
,  // measure 13
0001
0000
0100
0000
0001
0010
0100
0000
,  // measure 14
0101
0000
0001
1000
0100
0000
0021
0000
,  // measure 15
1000
0000
0001
0000
0130
0000
0001
0100
,  // measure 16
1000
0000
0100
0001
0010
0100
1000
0000
,  // measure 17
1000
0100
0001
0100
1000
0000
0010
0100
,  // measure 18
0001
0010
0200
0000
1300
0000
1000
0100
,  // measure 19
0001
0000
0001
0100
1000
0000
0010
0000
,  // measure 20
1001
0000
0100
0000
1001
0100
1000
0001
,  // measure 21
0010
0100
0010
0001
1000
0100
0010
0001
,  // measure 22
1000
0100
1000
0001
0100
0010
1000
0000
,  // measure 23
0001
0000
0010
0100
1000
0100
1000
0001
,  // measure 24
0010
0100
1100
0000
0100
0000
0001
0010
,  // measure 25
0100
0000
0110
0000
0001
1000
1100
0000
,  // measure 26
0001
0010
0100
1000
1010
0000
0001
0010
,  // measure 27
0100
0010
0002
0000
1000
0000
1003
0100
,  // measure 28
0020
0000
0130
0000
0010
0100
2000
0000
,  // measure 29
3001
0000
0100
0010
2000
0000
3001
0000
,  // measure 30
0010
0100
2000
0000
3100
0000
0100
0010
,  // measure 31
0002
0000
1003
0000
0010
0100
0002
0000
,  // measure 32
1003
0000
1000
0100
0020
0000
0031
0100
,  // measure 33
0010
0000
0100
0000
0001
0000
0000
1000
0100
1000
0001
0000
1000
0000
0000
0000
,  // measure 34
1001
0000
0000
1000
0000
0000
0010
0000
0100
0000
0000
0000
1001
0000
0000
0001
,  // measure 35
0000
0000
0010
0000
0100
0000
0000
0000
1001
0000
0000
1000
0000
0000
0001
0000
,  // measure 36
0010
0000
0000
0000
1001
0000
0000
1000
0000
0000
0100
0000
0010
0000
0001
0100
,  // measure 37
0001
0000
0000
0001
0000
0000
0010
0000
0100
0000
0010
0000
0001
0000
0000
1000
,  // measure 38
0000
0000
0100
0000
0010
0000
0100
0000
1000
0000
0000
0001
0000
0000
0100
0000
,  // measure 39
0010
0000
1000
0000
0001
0000
0000
0010
0000
0000
0010
0000
0100
0000
1000
0010
,  // measure 40
1000
0000
0000
0001
1000
0000
0001
0000
0010
0000
0001
0000
1000
0000
0000
0000
,  // measure 41
0000
0000
0000
0000
0000
0000
0000
0000
0100
0000
0000
0010
0100
0000
0001
0000
,  // measure 42
0100
1000
0100
0000
0000
0000
0000
0000
,  // measure 43
1000
0000
0000
0001
0100
0000
0010
0000
0100
0000
0001
0000
0011
0000
0000
0000
,  // measure 44
0100
0000
0000
0000
0100
0000
0000
0000
1100
0000
0000
1000
0100
0000
0010
0000
,  // measure 45
0100
0010
0001
0000
1000
0100
0010
0010
,  // measure 46
1001
0000
0000
1000
0100
1000
0100
0000
0010
0000
0010
0000
0001
0000
0000
0100
,  // measure 47
0001
0100
0001
0000
0010
0000
0010
0000
0001
0000
0000
0000
1000
0000
0000
0000
,  // measure 48
0010
0100
0001
0000
1000
0000
1000
0100
,  // measure 49
0010
0000
1000
0001
0010
0100
1000
0000
,  // measure 50
0010
0000
0100
0010
2000
0000
0000
3000
,  // measure 51
0100
0200
0310
0001
,  // measure 52
1000
0010
1000
0001
0100
0001
1000
0100
,  // measure 53
1000
0001
0100
0001
1000
0000
1001
0000
,  // measure 54
0001
0010
0100
0000
1001
0000
1000
0100
,  // measure 55
0010
0000
1001
0000
0001
0010
0001
0000
,  // measure 56
1100
0000
1000
0100
0010
0000
0001
0000
,  // measure 57
1000
0100
0010
0001
0010
0000
0010
0000
,  // measure 58
0100
1000
0010
0100
1000
0100
2002
0000
,  // measure 59
0003
0000
3100
0010
0001
0000
1001
0000
,  // measure 60
0001
0010
0100
0000
1001
0000
0100
0010
,  // measure 61
0001
0000
1000
0001
0010
0100
1000
0000
,  // measure 62
1001
0000
1000
0100
0020
0000
0001
0000
,  // measure 63
0130
0200
0010
0310
,  // measure 64
1000
0001
0100
1000
0100
0001
1000
0100
,  // measure 65
0001
0100
1000
0001
0100
0000
1001
0000
,  // measure 66
1000
0001
0100
0000
1100
0000
0100
0010
,  // measure 67
0002
0000
0000
0103
0010
1000
0002
0000
,  // measure 68
1003
0000
1000
0010
0200
0000
0000
0301
,  // measure 69
1000
0010
0100
0001
,  // measure 70
0010
0100
1000
0100
0010
0001
0010
0100
,  // measure 71
1000
0000
0100
0000
0010
0000
0001
0000
1000
0000
0000
0001
0100
0001
0100
0000
,  // measure 72
0010
0000
1000
0000
0010
0000
0000
1000
0010
1000
0010
0000
0100
0000
0100
0000
,  // measure 73
0001
0000
0000
0001
0000
0000
0010
0000
0100
0000
0000
0000
1000
0000
0000
1000
,  // measure 74
0000
0000
0100
0000
0010
0000
0000
0000
0001
0000
0000
0001
0000
0000
0100
0000
,  // measure 75
0010
0000
0000
0000
1000
0000
0000
1000
0000
0000
0010
0000
0100
0000
0001
1000
,  // measure 76
0001
0000
0000
0101
0000
0000
1000
0000
1000
0000
0000
0000
1000
0000
0000
1100
,  // measure 77
0000
0000
0001
0000
0001
0000
0000
0000
0001
0000
0000
0011
0000
0000
1000
0000
,  // measure 78
1000
0000
0000
0000
1000
0000
0000
1010
0000
0000
0001
0000
0001
0000
0010
0100
,  // measure 79
1000
0000
1000
1000
0100
0000
1001
0000
,  // measure 80
0001
0001
0010
0000
1001
0000
0010
0010
,  // measure 81
0110
1001
0000
0000
;
