#TITLE:Seasons;
#SUBTITLE:(D-Z Blue Sunbeam Mix);
#ARTIST:浜崎あゆみ;
#TITLETRANSLIT:;
#SUBTITLETRANSLIT:;
#ARTISTTRANSLIT:Ayumi Hamasaki;
#GENRE:;
#CREDIT:;
#BANNER:Seasons DzBSb Mix bn.png;
#BACKGROUND:Seasons DzBSb Mix bg.png;
#LYRICSPATH:;
#CDTITLE:;
#MUSIC:Seasons (D-Z Blue Sunbeam Mix).mp3;
#OFFSET:-7.850000;
#SAMPLESTART:72.389999;
#SAMPLELENGTH:12.000000;
#SELECTABLE:YES;
#BPMS:0.000000=144.000000
;
#STOPS:152.000000=2.920000
;
#BGCHANGES:;
#KEYSOUNDS:;
#ATTACKS:;

//---------------dance-single - ----------------
#NOTES:
     dance-single:
     :
     Easy:
     3:
     0.292878,0.396982,0.238562,0.141646,0.000000,275.000000,243.000000,32.000000,19.000000,0.000000,0.000000,0.292878,0.396982,0.238562,0.141646,0.000000,275.000000,243.000000,32.000000,19.000000,0.000000,0.000000:
// measure 0
0000
0000
0000
0000
,  // measure 1
0000
0000
0000
0000
,  // measure 2
0000
0000
0000
0000
,  // measure 3
0000
0000
0000
0000
,  // measure 4
1001
0010
0000
0001
,  // measure 5
0000
0100
0001
1000
,  // measure 6
0010
0100
0000
0010
,  // measure 7
0000
1000
0100
0001
,  // measure 8
0110
1000
0000
0100
,  // measure 9
0000
0001
0010
0100
,  // measure 10
1000
0001
0000
1000
,  // measure 11
0000
0001
0000
0010
,  // measure 12
1001
0100
0000
0100
,  // measure 13
0001
2000
3000
0000
,  // measure 14
0001
0010
0100
1000
,  // measure 15
0001
0100
1000
0100
,  // measure 16
0001
0010
0000
0010
,  // measure 17
0001
2000
3000
0000
,  // measure 18
1000
0010
0100
0001
,  // measure 19
1000
0100
0001
0100
,  // measure 20
1001
0100
0000
0100
,  // measure 21
1000
0002
0003
0000
,  // measure 22
1000
0100
0010
0001
,  // measure 23
1000
0010
0001
0010
,  // measure 24
1000
0010
0000
0010
,  // measure 25
1000
0002
0003
0000
,  // measure 26
0001
0100
0010
1000
,  // measure 27
0001
0010
1000
0010
,  // measure 28
1001
0100
1000
0001
,  // measure 29
0010
0001
1000
0100
,  // measure 30
0010
0001
0100
0010
,  // measure 31
1001
0100
0000
0100
,  // measure 32
0010
0010
0001
0001
,  // measure 33
0100
1000
0010
0001
,  // measure 34
1000
0010
0001
0100
,  // measure 35
1000
1000
1000
0100
,  // measure 36
0010
0001
0100
1000
,  // measure 37
0010
0000
1000
0000
0100
0010
0100
0000
,  // measure 38
1001
1001
0100
0000
,  // measure 39
0100
0020
0032
2003
,  // measure 40
3010
1001
0100
0000
,  // measure 41
0100
0020
2030
3002
,  // measure 42
0013
1001
0100
0000
,  // measure 43
0100
0020
0032
0203
,  // measure 44
0310
1001
0100
0000
,  // measure 45
0100
0020
2030
3200
,  // measure 46
0310
1001
1100
0001
,  // measure 47
1001
0100
0101
0001
,  // measure 48
1001
0100
1100
0010
,  // measure 49
0110
1000
1001
0010
,  // measure 50
0011
1001
0011
0000
,  // measure 51
0011
1001
1100
0000
,  // measure 52
0110
1001
0001
0100
,  // measure 53
1000
0020
0000
0000
,  // measure 54
0030
1000
1000
0100
,  // measure 55
0001
1000
1000
0100
,  // measure 56
0001
1000
0100
0001
,  // measure 57
0100
1000
0100
0001
,  // measure 58
1000
0001
0001
0100
,  // measure 59
1000
0001
0001
0100
,  // measure 60
1000
0001
0010
1000
,  // measure 61
0010
0001
0010
1000
,  // measure 62
0010
0000
1001
0000
0010
0000
0100
0100
,  // measure 63
0100
0000
0001
0000
0010
0000
0100
0100
,  // measure 64
0100
0000
1000
0000
0001
0000
0100
0100
,  // measure 65
0100
0000
0001
0000
1000
0000
0100
0100
,  // measure 66
0100
0000
1001
0000
0001
0000
1000
1000
,  // measure 67
1000
0000
1001
0000
1000
0000
0001
0001
,  // measure 68
0001
0000
1001
0000
0010
0000
0100
0100
,  // measure 69
0100
1000
0010
0001
,  // measure 70
0100
2002
0000
0000
,  // measure 71
3003
0000
0000
0000
;

//---------------dance-single - ----------------
#NOTES:
     dance-single:
     :
     Medium:
     6:
     0.395118,0.476379,0.432394,0.052185,0.000000,371.000000,313.000000,58.000000,7.000000,0.000000,0.000000,0.395118,0.476379,0.432394,0.052185,0.000000,371.000000,313.000000,58.000000,7.000000,0.000000,0.000000:
// measure 0
0000
0000
0000
0000
,  // measure 1
0000
0000
0000
0000
,  // measure 2
0000
0000
0000
0000
,  // measure 3
0000
0000
0000
0000
,  // measure 4
1001
1100
1001
0101
,  // measure 5
1000
0100
0001
0000
0010
1000
0100
0000
,  // measure 6
1001
0101
1001
1100
,  // measure 7
0001
0100
1000
0000
0010
0001
0100
0000
,  // measure 8
0001
1000
0100
0000
0000
0001
0010
0000
,  // measure 9
0000
1000
0010
0000
0000
0001
0010
0100
,  // measure 10
0000
1000
0001
0000
0000
0100
1000
0000
,  // measure 11
0000
0001
0010
0000
0000
1000
0010
0000
,  // measure 12
1001
0000
1100
0000
0000
0001
0100
0000
,  // measure 13
0010
0000
1001
0000
0000
1000
0100
0000
,  // measure 14
0001
0000
1000
0010
0000
0100
0000
0010
,  // measure 15
0000
1000
0000
0001
0000
1000
0100
0000
,  // measure 16
0010
0000
1001
0000
0000
0001
0010
0000
,  // measure 17
0100
1000
0001
0000
0000
1000
0100
1000
,  // measure 18
0001
0000
1000
0010
0000
0100
0010
0000
,  // measure 19
0000
1000
0100
0000
0000
0001
0100
0000
,  // measure 20
1001
0000
0101
0000
0000
1000
0100
0000
,  // measure 21
0010
0000
1001
0000
0000
0001
0100
0000
,  // measure 22
0010
0000
1000
0100
0000
1000
0000
0001
,  // measure 23
0000
0010
0000
0100
0000
1000
0001
0000
,  // measure 24
0010
0000
1001
0000
0000
1000
0100
0000
,  // measure 25
0010
0001
1000
0000
0000
0100
0010
0000
,  // measure 26
1001
0000
0001
0100
0000
0010
1000
0000
,  // measure 27
0010
1001
0100
1010
,  // measure 28
1001
0000
0001
0100
0001
0000
1000
0010
,  // measure 29
0000
0100
0000
0001
0000
0100
0000
0010
,  // measure 30
1000
0000
0001
0010
0000
0100
1000
0000
,  // measure 31
0000
1000
0100
0000
0000
0001
0100
0000
,  // measure 32
1000
0000
0010
0100
0010
0000
1000
0001
,  // measure 33
0000
0010
0000
0100
0000
1000
0000
0001
,  // measure 34
0010
0000
0100
0010
0000
0001
1000
0000
,  // measure 35
0000
0001
0100
0000
0000
1000
0100
0000
,  // measure 36
1001
0101
1001
1100
,  // measure 37
0001
0010
0100
1000
0010
0100
0001
0010
,  // measure 38
1001
0000
1001
0000
0110
0000
0000
1000
,  // measure 39
0100
0000
0010
0000
1001
0000
0000
0100
,  // measure 40
0010
0000
1000
0000
0110
0000
0000
0001
,  // measure 41
0100
0000
0010
0000
1001
0000
0000
0100
,  // measure 42
0010
0000
0100
0000
1100
0000
0000
0010
,  // measure 43
0001
0000
0100
0000
0101
0000
0000
0010
,  // measure 44
1000
0000
0010
0000
1001
0000
0000
1000
,  // measure 45
0001
0000
1000
0001
0010
0100
0010
0001
,  // measure 46
1000
0000
2001
0000
3100
0000
0001
0100
,  // measure 47
1000
0000
1002
0000
0103
0000
1000
0100
,  // measure 48
0001
0000
0021
0000
0130
0000
1000
0001
,  // measure 49
0100
0000
1020
0000
0130
0000
0001
1000
,  // measure 50
0100
0000
1001
0000
0100
0000
0000
0100
,  // measure 51
1000
0110
0100
1001
,  // measure 52
1000
0100
1001
0000
0001
0000
1000
0000
,  // measure 53
0010
0200
0000
0000
,  // measure 54
0300
0000
0001
1000
0100
0000
0000
0100
,  // measure 55
1000
0000
0001
1000
0100
0000
0000
1000
,  // measure 56
0100
0000
1000
0001
0100
0000
0000
0100
,  // measure 57
0001
0000
1000
0001
0100
0000
0000
0001
,  // measure 58
0100
0000
0010
0000
1001
0000
0000
1000
,  // measure 59
0001
1000
0010
0000
1001
0000
0000
0001
,  // measure 60
1000
0001
0010
0000
1001
0000
0000
1000
,  // measure 61
0100
1000
0010
0000
1001
0000
0000
0001
,  // measure 62
0100
0000
1001
0000
0110
0000
1000
0100
,  // measure 63
0001
0100
1000
0000
0110
0000
0001
0100
,  // measure 64
1000
0100
0001
0000
1100
0000
0010
0001
,  // measure 65
0100
0001
0010
0000
0101
0000
0010
1000
,  // measure 66
0100
0000
1001
0000
0010
0001
1000
0000
,  // measure 67
0110
0000
1001
0000
0100
0010
0001
0000
,  // measure 68
0110
0000
1001
0000
0100
0010
1000
0000
,  // measure 69
0110
0000
1000
0001
0010
0001
1000
0000
,  // measure 70
1001
2002
0000
0000
,  // measure 71
3003
0000
0000
0000
;

//---------------dance-single - ----------------
#NOTES:
     dance-single:
     :
     Hard:
     8:
     0.501619,0.607634,0.216197,0.253472,0.234835,471.000000,442.000000,29.000000,34.000000,0.000000,0.000000,0.501619,0.607634,0.216197,0.253472,0.234835,471.000000,442.000000,29.000000,34.000000,0.000000,0.000000:
// measure 0
0000
0000
0000
0000
,  // measure 1
0000
0000
0000
0000
,  // measure 2
0000
0000
0000
0000
,  // measure 3
0000
0000
0000
0000
,  // measure 4
1000
0001
0010
0000
0000
0010
0000
0000
0001
0000
0000
1000
0000
0000
0010
0000
,  // measure 5
0000
0100
0000
0000
0001
0000
0000
0010
0000
0010
0100
0000
1000
0000
0001
0000
,  // measure 6
0010
0000
1001
0000
1000
0100
0110
0000
,  // measure 7
0100
0000
1001
0000
0001
0100
0110
0000
,  // measure 8
0001
1000
0010
0000
0010
1000
0000
1000
0001
0000
0001
0010
0000
0010
0100
0000
,  // measure 9
0100
1000
0000
1000
0001
0000
0001
1000
0000
1000
0010
0000
0100
0000
0001
0000
,  // measure 10
0000
0100
0101
0000
0001
1000
1100
0000
,  // measure 11
0010
0000
1001
0000
0001
0100
0110
0000
,  // measure 12
1001
0000
0001
0010
0200
0000
0310
0001
,  // measure 13
1000
0010
0020
0000
0030
1000
0001
0000
,  // measure 14
0010
0001
1000
0010
0000
0100
0001
0020
,  // measure 15
0000
0230
0000
2300
0000
3001
0000
0100
,  // measure 16
0010
0000
1000
0010
0200
0000
0310
1000
,  // measure 17
0001
0010
0020
0000
0030
0001
1000
0100
,  // measure 18
0010
0000
0001
1000
0000
0100
0110
0000
,  // measure 19
1000
0000
0001
0100
0000
0001
0100
0000
0001
0100
0000
0001
0100
0000
0001
0000
,  // measure 20
1001
0000
1000
0100
1000
0010
0100
0002
,  // measure 21
0000
0013
0020
0000
0030
0001
1000
0000
,  // measure 22
0010
0100
0001
1000
0100
0001
0100
2000
,  // measure 23
0000
3020
0000
0230
0000
0301
0000
1000
,  // measure 24
0001
0000
0010
0100
0010
0001
0100
0010
,  // measure 25
1000
0001
0002
0000
0003
0100
0010
1000
,  // measure 26
0001
0000
1000
0100
0000
0010
0110
0000
,  // measure 27
0001
0000
1000
0010
0000
1000
0010
0000
1000
0010
0000
1000
0010
0000
1000
0000
,  // measure 28
1001
0000
0001
0100
1000
0100
0001
0020
,  // measure 29
0000
0230
0000
2300
0000
3002
0000
0103
,  // measure 30
0010
0000
0010
1000
0000
1000
0001
0100
,  // measure 31
0010
0000
1001
0000
1000
0100
0110
0000
,  // measure 32
0001
0000
1000
0100
0001
0100
1000
0020
,  // measure 33
0000
0230
0000
0302
0000
2003
0000
3100
,  // measure 34
0010
0000
0010
0001
0000
0001
1000
0100
,  // measure 35
0010
0001
0100
0000
0010
1000
0100
0000
,  // measure 36
0010
0001
0100
0010
0100
0001
1000
0100
,  // measure 37
0010
0000
0000
0001
0000
1000
0000
0000
0100
0000
0000
1000
0001
0100
0001
0000
,  // measure 38
1001
0000
1001
0000
0110
0000
0001
1000
,  // measure 39
0020
0000
0130
0001
2000
0000
3100
0010
,  // measure 40
0001
1000
0020
0000
0130
0000
0001
0100
,  // measure 41
2000
0000
3100
0001
0020
0000
0130
1000
,  // measure 42
0001
0010
0002
0000
1003
0000
0100
0010
,  // measure 43
0002
0000
0103
0010
2000
0000
3001
0000
,  // measure 44
0001
1000
0200
0000
0310
0000
0001
0100
,  // measure 45
2000
0000
3100
0001
1000
0100
1000
0010
,  // measure 46
0100
0001
1001
0000
1100
0000
0001
1000
,  // measure 47
1010
0000
0001
0010
0100
0001
0100
1000
,  // measure 48
0010
0100
0010
0000
1010
0000
0001
0100
,  // measure 49
0101
0000
1000
0010
0100
1000
0100
0001
,  // measure 50
0010
0100
0010
0000
1001
0000
0010
0100
,  // measure 51
0110
0000
0001
0100
1000
0100
0001
0010
,  // measure 52
1000
0100
1001
0000
0001
0000
0100
0000
,  // measure 53
1000
0020
0000
0000
,  // measure 54
0030
0000
1001
0000
0100
0001
1000
0001
,  // measure 55
0100
0000
0000
0010
0000
0000
1000
0000
0100
0000
1000
0000
0001
0000
0100
0000
,  // measure 56
0001
0000
0000
1000
0000
0000
0100
0000
1000
0000
0001
0000
1000
0000
0100
0000
,  // measure 57
0010
0000
0000
0001
0000
0000
0010
0000
0001
0000
1000
0000
0100
0000
1000
0000
,  // measure 58
0001
0000
0000
0100
0000
0000
0100
0000
0010
0000
1000
0000
0001
0000
1000
0000
,  // measure 59
0010
0000
0000
1000
0000
0000
0001
0000
0100
0000
0001
0000
1000
0000
0100
0000
,  // measure 60
1000
0000
0000
0001
0000
0000
0100
0000
0001
0000
1000
0000
0001
0000
0100
0000
,  // measure 61
0010
0000
0000
1000
0000
0000
0010
0000
1000
0000
0001
0000
0100
0000
0001
0000
,  // measure 62
1000
0000
0010
0000
1001
0000
0000
0000
0001
0010
0000
0010
0001
0000
1000
0000
,  // measure 63
0100
0000
0000
1000
0000
0000
0001
0000
1000
0100
0000
0100
1000
0000
0001
0000
,  // measure 64
0100
0000
0000
0010
0000
0000
1000
0000
0001
0100
0000
0100
0001
0000
1000
0000
,  // measure 65
0001
0000
0001
0100
0000
0000
0001
0000
1000
0010
0000
0010
1000
0000
0001
0000
,  // measure 66
0100
0000
0100
0010
1000
0000
0001
0000
0100
0010
0000
0010
0100
0000
0001
0000
,  // measure 67
1000
0100
1000
0100
0000
0000
1000
0000
0010
0100
0000
0100
0010
0000
1000
0000
,  // measure 68
0001
0100
0001
0100
0000
0000
0001
0000
0100
0010
0000
0010
0100
0001
1000
0000
,  // measure 69
0100
0010
0100
0010
0000
0000
0001
0000
1000
0010
0000
0010
0100
0001
1000
0000
,  // measure 70
0100
0010
0100
0000
2002
0000
0000
0000
0000
0000
0000
0000
0000
0000
3003
0000
;
