#VERSION:0.83;
#TITLE:Santa Claus Is Coming To Town;
#SUBTITLE:;
#ARTIST:Cartoons;
#TITLETRANSLIT:;
#SUBTITLETRANSLIT:;
#ARTISTTRANSLIT:;
#GENRE:;
#ORIGIN:;
#CREDIT:;
#BANNER:sanclatown bn2.png;
#BACKGROUND:sanclatown bg.png;
#PREVIEWVID:;
#JACKET:;
#CDIMAGE:;
#DISCIMAGE:;
#LYRICSPATH:;
#CDTITLE:;
#MUSIC:Cartoons - Santa Claus Is Coming To Town.mp3;
#OFFSET:-0.310000;
#SAMPLESTART:87.299995;
#SAMPLELENGTH:12.000000;
#SELECTABLE:YES;
#BPMS:0.000=137.980;
#STOPS:;
#DELAYS:;
#WARPS:;
#TIMESIGNATURES:0.000=4=4;
#TICKCOUNTS:0.000=4;
#COMBOS:0.000=1;
#SPEEDS:0.000=1.000=0.000=0;
#SCROLLS:0.000=1.000;
#FAKES:;
#LABELS:0.000=Song Start;
#BGCHANGES:;
#KEYSOUNDS:;
#ATTACKS:
;

//---------------dance-single - ----------------
#NOTEDATA:;
#CHARTNAME:;
#STEPSTYPE:dance-single;
#DESCRIPTION:;
#CHARTSTYLE:;
#DIFFICULTY:Easy;
#METER:2;
#RADARVALUES:0.239811,0.258901,0.033407,0.242197,0.000000,201.000000,197.000000,4.000000,29.000000,0.000000,0.000000,0.000000,0.000000,0.000000,0.239811,0.258901,0.033407,0.242197,0.000000,201.000000,197.000000,4.000000,29.000000,0.000000,0.000000,0.000000,0.000000,0.000000;
#CREDIT:;
#NOTES:
// measure 0
0000
0000
0000
0000
,  // measure 1
0000
0000
0000
0000
,  // measure 2
0000
0000
0000
0000
,  // measure 3
0000
0000
0000
0000
,  // measure 4
1000
2000
0000
3100
,  // measure 5
0010
0000
0100
0010
,  // measure 6
0001
0002
0000
0103
,  // measure 7
0010
0000
0100
0010
,  // measure 8
1000
0010
0100
1000
,  // measure 9
0100
0001
0000
0010
,  // measure 10
2000
3000
0020
0030
,  // measure 11
0200
0300
0002
0013
,  // measure 12
0100
1000
1000
0000
,  // measure 13
0001
0010
0010
0000
,  // measure 14
0100
1000
1000
0001
,  // measure 15
0010
0100
0200
0300
,  // measure 16
1000
0010
0100
1000
,  // measure 17
0100
0001
0000
0010
,  // measure 18
0200
0300
2000
3000
,  // measure 19
0020
0030
0200
0301
,  // measure 20
0100
0010
0010
0000
,  // measure 21
1000
0001
0001
0000
,  // measure 22
0100
0010
1000
0100
,  // measure 23
0010
0100
2000
3000
,  // measure 24
0001
0010
0100
0010
,  // measure 25
0001
0200
0300
0010
,  // measure 26
1001
2000
0000
3100
,  // measure 27
0010
0100
0100
0010
,  // measure 28
0001
0002
0000
0103
,  // measure 29
0010
0100
0100
0010
,  // measure 30
1000
0010
0100
0001
,  // measure 31
1000
0020
0030
0100
,  // measure 32
0002
0000
2003
0000
,  // measure 33
3002
0000
2003
0000
,  // measure 34
3010
0010
0100
0001
,  // measure 35
1000
1000
0001
0100
,  // measure 36
0010
1000
1000
0001
,  // measure 37
0010
0100
1000
1000
,  // measure 38
0100
0010
0001
0100
,  // measure 39
1000
0100
0001
0010
,  // measure 40
1000
1000
0001
0001
,  // measure 41
0010
0010
0100
1000
,  // measure 42
0010
0100
0001
0010
,  // measure 43
0100
0200
0300
0010
,  // measure 44
0001
1000
0100
0010
,  // measure 45
0002
0000
0003
1000
,  // measure 46
0010
0100
0001
0010
,  // measure 47
0100
0100
0100
1000
,  // measure 48
0001
0010
0100
1000
,  // measure 49
1001
0000
0100
0010
,  // measure 50
1001
2000
0000
3100
,  // measure 51
0010
0100
0100
0010
,  // measure 52
0001
0002
0000
0103
,  // measure 53
0010
0100
0100
0010
,  // measure 54
1000
0010
0100
0001
,  // measure 55
1000
0020
0030
0100
,  // measure 56
0002
0000
2003
0000
,  // measure 57
3002
0000
2003
3001
,  // measure 58
0010
0010
0100
0010
,  // measure 59
0001
0001
1000
0001
,  // measure 60
0100
0100
0010
0100
,  // measure 61
1000
0001
1000
1000
,  // measure 62
1001
0000
0000
0000
;

//---------------dance-single - ----------------
#NOTEDATA:;
#CHARTNAME:;
#STEPSTYPE:dance-single;
#DESCRIPTION:;
#CHARTSTYLE:;
#DIFFICULTY:Medium;
#METER:4;
#RADARVALUES:0.326907,0.362461,0.309011,0.192088,0.000000,274.000000,237.000000,37.000000,23.000000,0.000000,0.000000,0.000000,0.000000,0.000000,0.326907,0.362461,0.309011,0.192088,0.000000,274.000000,237.000000,37.000000,23.000000,0.000000,0.000000,0.000000,0.000000,0.000000;
#CREDIT:;
#NOTES:
// measure 0
0000
0000
0000
0000
,  // measure 1
0000
0000
0000
0000
,  // measure 2
0000
0000
0000
0000
,  // measure 3
0000
0000
0000
0000
,  // measure 4
1001
2000
0000
3100
,  // measure 5
0010
0100
1000
0010
,  // measure 6
1001
0002
0000
0013
,  // measure 7
0100
0010
0001
0100
,  // measure 8
1001
0010
1010
0001
,  // measure 9
0100
0010
0000
0000
0100
0000
0010
2000
,  // measure 10
0000
0100
0010
3001
,  // measure 11
1000
0000
0000
0001
0000
0000
0010
0000
,  // measure 12
1001
0000
0010
0010
,  // measure 13
1000
0001
0010
0000
1100
0000
0010
0000
,  // measure 14
0001
0100
0010
0000
1010
0000
0001
0000
,  // measure 15
0010
0100
1000
0000
2200
0000
3300
0000
,  // measure 16
0001
0011
0100
0110
,  // measure 17
1000
0001
0000
0000
0100
0000
0010
0000
,  // measure 18
2001
0100
0010
3100
,  // measure 19
1002
0013
2001
3010
,  // measure 20
1001
0100
1000
1000
,  // measure 21
0100
0010
0001
0000
0100
0000
0010
0000
,  // measure 22
1000
0001
0010
0100
,  // measure 23
0010
0001
0100
0000
0200
0000
0310
0000
,  // measure 24
1000
1010
0100
0110
,  // measure 25
0001
0010
0000
0000
0100
0000
0010
0000
,  // measure 26
1001
0000
0002
0000
0003
1000
0100
0000
,  // measure 27
0010
0000
0001
0002
0000
0003
0100
0010
,  // measure 28
1000
0000
2000
0000
3000
0001
0010
0000
,  // measure 29
0100
0000
1000
2000
0000
3000
0100
0000
,  // measure 30
0010
1001
0100
1001
,  // measure 31
0100
0010
0000
0000
0001
0000
1000
2000
,  // measure 32
0000
0010
0100
3010
,  // measure 33
1002
0100
0010
0103
,  // measure 34
1001
1000
0001
0001
,  // measure 35
0010
0100
0010
1000
,  // measure 36
0000
0100
0000
0000
0100
0000
1001
0000
,  // measure 37
0100
1100
0100
0011
,  // measure 38
1000
0001
0010
0011
,  // measure 39
0100
1000
0001
1000
,  // measure 40
0100
0010
0001
0000
1000
0000
1000
0000
,  // measure 41
0001
0010
0100
0000
1000
0001
1000
0000
,  // measure 42
0011
0010
0100
0010
,  // measure 43
1100
1100
0100
0010
,  // measure 44
0011
0010
0100
0010
,  // measure 45
2002
0000
3003
0100
,  // measure 46
0010
1000
0100
0010
,  // measure 47
0100
0000
0100
0000
0100
0000
0100
0010
,  // measure 48
0001
0010
0100
1000
,  // measure 49
1100
0000
0010
0000
0100
0000
0001
0100
,  // measure 50
0001
0000
0002
0000
0003
1000
0100
0000
,  // measure 51
0010
0000
0001
0002
0000
0003
0100
0010
,  // measure 52
1000
0000
2000
0000
3000
0001
0010
0000
,  // measure 53
0100
0000
1000
2000
0000
3000
0100
0000
,  // measure 54
0010
1001
0100
1001
,  // measure 55
0100
0010
0000
0000
0001
0000
1000
2000
,  // measure 56
0000
0010
0100
3010
,  // measure 57
1002
0100
0010
0103
,  // measure 58
1001
0000
0000
1000
0010
0000
0100
0000
,  // measure 59
0001
0001
0010
0010
,  // measure 60
1001
0000
0000
0001
0010
0000
0100
0000
,  // measure 61
1000
1000
0010
0010
,  // measure 62
1001
0000
0000
0000
;

//---------------dance-single - ----------------
#NOTEDATA:;
#CHARTNAME:;
#STEPSTYPE:dance-single;
#DESCRIPTION:;
#CHARTSTYLE:;
#DIFFICULTY:Hard;
#METER:7;
#RADARVALUES:0.412810,0.440131,0.283956,0.141978,0.050110,346.000000,312.000000,34.000000,17.000000,0.000000,0.000000,0.000000,0.000000,0.000000,0.412810,0.440131,0.283956,0.141978,0.050110,346.000000,312.000000,34.000000,17.000000,0.000000,0.000000,0.000000,0.000000,0.000000;
#CREDIT:;
#NOTES:
// measure 0
0000
0000
0000
0000
,  // measure 1
0000
0000
0000
0000
,  // measure 2
0000
0000
0000
0000
,  // measure 3
0000
0000
0000
0000
,  // measure 4
1001
0000
0020
0000
0030
0100
0010
0100
,  // measure 5
0001
0010
0100
1000
0000
0001
1000
0010
,  // measure 6
0001
0000
0020
0000
0030
1000
0100
0001
,  // measure 7
0100
1000
0010
0100
0000
0000
0001
0010
,  // measure 8
0100
1001
0100
0011
,  // measure 9
0100
0010
0000
0010
0100
0000
1000
0002
,  // measure 10
0010
0100
1003
0100
,  // measure 11
1000
0000
1000
0100
0000
0100
0010
0001
,  // measure 12
1000
0001
0010
0000
1001
0000
0000
0100
,  // measure 13
0010
1000
0001
0000
0011
0000
0000
0100
,  // measure 14
1000
0100
0010
0000
1001
0000
0011
0000
,  // measure 15
0001
0010
0100
0000
1100
0000
1000
0100
,  // measure 16
0001
1001
0100
1001
,  // measure 17
0100
1000
0000
0001
0100
0000
0010
0000
,  // measure 18
1002
0000
0100
0000
0013
0000
0100
0010
,  // measure 19
2000
3100
0002
0013
,  // measure 20
0100
0010
1000
0000
1001
0000
0100
0000
,  // measure 21
0001
0010
0001
0000
0110
0000
1000
0000
,  // measure 22
0100
0010
0001
0000
0011
0000
0010
0000
,  // measure 23
0001
0100
0010
0000
1010
0000
1000
0100
,  // measure 24
0010
0000
0001
0100
0010
0000
1000
0100
,  // measure 25
0010
0000
0001
1000
0100
0000
0110
0000
,  // measure 26
1001
0000
2000
0000
0000
3001
0010
0100
,  // measure 27
1000
0010
0100
0200
0000
0310
1000
0100
,  // measure 28
0010
0000
0002
0000
0000
1003
0100
0010
,  // measure 29
0001
0100
0010
0020
0000
0130
0001
0010
,  // measure 30
0100
1001
0100
0011
,  // measure 31
0100
0010
0000
1000
0000
0100
0010
0002
,  // measure 32
0100
0010
0103
0010
,  // measure 33
0100
0000
1000
0100
0000
0010
0001
1000
,  // measure 34
0001
0000
0010
0000
0000
0010
0100
0000
0010
0000
0001
0000
0000
0001
1000
0000
,  // measure 35
0010
0000
0100
0000
0000
0001
1000
0000
0100
0000
0000
0000
1001
0000
0000
0000
,  // measure 36
0000
0000
0010
0000
0000
1000
0000
0000
0100
0000
0000
0001
0000
0000
0010
0000
,  // measure 37
1000
0100
2000
0000
0000
0000
0000
0000
3100
0000
0010
0000
0001
0100
0000
0010
,  // measure 38
1000
0000
0001
0000
0000
0001
1000
0000
0100
0000
0010
0000
0000
0001
1000
0000
,  // measure 39
0100
0000
0010
0000
0000
0010
0000
0000
0010
0000
0000
0010
0000
0000
0010
0000
,  // measure 40
0010
0001
0000
0010
1000
0000
0010
0001
,  // measure 41
0000
0010
0000
1000
0010
0001
0100
0000
,  // measure 42
1001
0100
0010
0100
,  // measure 43
1001
1001
0000
0010
,  // measure 44
0001
0010
0100
0000
1000
0100
0010
0000
,  // measure 45
1001
0100
0010
0001
,  // measure 46
0010
0100
1000
0000
0100
0010
0001
0000
,  // measure 47
0100
0000
1001
0000
1001
0000
1000
0100
,  // measure 48
0010
0100
1000
0010
,  // measure 49
1001
0000
0010
0000
0100
0000
1000
0100
,  // measure 50
0001
0000
2000
0000
0000
3001
0010
0100
,  // measure 51
1000
0010
0100
0200
0000
0310
1000
0100
,  // measure 52
0010
0000
0002
0000
0000
1003
0100
0010
,  // measure 53
0001
0100
0010
0020
0000
0130
0001
0010
,  // measure 54
0100
1001
0100
0011
,  // measure 55
0100
0010
0000
1000
0000
0100
0010
0002
,  // measure 56
0100
0010
0103
0010
,  // measure 57
0100
0000
1000
0100
0000
0010
0001
1000
,  // measure 58
0001
0100
1000
0000
1000
0100
0001
0000
,  // measure 59
0010
1001
0010
1001
,  // measure 60
0001
0010
1000
0000
1000
0010
0001
0000
,  // measure 61
0100
1001
0100
1001
,  // measure 62
1001
0000
0000
0000
;
