#TITLE:Run Run Away;
#SUBTITLE:(Airplay Mix);
#ARTIST:Domino;
#TITLETRANSLIT:;
#SUBTITLETRANSLIT:;
#ARTISTTRANSLIT:;
#GENRE:;
#CREDIT:;
#BANNER:RunrunawayAm - bn.png;
#BACKGROUND:RunrunawayAm - bg.png;
#LYRICSPATH:;
#CDTITLE:;
#MUSIC:Dominoo - Run Run Away (Airplay Mix) short edit.mp3;
#OFFSET:-1.300000;
#SAMPLESTART:69.855003;
#SAMPLELENGTH:12.000000;
#SELECTABLE:YES;
#BPMS:0.000000=140.020004
;
#STOPS:
;
#BGCHANGES:;
#KEYSOUNDS:;
#ATTACKS:;

//---------------dance-single - ----------------
#NOTES:
     dance-single:
     :
     Easy:
     4:
     0.386651,0.451092,0.584370,0.287059,0.000000,264.000000,207.000000,57.000000,28.000000,0.000000,0.000000,0.386651,0.451092,0.584370,0.287059,0.000000,264.000000,207.000000,57.000000,28.000000,0.000000,0.000000:
// measure 0
0000
0000
0000
0000
,  // measure 1
0000
0000
0000
0000
,  // measure 2
0000
0000
0000
0000
,  // measure 3
0000
0000
0000
0000
,  // measure 4
1000
1000
0001
0010
,  // measure 5
0100
1000
0010
0001
,  // measure 6
1000
1000
0010
0100
,  // measure 7
1001
1001
2002
3003
,  // measure 8
2000
0000
3000
0000
1000
0001
0100
0000
,  // measure 9
0100
0010
1000
0100
,  // measure 10
0001
0100
1000
0100
,  // measure 11
1001
1001
2002
3003
,  // measure 12
0002
0000
0003
0000
0001
1000
0100
0000
,  // measure 13
0100
0010
0001
0100
,  // measure 14
1000
0100
0001
0100
,  // measure 15
1001
1001
2002
3003
,  // measure 16
1000
1010
0001
0101
,  // measure 17
1000
0000
1001
0000
0010
0100
0010
0000
,  // measure 18
0001
0011
1000
1100
,  // measure 19
1001
0010
2002
3003
,  // measure 20
1000
1100
0001
0011
,  // measure 21
1000
0000
1001
0000
0100
0010
0100
0000
,  // measure 22
0001
0101
1000
1010
,  // measure 23
1001
0100
2002
3003
,  // measure 24
1000
0100
1000
0000
0001
0000
0100
0000
,  // measure 25
1000
0100
0001
0010
,  // measure 26
0100
1000
0001
0000
1000
0000
0010
0000
,  // measure 27
0100
0001
0110
0110
,  // measure 28
0001
0100
0001
0000
1000
0000
0100
0000
,  // measure 29
0001
0000
0100
0000
1000
0000
0010
0100
,  // measure 30
0010
0000
0010
0000
0010
0000
1000
0001
,  // measure 31
0200
0300
0010
0110
,  // measure 32
1001
0000
0010
0001
,  // measure 33
0010
0000
0100
1000
,  // measure 34
0100
0010
0001
1000
,  // measure 35
0100
0010
0010
0100
,  // measure 36
1001
0000
0001
0000
0010
0000
0001
1000
,  // measure 37
0010
0000
0100
0000
0010
0000
1000
0001
,  // measure 38
0010
0010
0001
1000
,  // measure 39
0200
0300
0010
0110
,  // measure 40
1001
0000
1000
0100
1000
0000
0100
0000
,  // measure 41
0010
0000
0010
0000
0001
1000
0001
0000
,  // measure 42
1000
0000
0001
0100
0001
0000
0010
0000
,  // measure 43
1001
0110
2002
3003
,  // measure 44
1001
0000
0001
0010
0001
0000
0100
0000
,  // measure 45
0110
0000
0010
0000
1000
0001
1000
0000
,  // measure 46
1001
0000
1001
0000
0001
0100
1000
0000
,  // measure 47
1001
0110
2002
3003
,  // measure 48
1001
0000
0001
1000
0100
0000
0010
0000
,  // measure 49
0011
0000
1100
0000
0001
1000
0100
0000
,  // measure 50
1010
0000
0101
0000
0010
0100
0100
0000
,  // measure 51
1001
0110
2002
3003
,  // measure 52
1001
0110
2002
3003
,  // measure 53
1001
0110
2002
3003
,  // measure 54
2002
0000
0000
3003
0000
0110
0220
0000
,  // measure 55
0330
0000
0000
0000
;

//---------------dance-single - ----------------
#NOTES:
     dance-single:
     :
     Medium:
     5:
     0.432053,0.451092,0.594622,0.307563,0.000000,295.000000,237.000000,58.000000,30.000000,0.000000,0.000000,0.432053,0.451092,0.594622,0.307563,0.000000,295.000000,237.000000,58.000000,30.000000,0.000000,0.000000:
// measure 0
0000
0000
0000
0000
,  // measure 1
0000
0000
0000
0000
,  // measure 2
0000
0000
0000
0000
,  // measure 3
0000
0000
0000
0000
,  // measure 4
0010
0000
1001
0000
0010
0100
0100
0000
,  // measure 5
0010
0000
1001
0000
0001
0100
1000
0100
,  // measure 6
0010
0000
1001
0000
0010
0100
0100
0000
,  // measure 7
0101
1100
2002
3003
,  // measure 8
2000
0000
3001
0000
1000
0010
0001
0000
,  // measure 9
0010
0000
1000
0000
0001
0100
0001
0000
,  // measure 10
2000
0000
3001
0000
1000
0001
0001
0000
,  // measure 11
0101
1100
2002
3003
,  // measure 12
0020
0000
0000
0130
0001
1000
0100
0000
,  // measure 13
0010
0001
0100
0000
0010
1000
0100
0000
,  // measure 14
0011
0000
1100
0000
0010
0100
0010
0000
,  // measure 15
0101
1100
2002
3003
,  // measure 16
0010
0000
1001
0000
1000
0100
1000
0000
,  // measure 17
1001
0000
0101
0000
0010
0100
0100
0000
,  // measure 18
0010
0000
1001
0000
0001
0100
0001
0000
,  // measure 19
0101
1100
2002
3003
,  // measure 20
0010
0000
1001
0000
0001
0010
0001
0000
,  // measure 21
1001
0000
1100
0000
0010
0100
0100
0000
,  // measure 22
0010
0000
1001
0000
1000
0010
1000
0000
,  // measure 23
0101
1100
2002
3003
,  // measure 24
1000
0100
1000
0000
0001
0100
0001
0000
,  // measure 25
1000
0100
1000
0000
0001
0100
0001
0000
,  // measure 26
1000
0010
1000
0000
0001
0010
0001
0000
,  // measure 27
1000
0001
1000
0000
0110
0000
0110
0000
,  // measure 28
0001
0100
1000
0000
0001
0100
1000
0000
,  // measure 29
1000
0100
0001
0000
1000
0100
0001
0000
,  // measure 30
0100
0000
0100
0000
0100
0000
0100
0001
,  // measure 31
1000
0010
0000
0010
0100
0000
0110
0000
,  // measure 32
1001
0100
0001
0100
,  // measure 33
0010
0010
0001
0100
,  // measure 34
0010
1000
1000
0001
,  // measure 35
0100
0000
0020
0000
0030
1000
0001
0010
,  // measure 36
0001
0100
0000
0100
0000
0100
0010
1000
,  // measure 37
0001
0100
0000
0100
0000
0100
0010
1000
,  // measure 38
0001
1000
0100
0001
,  // measure 39
0020
0030
1000
0110
,  // measure 40
0002
0000
1003
0000
0100
0010
0010
0000
,  // measure 41
0011
0000
1100
0000
0010
0100
0100
0000
,  // measure 42
2000
0000
3001
0000
0100
0010
0010
0000
,  // measure 43
0101
1100
2002
3003
,  // measure 44
0020
0000
0000
0130
0001
1000
0100
0000
,  // measure 45
0010
0001
0001
0000
1000
0100
0100
0000
,  // measure 46
0011
0000
1100
0000
0010
0100
0010
0000
,  // measure 47
0101
1100
2002
3003
,  // measure 48
1000
0010
0000
0110
0000
1000
0000
1010
,  // measure 49
0000
0001
0000
0011
0000
0110
0000
0000
,  // measure 50
1000
0001
0000
1001
0000
0010
0000
0110
,  // measure 51
0000
1000
0000
0001
0010
0100
0010
0000
,  // measure 52
0101
1100
2002
3003
,  // measure 53
1001
0110
2002
3003
,  // measure 54
2002
0000
0000
3003
0000
0110
0220
0000
,  // measure 55
0330
0000
0000
0000
;

//---------------dance-single - ----------------
#NOTES:
     dance-single:
     :
     Hard:
     7:
     0.521392,0.507479,0.440840,0.102521,0.271681,356.000000,313.000000,43.000000,10.000000,0.000000,0.000000,0.521392,0.507479,0.440840,0.102521,0.271681,356.000000,313.000000,43.000000,10.000000,0.000000,0.000000:
// measure 0
0000
0000
0000
0000
,  // measure 1
0000
0000
0000
0000
,  // measure 2
0000
0000
0000
0000
,  // measure 3
0000
0000
0000
0000
,  // measure 4
1000
0000
0000
1000
0001
0000
0100
0000
0010
0000
0100
0000
0001
0000
0000
0000
,  // measure 5
1000
0001
0100
0001
0010
0100
0010
0001
,  // measure 6
1000
0000
0000
1000
0001
0000
0000
0001
0010
0000
0100
0000
0100
0000
0000
0000
,  // measure 7
1100
0101
2002
3003
,  // measure 8
2000
0000
3001
0100
0010
0100
0001
0000
,  // measure 9
1100
0000
0000
0000
0101
0000
0000
0100
0010
0000
1000
0000
1000
0000
0000
0000
,  // measure 10
0002
0000
1003
0100
0010
0100
1000
0000
,  // measure 11
1001
0000
0000
0000
0011
0000
0000
0010
0100
0000
0000
0000
0110
0000
0000
0000
,  // measure 12
2000
0000
0000
3001
0010
0001
0100
0000
,  // measure 13
0010
1000
1000
0000
0001
0100
0100
0000
,  // measure 14
1010
0000
0000
0000
0101
0000
0000
0001
0010
0000
0001
0000
1000
0000
0000
0000
,  // measure 15
1001
0000
0000
0000
0110
0000
0000
0001
1000
0000
0000
0000
0110
0000
0000
0000
,  // measure 16
1000
0000
0000
1000
0100
0000
0100
0000
0010
0000
0001
0000
1000
0000
0000
0000
,  // measure 17
0001
0000
0000
0001
0010
0000
0000
0010
0100
0000
1000
0000
0001
0000
0000
0000
,  // measure 18
0100
0000
0000
0100
0010
0000
0010
0000
1000
0000
0001
0000
0010
0000
0000
0000
,  // measure 19
1001
0110
1001
0100
,  // measure 20
0001
0000
0000
0001
1000
0000
0100
0000
0010
0000
0001
0000
1000
0000
0000
0000
,  // measure 21
0010
0100
0001
0000
0010
0100
1000
0001
,  // measure 22
1000
0000
0000
0001
0100
0000
0000
0010
1000
0000
0100
0000
0100
0000
0000
0000
,  // measure 23
1001
0000
0000
0000
0011
0000
0000
0010
0100
0000
0000
0000
0100
0000
0000
0000
,  // measure 24
1000
0000
0001
0000
0100
0000
0001
0000
1000
0000
0001
0000
0100
0000
0010
1000
,  // measure 25
0000
0001
0100
0010
0000
1000
0001
0010
,  // measure 26
0001
0000
1000
0000
0100
0000
1000
0000
0001
0000
1000
0000
0100
0000
0010
0001
,  // measure 27
0000
1000
0100
0010
0110
0000
0110
0000
,  // measure 28
1000
0000
0010
0000
0100
0000
0001
0000
1000
0000
0010
0000
0100
0000
0001
0010
,  // measure 29
0000
0010
0001
1000
0000
1000
0010
0100
,  // measure 30
0001
0000
0010
0000
0100
0000
1000
0000
0001
0000
0010
0000
0100
0000
1000
0001
,  // measure 31
0000
1000
0000
1000
0110
0000
0110
0000
,  // measure 32
1001
0000
0000
0000
1000
0000
0000
0001
0010
0000
0000
0000
0001
0000
0000
0000
,  // measure 33
1000
0000
0000
0000
0001
0000
0000
0010
0100
0000
0000
0000
1000
0000
0000
0000
,  // measure 34
0100
0000
0000
0000
0010
0000
0000
0100
1000
0000
0000
0000
0001
0000
0000
0000
,  // measure 35
0010
0000
0000
0000
1001
0000
0000
0000
0000
0000
0010
0100
0010
0000
0100
0000
,  // measure 36
0001
0000
1000
0001
0010
0001
1000
0010
,  // measure 37
0100
0000
0000
0000
0010
0000
0000
1000
0001
0000
0010
0000
0001
0000
1000
0000
,  // measure 38
0100
0000
0100
0000
0010
0000
0001
1000
,  // measure 39
0020
0000
0130
0110
,  // measure 40
0001
0000
0000
0001
0010
0000
0000
0010
0001
0000
0000
0001
1000
0000
0000
1000
,  // measure 41
0010
0000
0000
0010
1000
0000
0000
1000
0100
0000
0000
0100
0010
0000
0000
0010
,  // measure 42
0001
0000
0000
0001
1000
0000
0100
0000
0010
0000
0001
0000
1000
0000
0000
0000
,  // measure 43
1001
0101
0110
0010
,  // measure 44
1000
0000
0000
1000
0010
0000
0000
0010
1000
0000
0000
1000
0001
0000
0000
0001
,  // measure 45
0100
0000
0000
0100
0001
0000
0000
0001
0010
0000
0000
0010
0100
0000
0000
0100
,  // measure 46
1000
0000
0000
1000
0001
0000
0000
0001
0010
0000
0100
0000
0010
0000
0000
0000
,  // measure 47
1001
1100
0110
0010
,  // measure 48
0001
0000
0000
0001
1000
0000
0000
1000
0100
0000
0000
0100
1000
0000
0000
1000
,  // measure 49
0001
0000
0000
0001
0100
0000
0000
0100
0010
0000
0000
0010
1000
0000
0000
1000
,  // measure 50
0001
0000
0000
0001
1000
0000
0000
1000
0010
0000
0100
0000
0100
0000
0000
0000
,  // measure 51
1001
0011
0110
0100
,  // measure 52
1001
1010
0110
0100
,  // measure 53
1001
0110
1001
0100
,  // measure 54
2002
0000
0000
3003
0000
0110
0220
0000
,  // measure 55
0330
0000
0000
0000
;
