#TITLE:Robotman On Holiday;
#SUBTITLE:;
#ARTIST:Captain Jack;
#TITLETRANSLIT:;
#SUBTITLETRANSLIT:;
#ARTISTTRANSLIT:;
#GENRE:;
#CREDIT:;
#BANNER:robotman bn.PNG;
#BACKGROUND:robotman bg.png;
#LYRICSPATH:;
#CDTITLE:;
#MUSIC:Captain Jack - Robotman On Holiday.mp3;
#OFFSET:-2.140000;
#SAMPLESTART:60.774998;
#SAMPLELENGTH:12.000000;
#SELECTABLE:YES;
#BPMS:0.000000=135.050003
;
#STOPS:
;
#BGCHANGES:;
#KEYSOUNDS:;
#ATTACKS:;

//---------------dance-single - ----------------
#NOTES:
     dance-single:
     :
     Easy:
     2:
     0.215592,0.265695,0.340089,0.138161,0.000000,142.000000,110.000000,32.000000,13.000000,0.000000,0.000000,0.215592,0.265695,0.340089,0.138161,0.000000,142.000000,110.000000,32.000000,13.000000,0.000000,0.000000:
// measure 0
0000
0000
0000
0000
,  // measure 1
0000
0000
0000
0000
,  // measure 2
0000
0000
0000
0000
,  // measure 3
0000
0000
0000
0000
,  // measure 4
1001
0010
0000
0100
,  // measure 5
0000
0001
0000
0100
,  // measure 6
1001
0010
0000
0100
,  // measure 7
0000
1000
0000
0001
,  // measure 8
0000
1001
1001
0000
,  // measure 9
0100
0000
0010
0000
,  // measure 10
0000
1001
1001
0000
,  // measure 11
0100
0000
0010
0000
,  // measure 12
0000
1001
1001
0000
,  // measure 13
0010
0000
1000
0000
,  // measure 14
0000
1001
1001
0000
,  // measure 15
0100
0000
0001
0000
,  // measure 16
1000
0100
0010
0000
,  // measure 17
0002
0003
0200
0300
,  // measure 18
0010
1000
0001
0000
,  // measure 19
2002
0000
3003
0100
,  // measure 20
0001
0010
0001
0000
,  // measure 21
2000
3000
0200
0300
,  // measure 22
0010
0001
1000
0000
,  // measure 23
0020
0000
0030
0100
,  // measure 24
1001
0100
0000
0010
,  // measure 25
0000
0001
0000
0010
,  // measure 26
0001
0010
0100
0000
,  // measure 27
2002
0000
3003
0010
,  // measure 28
1001
0100
0000
0010
,  // measure 29
0000
0001
0000
0100
,  // measure 30
0010
1000
0000
0001
,  // measure 31
0100
0100
0100
0100
,  // measure 32
2002
0000
0000
0000
,  // measure 33
3003
1001
1001
0000
,  // measure 34
0010
0000
0010
0000
,  // measure 35
0000
1001
1001
0000
,  // measure 36
0100
0000
0100
0000
,  // measure 37
0000
1001
1001
0000
,  // measure 38
0010
0000
0100
0000
,  // measure 39
0000
1001
1001
0000
,  // measure 40
0100
0000
0010
0000
,  // measure 41
0000
1001
0110
0000
,  // measure 42
1000
0100
0010
0001
,  // measure 43
0000
1001
0110
0000
,  // measure 44
0001
0010
0100
1000
,  // measure 45
0000
1001
0110
0000
,  // measure 46
1000
0010
0100
0001
,  // measure 47
0000
1001
0110
0000
,  // measure 48
0001
0100
0010
1000
,  // measure 49
2002
0000
0000
0000
,  // measure 50
3003
0000
0000
0000
;

//---------------dance-single - ----------------
#NOTES:
     dance-single:
     :
     Medium:
     5:
     0.371972,0.398542,0.414484,0.116906,0.010628,245.000000,206.000000,39.000000,11.000000,0.000000,0.000000,0.371972,0.398542,0.414484,0.116906,0.010628,245.000000,206.000000,39.000000,11.000000,0.000000,0.000000:
// measure 0
0000
0000
0000
0000
,  // measure 1
0000
0000
0000
0000
,  // measure 2
0000
0000
0000
0000
,  // measure 3
0000
0000
0000
0000
,  // measure 4
1001
0000
1000
0000
0100
0010
0001
0000
,  // measure 5
1000
0010
0100
0000
0001
0000
0100
0010
,  // measure 6
0000
1000
0100
0000
0010
0001
0100
0000
,  // measure 7
0010
0100
0001
0000
1000
0000
0100
0010
,  // measure 8
0000
0000
1001
0000
1100
0000
0000
1000
,  // measure 9
0100
0000
0010
0000
0001
0000
0010
0100
,  // measure 10
0000
0000
1001
0000
0011
0000
0000
0001
,  // measure 11
0010
0000
0100
0000
1000
0000
0010
0100
,  // measure 12
0000
0000
1001
0000
1010
0000
0000
0001
,  // measure 13
1000
0001
0100
0000
0001
0000
0100
0010
,  // measure 14
0000
0000
1001
0000
0101
0000
0000
1000
,  // measure 15
0001
1000
0100
0000
0010
0000
0001
0200
,  // measure 16
0000
0010
0301
0010
,  // measure 17
0100
0000
1000
0000
0100
0000
0100
0100
,  // measure 18
0000
0010
0010
0000
1001
0000
0100
0000
,  // measure 19
2100
0000
0001
0000
3100
0000
0010
0002
,  // measure 20
0000
0010
0103
0010
,  // measure 21
1000
0000
0001
0000
1000
0000
1000
1000
,  // measure 22
0000
0100
0100
0000
1001
0000
0100
0000
,  // measure 23
0012
0000
1000
0000
0103
0000
0010
1000
,  // measure 24
0100
1001
0100
1001
,  // measure 25
0010
0000
0011
0000
0100
0000
1000
0100
,  // measure 26
0000
0010
0002
0000
0010
0000
0103
0000
,  // measure 27
2010
0000
0100
0000
3010
0000
0100
0001
,  // measure 28
0010
1001
0100
1001
,  // measure 29
0100
0000
1100
0000
1001
0000
0001
1000
,  // measure 30
0000
0100
0020
0000
0001
0000
0031
0000
,  // measure 31
1000
0000
0000
1000
0000
0000
1000
0000
0001
0000
0000
0001
0000
0000
0001
0000
,  // measure 32
2002
0000
0000
0000
,  // measure 33
3003
0000
1001
0000
1100
0000
0000
1000
,  // measure 34
0100
0000
0010
0000
0001
0000
0010
0100
,  // measure 35
0000
0000
1001
0000
0011
0000
0000
0001
,  // measure 36
0010
0000
0100
0000
1000
0000
0010
0100
,  // measure 37
0000
0000
1001
0000
1010
0000
0000
0001
,  // measure 38
1000
0001
0100
0000
0001
0000
0100
0010
,  // measure 39
0000
0000
1001
0000
0101
0000
0000
1000
,  // measure 40
0001
1000
0100
0000
0010
0000
0001
0100
,  // measure 41
0010
0000
1001
0000
0110
0000
1000
0010
,  // measure 42
0100
0000
0001
0010
0100
0000
1000
0010
,  // measure 43
1000
0000
0110
0000
1001
0000
0001
0010
,  // measure 44
0100
0000
1000
0100
0010
0000
0001
0100
,  // measure 45
0001
0000
1001
0000
0110
0000
1000
0001
,  // measure 46
0010
0000
0100
0000
0010
0001
0010
0001
,  // measure 47
0000
0000
1001
0000
1001
0000
0000
0100
,  // measure 48
0010
0100
0010
0000
0001
0100
0010
1000
,  // measure 49
2002
0000
0000
0000
,  // measure 50
3003
0000
0000
0000
;

//---------------dance-single - ----------------
#NOTES:
     dance-single:
     :
     Hard:
     8:
     0.513170,0.504820,0.478250,0.159417,0.021256,338.000000,293.000000,45.000000,15.000000,0.000000,0.000000,0.513170,0.504820,0.478250,0.159417,0.021256,338.000000,293.000000,45.000000,15.000000,0.000000,0.000000:
// measure 0
0000
0000
0000
0000
,  // measure 1
0000
0000
0000
0000
,  // measure 2
0000
0000
0000
0000
,  // measure 3
0000
0000
0000
0000
,  // measure 4
1000
0100
1000
0000
0010
0000
0000
0000
0101
0000
0000
0000
0100
0000
0010
0000
,  // measure 5
1000
0000
0100
0010
0001
0010
0100
1000
,  // measure 6
0010
0100
0010
0000
0001
0000
0000
0000
0110
0000
0000
0000
1000
0000
0100
0000
,  // measure 7
0001
1000
0100
0001
0010
0100
1000
0100
,  // measure 8
1001
1000
1100
0000
0101
0000
0001
0100
,  // measure 9
0010
0010
1000
0100
0010
0010
0001
1001
,  // measure 10
0000
1000
0110
0000
0011
0000
0001
1000
,  // measure 11
0100
0100
1000
0001
0010
0100
1000
0011
,  // measure 12
0000
1000
0011
0000
1100
0000
0001
0100
,  // measure 13
0010
0010
1000
0100
0010
0001
0010
1100
,  // measure 14
0000
0010
0101
0000
1010
0000
0001
1000
,  // measure 15
0100
0100
0010
0001
0100
0100
0100
0020
,  // measure 16
1000
0000
0100
0000
1030
0100
0001
0000
,  // measure 17
0110
0000
1000
0100
0100
0010
0100
2000
,  // measure 18
0000
3010
0100
0000
0001
0010
0100
0000
,  // measure 19
1000
0010
0100
0010
1000
0001
0010
0200
,  // measure 20
1000
0000
1000
0000
1300
0010
0100
0000
,  // measure 21
1001
0000
0100
1000
0010
0100
0010
2000
,  // measure 22
0000
3001
0010
0000
0100
0010
0001
0000
,  // measure 23
1000
0001
0100
0010
0100
0001
1000
0100
,  // measure 24
0020
0001
0001
0031
0000
0100
0010
0000
,  // measure 25
0100
0010
1010
0000
0010
0100
0101
0000
,  // measure 26
1000
0001
0010
0001
0010
0100
1000
0100
,  // measure 27
0010
0001
0100
1000
0100
0001
0010
0100
,  // measure 28
2000
0000
0010
3020
0000
0100
0130
0000
,  // measure 29
0001
0010
0100
1000
1000
0100
0100
0020
,  // measure 30
0000
0031
1000
0000
0100
0010
0100
0000
,  // measure 31
2000
0000
0000
3100
0000
0000
0020
0000
0032
0000
0000
0103
0000
0000
0010
0000
,  // measure 32
2002
0000
0000
0000
0000
0000
3003
0100
,  // measure 33
1001
1000
1100
0000
0101
0000
0001
0100
,  // measure 34
0010
0010
1000
0100
0010
0010
0001
1001
,  // measure 35
0000
1000
0110
0000
0011
0000
0001
1000
,  // measure 36
0100
0100
1000
0001
0010
0100
1000
0011
,  // measure 37
0000
1000
0011
0000
1100
0000
0001
0100
,  // measure 38
0010
0010
1000
0100
0010
0001
0010
1100
,  // measure 39
0000
0010
0101
0000
1010
0000
0001
1000
,  // measure 40
0100
0100
0010
0001
0100
0100
0100
0010
,  // measure 41
1010
1000
1001
0000
0110
0000
1000
0100
,  // measure 42
0010
0010
0100
1000
0010
0100
0001
0110
,  // measure 43
0000
1000
1100
0000
1010
0000
0100
0001
,  // measure 44
0010
0010
0100
1000
0100
0010
0010
0110
,  // measure 45
0000
0001
0011
0000
0110
0000
1000
0001
,  // measure 46
0010
0100
0010
0001
1000
0010
0100
0101
,  // measure 47
0000
1000
0011
0000
0101
0000
1000
0100
,  // measure 48
0010
0010
0100
0010
0001
0010
0100
1100
,  // measure 49
2002
0000
0000
0000
,  // measure 50
3003
0000
0000
0000
;
