#VERSION:0.83;
#TITLE:Robocybia;
#SUBTITLE:;
#ARTIST:Dave Phaneuf;
#TITLETRANSLIT:;
#SUBTITLETRANSLIT:;
#ARTISTTRANSLIT:;
#GENRE:;
#ORIGIN:;
#CREDIT:;
#BANNER:Robocybia Bn.png;
#BACKGROUND:robocy bg.png;
#PREVIEWVID:;
#JACKET:;
#CDIMAGE:;
#DISCIMAGE:;
#LYRICSPATH:;
#CDTITLE:;
#MUSIC:Robocybia.mp3;
#OFFSET:-0.050000;
#SAMPLESTART:19.875000;
#SAMPLELENGTH:12.000000;
#SELECTABLE:YES;
#BPMS:0.000=145.000;
#STOPS:;
#DELAYS:;
#WARPS:;
#TIMESIGNATURES:0.000=4=4;
#TICKCOUNTS:0.000=4;
#COMBOS:0.000=1;
#SPEEDS:0.000=1.000=0.000=0;
#SCROLLS:0.000=1.000;
#FAKES:;
#LABELS:0.000=Song Start;
#BGCHANGES:;
#KEYSOUNDS:;
#ATTACKS:
;

//---------------dance-single - ----------------
#NOTEDATA:;
#CHARTNAME:;
#STEPSTYPE:dance-single;
#DESCRIPTION:;
#CHARTSTYLE:;
#DIFFICULTY:Easy;
#METER:4;
#RADARVALUES:0.315554,0.393792,0.281280,0.033092,0.000000,267.000000,233.000000,34.000000,4.000000,0.000000,0.000000,0.000000,0.000000,0.000000,0.315554,0.393792,0.281280,0.033092,0.000000,267.000000,233.000000,34.000000,4.000000,0.000000,0.000000,0.000000,0.000000,0.000000;
#CREDIT:;
#NOTES:
// measure 0
0000
0000
0000
0000
,  // measure 1
0000
0000
0000
0000
,  // measure 2
0000
0000
0000
0000
,  // measure 3
0000
0000
0000
0000
,  // measure 4
0010
1000
0010
1001
,  // measure 5
0001
0100
0001
1001
,  // measure 6
0001
0010
0001
1001
,  // measure 7
1000
0100
1000
1001
,  // measure 8
1000
0001
0100
0101
,  // measure 9
0001
1000
0010
1010
,  // measure 10
0001
1000
0100
0110
,  // measure 11
1001
1000
1100
0101
,  // measure 12
1001
1000
0010
0010
,  // measure 13
0100
0001
0010
0010
,  // measure 14
0100
1000
0010
0010
,  // measure 15
0100
0001
0010
0010
,  // measure 16
0001
1000
0100
0100
,  // measure 17
0001
1000
0100
0100
,  // measure 18
1000
0001
0010
0010
,  // measure 19
1001
0000
0000
0000
,  // measure 20
1100
1000
0000
0010
,  // measure 21
0001
0010
0100
1000
,  // measure 22
0011
0010
0000
0001
,  // measure 23
1000
0100
0001
0001
,  // measure 24
1010
0010
0000
0100
,  // measure 25
0010
0001
0100
0001
,  // measure 26
1000
1001
0000
0000
,  // measure 27
1000
1000
0001
0001
,  // measure 28
0020
0000
0000
0000
,  // measure 29
0032
0000
0000
0000
,  // measure 30
2003
0000
0000
0000
,  // measure 31
3200
0000
0000
0000
,  // measure 32
0310
0000
1000
0000
,  // measure 33
0010
0000
1000
0000
,  // measure 34
0001
0000
0100
0000
,  // measure 35
0001
0000
0100
0100
,  // measure 36
1001
1000
0100
0100
,  // measure 37
0001
0100
1000
1000
,  // measure 38
0001
1000
0010
0010
,  // measure 39
0001
1000
0001
0001
,  // measure 40
0100
0001
1000
1000
,  // measure 41
0100
0010
0001
0001
,  // measure 42
0010
0100
1000
1000
,  // measure 43
0100
0001
0010
0010
,  // measure 44
1000
0100
1100
0101
,  // measure 45
0100
0001
1010
0011
,  // measure 46
0010
1000
0101
1100
,  // measure 47
0100
0001
1010
0011
,  // measure 48
0010
1000
0100
0001
,  // measure 49
0100
1000
0010
0001
,  // measure 50
0010
0100
1000
0001
,  // measure 51
1001
0000
0110
0000
0100
0100
0100
0000
,  // measure 52
1001
1000
0100
0001
,  // measure 53
0100
0000
0010
0010
,  // measure 54
1001
1000
0001
0010
,  // measure 55
0100
0100
1000
0010
,  // measure 56
0001
0100
0001
1000
,  // measure 57
1001
0000
1000
0001
,  // measure 58
0010
0001
0010
1000
,  // measure 59
1001
1000
1001
0001
,  // measure 60
1001
0010
1000
0100
,  // measure 61
1000
0000
0001
0000
0100
0000
1000
0001
,  // measure 62
0100
0010
0100
0001
,  // measure 63
0100
0000
1000
0000
0001
0000
1000
0001
,  // measure 64
0010
1000
0100
0001
,  // measure 65
0100
0000
0001
0000
1000
0000
0010
1000
,  // measure 66
0100
0001
0100
0010
,  // measure 67
0100
0000
0001
0000
0010
1000
0100
0000
,  // measure 68
1001
0000
0000
0000
;

//---------------dance-single - ----------------
#NOTEDATA:;
#CHARTNAME:;
#STEPSTYPE:dance-single;
#DESCRIPTION:;
#CHARTSTYLE:;
#DIFFICULTY:Medium;
#METER:7;
#RADARVALUES:0.395919,0.421920,0.124094,0.024819,0.028955,335.000000,320.000000,15.000000,3.000000,0.000000,0.000000,0.000000,0.000000,0.000000,0.395919,0.421920,0.124094,0.024819,0.028955,335.000000,320.000000,15.000000,3.000000,0.000000,0.000000,0.000000,0.000000,0.000000;
#CREDIT:;
#NOTES:
// measure 0
0000
0000
0000
0000
,  // measure 1
0000
0000
0000
0000
,  // measure 2
0000
0000
0000
0000
,  // measure 3
0000
0000
0000
0000
,  // measure 4
1000
0000
0000
0000
0010
0000
0000
0000
0100
0000
0000
0010
1000
0000
0000
0000
,  // measure 5
0001
0000
0000
0000
0010
0000
0000
0000
0100
0000
0000
0010
0001
0000
0000
0000
,  // measure 6
1000
0000
0000
0000
0100
0000
0000
0000
0010
0000
0000
0001
0100
0000
0000
0000
,  // measure 7
0001
0000
0000
0000
0010
0000
0000
0000
0100
0000
0000
1000
0010
0000
0000
0000
,  // measure 8
1001
0000
0000
0000
0100
0000
0000
0000
1000
0000
0000
0001
0010
0000
0100
0000
,  // measure 9
0010
0000
0000
0000
0001
0000
0000
0000
0100
0000
0000
0001
0010
0000
0100
0000
,  // measure 10
1000
0000
0000
0000
0010
0000
0000
0000
0100
0000
0000
0001
0010
0000
0100
0000
,  // measure 11
1000
0000
1000
0000
1000
0010
0100
0001
,  // measure 12
1000
0000
0010
0000
0100
0000
0001
0100
,  // measure 13
1000
0000
0100
0000
0010
1000
0100
0000
,  // measure 14
1001
0000
0100
0000
0010
0000
1000
0010
,  // measure 15
0100
0000
0001
0000
0010
0100
1000
0000
,  // measure 16
1001
0000
1000
0000
0001
0000
0010
0001
,  // measure 17
1000
0110
1001
0110
,  // measure 18
0010
1000
0100
0000
1000
0001
0100
0000
,  // measure 19
1001
0000
0000
0000
,  // measure 20
0100
1000
0010
0000
1000
0000
0010
0000
,  // measure 21
1000
0100
0001
0100
1000
0000
0001
0000
,  // measure 22
0100
0010
0100
0000
0010
0000
1000
0000
,  // measure 23
0001
0100
1000
0100
0001
0000
1000
0000
,  // measure 24
0001
0010
0100
0000
1000
0000
0010
0000
,  // measure 25
1000
0100
0001
0100
1000
0000
0110
0000
,  // measure 26
1001
0000
0001
0010
0100
0000
0100
0000
,  // measure 27
1000
0000
0001
0000
1000
0001
1000
0001
,  // measure 28
2000
0000
0000
0000
0000
0000
0000
3010
,  // measure 29
0200
0000
0000
0000
,  // measure 30
0302
0000
0000
0000
,  // measure 31
1003
0010
0100
0000
0001
0010
0100
0000
,  // measure 32
1000
0100
0010
0100
,  // measure 33
1000
0001
0100
0001
,  // measure 34
0010
0100
0010
0001
,  // measure 35
0010
0001
1000
0001
,  // measure 36
1001
0000
0100
0000
1000
0001
0100
0000
,  // measure 37
0010
0000
1000
0000
0010
0100
0001
0000
,  // measure 38
1000
0000
0010
0000
0001
1000
0010
0000
,  // measure 39
0100
0000
0001
0000
0100
0010
1000
0000
,  // measure 40
0001
0000
0010
0000
0100
1000
0010
0000
,  // measure 41
0100
0000
0001
0000
0010
0100
1000
0000
,  // measure 42
0010
0000
0100
0000
0001
0010
0100
0000
,  // measure 43
1000
0000
0100
0000
0010
0001
0100
0000
,  // measure 44
0010
0000
1000
0100
0001
0100
1000
0000
,  // measure 45
0001
0000
0100
1000
0010
1000
0100
0000
,  // measure 46
0100
0000
1000
0010
0001
0010
1000
0000
,  // measure 47
1000
0000
0100
0001
0010
0001
0100
0000
,  // measure 48
1001
1000
1100
1000
,  // measure 49
1001
0001
0101
0001
,  // measure 50
1000
0010
0100
0000
0001
0010
0100
0000
,  // measure 51
1000
0010
0100
0001
0010
0100
1000
0010
,  // measure 52
0100
0000
0010
0000
1000
0100
0010
0000
,  // measure 53
0001
0000
0010
0000
0100
1000
0010
0000
,  // measure 54
1000
0000
0001
0000
0100
0001
0010
0000
,  // measure 55
0100
0000
1000
0000
0100
0001
0010
0000
,  // measure 56
1000
0000
0001
0000
0010
0100
1000
0000
,  // measure 57
0001
0000
0100
0000
0010
0100
0001
0000
,  // measure 58
0100
0000
0001
0000
0010
0001
1000
0000
,  // measure 59
0100
0000
1000
0000
0100
0001
0100
0000
,  // measure 60
0100
0000
1000
0001
0000
0001
0010
0000
,  // measure 61
0010
0000
0100
1000
0000
1000
0100
0000
,  // measure 62
0100
0000
0100
0001
0000
0001
0010
0000
,  // measure 63
0100
0000
0001
1000
0000
1000
0001
0000
,  // measure 64
0010
0000
0100
0000
1000
0100
1000
0000
,  // measure 65
0100
0001
0100
0001
0100
0001
0100
0000
,  // measure 66
1000
0001
1000
0100
,  // measure 67
0010
1000
0100
0001
0100
1000
0010
0000
,  // measure 68
1001
0000
0000
0000
;

//---------------dance-single - ----------------
#NOTEDATA:;
#CHARTNAME:;
#STEPSTYPE:dance-single;
#DESCRIPTION:;
#CHARTSTYLE:;
#DIFFICULTY:Hard;
#METER:9;
#RADARVALUES:0.576742,0.675072,0.132367,0.033092,0.475694,488.000000,472.000000,16.000000,4.000000,0.000000,0.000000,0.000000,0.000000,0.000000,0.576742,0.675072,0.132367,0.033092,0.475694,488.000000,472.000000,16.000000,4.000000,0.000000,0.000000,0.000000,0.000000,0.000000;
#CREDIT:;
#NOTES:
// measure 0
0000
0000
0000
0000
,  // measure 1
0000
0000
0000
0000
,  // measure 2
0000
0000
0000
0000
,  // measure 3
0000
0000
0000
0000
,  // measure 4
1000
0000
0000
0000
0001
0000
0000
0000
1000
0010
0000
0100
0001
0000
0000
0000
,  // measure 5
0001
0000
0000
0000
1000
0000
0000
0000
0001
0010
0000
0100
1000
0000
0000
0000
,  // measure 6
1000
0000
0010
0000
0100
0000
0000
0000
0001
0100
0000
0010
1000
0000
0000
0000
,  // measure 7
0001
0000
0010
0000
0100
0000
0000
0000
1000
0010
0000
0100
0001
0000
0000
0000
,  // measure 8
1000
0100
0000
1000
0100
0000
1000
0010
0000
0100
0010
0000
0001
0000
0100
0000
,  // measure 9
0001
0100
0000
0001
0100
0000
0001
0010
0000
0100
0010
0000
1000
0000
0100
0000
,  // measure 10
1000
0100
0000
0010
0001
0000
1000
0100
0000
0010
0001
0000
1000
0000
0010
0000
,  // measure 11
0001
0100
0001
0000
1000
0001
1000
0000
0100
1000
0100
0000
0001
1000
0001
1000
,  // measure 12
0001
0000
0010
0100
1000
0001
0100
0001
,  // measure 13
1000
0000
0010
0100
0001
0000
1000
0000
,  // measure 14
1001
0000
1000
0010
0100
0001
1000
0100
,  // measure 15
1000
0000
0001
0010
0100
0000
0110
0000
,  // measure 16
1001
0000
0010
0100
1000
0010
1000
0100
,  // measure 17
0001
0000
1000
0010
0100
0000
0110
0000
,  // measure 18
0001
0010
0100
1000
0100
0010
0001
0010
,  // measure 19
0100
0000
0000
0000
,  // measure 20
0100
0010
0001
0000
0110
0000
1000
0100
,  // measure 21
0010
0100
1000
0001
0100
0010
1000
0100
,  // measure 22
1000
0010
0100
0000
1100
0000
0110
0000
,  // measure 23
1001
0000
0010
1000
0100
0000
0110
0000
,  // measure 24
0010
0001
0100
0000
0010
0000
1000
0100
,  // measure 25
0010
0001
0100
0001
1000
0100
0010
0001
,  // measure 26
0100
0001
0010
0000
0100
0000
0110
0000
,  // measure 27
1000
0001
0100
0000
0001
1000
0100
0000
1000
0001
0010
0000
0001
1000
0010
0000
,  // measure 28
0200
0000
0000
0000
0000
0000
0000
1300
,  // measure 29
0002
1000
0000
1000
,  // measure 30
0023
0100
0000
0130
,  // measure 31
1000
0010
0100
0001
0100
0010
0100
0010
,  // measure 32
2000
0100
0100
0100
,  // measure 33
0010
0010
0010
0010
,  // measure 34
0001
0001
0001
0001
,  // measure 35
0100
0000
0001
0000
0010
0000
3100
0010
,  // measure 36
0001
0000
0000
0010
0100
0000
0000
1000
0010
0000
0100
0000
0001
0000
0000
0000
,  // measure 37
1000
0000
0000
0010
0100
0000
0000
0001
0010
0000
0100
0000
1000
0000
0000
0000
,  // measure 38
0001
0000
0000
0100
0010
0000
0000
1000
0010
0000
0100
0000
0001
0000
0000
0000
,  // measure 39
1000
0000
0000
0100
0010
0000
0000
0001
0010
0000
0100
0000
0001
0000
0000
0000
,  // measure 40
1000
0000
0000
0100
1000
0000
0000
0100
0010
0000
0001
0000
0100
0000
0010
0000
,  // measure 41
1000
0000
0000
0010
1000
0000
0000
0010
0100
0000
0010
0000
1000
0000
1000
0000
,  // measure 42
0001
0000
0000
0100
0001
0000
0000
0100
0010
0000
1000
0000
0100
0000
0010
0000
,  // measure 43
0001
0000
0000
0010
0001
0000
0000
0010
0100
0000
0010
0000
0001
0000
0001
0000
,  // measure 44
1000
0100
0000
1000
0001
0000
1000
0100
0000
1000
0000
0001
0100
0000
0000
0000
,  // measure 45
0001
0100
0000
0001
1000
0000
0001
0100
0000
0001
0000
1000
0100
0000
0000
0000
,  // measure 46
1000
0010
0000
1000
0001
0000
1000
0010
0000
1000
0000
0001
0010
0000
0000
0000
,  // measure 47
0001
0010
0000
0001
1000
0000
0001
0010
0000
0001
0000
1000
0010
0000
0000
0000
,  // measure 48
1000
0100
0000
0010
0001
0000
1000
0100
0000
0010
0001
0000
1000
0000
1000
0000
,  // measure 49
0001
0100
0000
0010
1000
0000
0001
0100
0000
0010
1000
0000
0001
0000
0001
0000
,  // measure 50
1000
0010
0000
0100
0001
0000
1000
0010
0000
0100
0001
0000
1000
0000
1000
0000
,  // measure 51
0001
0010
0000
0100
1000
0000
0001
0010
0000
0100
1000
0000
0001
0100
0001
1000
,  // measure 52
0100
0000
1000
0001
0010
0100
1000
0010
,  // measure 53
1000
0100
1000
0001
0010
0100
1000
0000
,  // measure 54
1001
0000
0001
0010
0100
1000
0010
0100
,  // measure 55
0001
0010
0100
0000
0110
0000
0110
0000
,  // measure 56
1001
0000
1000
0100
1000
0010
1000
0100
,  // measure 57
0001
0100
1000
0010
0100
0000
0110
0000
,  // measure 58
1000
0100
0001
0100
1000
0100
0001
0100
,  // measure 59
0010
0000
0010
0000
0010
0010
0010
0010
,  // measure 60
1000
0100
0000
0001
0100
0000
1000
0100
0000
0001
0100
0000
0010
0000
0000
0000
,  // measure 61
0001
0100
0000
1000
0100
0000
0001
0100
0000
1000
0100
0000
0010
0000
0000
0000
,  // measure 62
1000
0010
0000
0001
0010
0000
1000
0010
0000
0001
0010
0000
0100
0000
0000
0000
,  // measure 63
0001
0010
0000
1000
0010
0000
0001
0010
0000
1000
0010
0000
0100
0000
0000
0000
,  // measure 64
1000
0100
0000
0100
1000
0000
1000
0100
0000
0100
1000
0000
1000
0000
0001
0000
,  // measure 65
0001
0100
0000
0100
0001
0000
0001
0100
0000
0100
0001
0000
0001
0000
1000
0000
,  // measure 66
1000
0010
0000
0100
0001
0000
0010
0100
0000
1000
0001
0000
0100
0000
0010
0000
,  // measure 67
1000
0010
1000
0000
0001
0100
0001
0000
1000
0100
1000
0000
0001
0010
0001
0000
,  // measure 68
1001
0000
0000
0000
;
