#TITLE:Robocybia;
#SUBTITLE:(Trance Mix);
#ARTIST:Dave Phaneuf;
#TITLETRANSLIT:;
#SUBTITLETRANSLIT:;
#ARTISTTRANSLIT:;
#GENRE:;
#CREDIT:;
#BANNER:robocytr bn.png;
#BACKGROUND:robocytr bg.png;
#LYRICSPATH:;
#CDTITLE:;
#MUSIC:Robocybia (Trance).mp3;
#OFFSET:-0.550000;
#SAMPLESTART:9.365000;
#SAMPLELENGTH:12.000000;
#SELECTABLE:YES;
#BPMS:0.000000=129.000000
;
#STOPS:
;
#BGCHANGES:;
#KEYSOUNDS:;
#ATTACKS:;

//---------------dance-single - ----------------
#NOTES:
     dance-single:
     :
     Easy:
     2:
     0.211758,0.261766,0.049742,0.039793,0.000000,149.000000,144.000000,5.000000,4.000000,0.000000,0.000000,0.211758,0.261766,0.049742,0.039793,0.000000,149.000000,144.000000,5.000000,4.000000,0.000000,0.000000:
// measure 0
0000
0000
0000
0000
,  // measure 1
0000
0000
0000
0000
,  // measure 2
0000
0000
0000
1000
,  // measure 3
0000
0001
0000
1000
,  // measure 4
0000
0001
0000
0010
,  // measure 5
0000
1000
0000
0100
,  // measure 6
0000
1000
0000
0001
,  // measure 7
0000
0010
0000
0001
,  // measure 8
0000
0100
0001
1000
,  // measure 9
0000
0100
0000
0010
,  // measure 10
0000
0001
1000
0010
,  // measure 11
0000
0100
0000
1001
,  // measure 12
0000
0000
0000
1000
,  // measure 13
0010
0100
0000
0001
,  // measure 14
0000
1000
0000
0001
,  // measure 15
0010
0100
0000
1000
,  // measure 16
0000
0001
0000
1000
,  // measure 17
1000
0001
0000
1000
,  // measure 18
0000
0001
0000
1000
,  // measure 19
1000
0001
0100
0010
,  // measure 20
0001
0010
1000
1001
,  // measure 21
0100
0000
0100
0000
,  // measure 22
0001
0000
1000
0010
,  // measure 23
0100
0000
0001
0000
,  // measure 24
0100
0000
0001
1000
,  // measure 25
0010
0100
0100
0001
,  // measure 26
0010
0100
0100
1000
,  // measure 27
0001
0100
0100
0001
,  // measure 28
1000
0010
0010
1001
,  // measure 29
0010
0000
0100
0000
,  // measure 30
1000
0000
0001
0000
,  // measure 31
0100
0001
0100
0000
,  // measure 32
1000
0100
1000
0100
,  // measure 33
0100
0001
0100
1000
,  // measure 34
0100
0010
0001
1000
,  // measure 35
1000
0001
1000
0100
,  // measure 36
0100
0001
0010
2001
,  // measure 37
0000
0000
0000
3002
,  // measure 38
0000
0000
0000
0023
,  // measure 39
0000
0000
0000
0130
,  // measure 40
0010
1000
0100
1000
,  // measure 41
1000
0001
0100
0001
,  // measure 42
0001
0100
1000
0100
,  // measure 43
0010
0001
0001
1000
,  // measure 44
1000
0010
0100
1001
,  // measure 45
1000
0000
0001
0000
,  // measure 46
0010
0000
0100
0000
,  // measure 47
1000
0000
0001
0010
,  // measure 48
0100
0000
1000
0010
,  // measure 49
0010
0100
0001
0010
,  // measure 50
0010
0100
1000
0001
,  // measure 51
0010
0000
0100
0000
0100
0100
0200
0000
,  // measure 52
0000
0000
0000
0000
0000
0300
0000
0000
;

//---------------dance-single - ----------------
#NOTES:
     dance-single:
     :
     Medium:
     6:
     0.336823,0.418826,0.069639,0.039793,0.000000,237.000000,230.000000,7.000000,4.000000,0.000000,0.000000,0.336823,0.418826,0.069639,0.039793,0.000000,237.000000,230.000000,7.000000,4.000000,0.000000,0.000000:
// measure 0
0000
0000
0000
0000
,  // measure 1
0000
0000
0000
0000
,  // measure 2
0000
0000
0000
0010
,  // measure 3
1000
0001
0100
0000
0010
1000
0100
0000
,  // measure 4
0010
0001
0100
0000
0100
0000
1001
0000
,  // measure 5
0010
0000
1000
0100
0001
0000
0100
0000
,  // measure 6
1000
0010
0110
1001
,  // measure 7
0000
0000
1000
0000
0001
0010
0100
0000
,  // measure 8
1000
0100
0100
0001
,  // measure 9
0010
0000
0001
0000
0100
1000
0001
0000
,  // measure 10
0100
0000
0010
0000
0010
0000
0001
0010
,  // measure 11
0100
0000
1000
0010
0100
0000
1001
0000
,  // measure 12
0000
0000
0000
0000
0000
0000
1001
0100
,  // measure 13
1000
0001
0001
0010
,  // measure 14
1000
0000
0001
0001
1000
0000
0100
0000
,  // measure 15
0001
0000
0100
0000
1000
0000
1000
1000
,  // measure 16
0001
0010
0100
1001
,  // measure 17
1000
0010
0001
0000
0010
0000
0100
0000
,  // measure 18
0100
0000
1000
0001
1001
0000
1000
0010
,  // measure 19
0100
0001
0010
0100
1000
0000
1000
0100
,  // measure 20
0001
0100
1000
0001
0100
1000
0100
0000
,  // measure 21
0001
0010
0010
1000
,  // measure 22
0001
0010
0100
1000
,  // measure 23
0100
0001
0001
0100
,  // measure 24
0001
1000
1000
0010
,  // measure 25
0001
0010
0010
0100
,  // measure 26
0001
1000
1000
0100
,  // measure 27
0001
0100
0100
1000
,  // measure 28
0010
0000
1000
0000
1000
0000
0010
0100
,  // measure 29
0001
0010
0100
0000
0100
0000
0100
1000
,  // measure 30
0010
1000
0100
0000
0100
0000
0100
0001
,  // measure 31
0010
0001
0100
0000
0100
0000
0100
0001
,  // measure 32
1000
0001
0100
0000
0100
0000
0001
1000
,  // measure 33
0010
1000
0001
0000
0001
0000
0010
0100
,  // measure 34
1000
0100
0010
0000
0010
0000
0100
0001
,  // measure 35
1000
0001
0100
0000
0100
0000
0001
1000
,  // measure 36
0010
1000
0001
0000
0001
0000
0020
0000
,  // measure 37
0000
0000
0000
0000
0000
1030
0200
0000
,  // measure 38
0000
0000
0000
0320
,  // measure 39
0000
0000
0000
0000
0000
0000
1030
0010
,  // measure 40
0100
0001
1000
0010
0100
0001
0010
0000
,  // measure 41
0000
0010
0000
0100
,  // measure 42
0000
0100
0000
1000
,  // measure 43
0000
1000
0000
0001
,  // measure 44
0100
0000
1000
0100
0001
0100
1000
0001
,  // measure 45
0000
0010
0000
0100
0000
1000
0010
0000
,  // measure 46
0100
0000
0001
0000
0010
0000
0100
1000
,  // measure 47
0000
0010
0000
0100
0000
0000
0001
0010
,  // measure 48
0100
1000
0001
0010
0100
1000
0010
1000
,  // measure 49
0000
0100
0000
0001
1000
0010
0000
0100
,  // measure 50
0000
0001
0000
0100
1000
0100
0000
0001
,  // measure 51
0000
0100
0000
0010
0001
0100
2000
0000
,  // measure 52
0000
0000
0000
0000
0000
3000
0000
0000
;

//---------------dance-single - ----------------
#NOTES:
     dance-single:
     :
     Hard:
     9:
     0.558530,0.706769,0.099484,0.039793,0.621773,393.000000,383.000000,10.000000,4.000000,0.000000,0.000000,0.558530,0.706769,0.099484,0.039793,0.621773,393.000000,383.000000,10.000000,4.000000,0.000000,0.000000:
// measure 0
0000
0000
0000
0000
,  // measure 1
0000
0000
0000
0000
,  // measure 2
0000
0000
0000
0000
0000
0000
0000
0010
,  // measure 3
0000
0000
1000
0000
0000
0001
0000
0010
0100
0000
1000
0000
0000
0000
0100
0000
,  // measure 4
0000
0000
1000
0000
0000
0001
0000
0100
0010
0000
1000
0000
0000
0000
0001
0000
,  // measure 5
0000
0000
0010
0100
0000
0000
1000
0000
0000
0000
0010
0100
0000
0000
0001
0000
,  // measure 6
0000
0000
0010
0100
0000
0000
1000
0000
0000
0000
0100
0010
0000
0000
0001
0000
,  // measure 7
0000
0000
1000
0100
0000
0000
1000
0000
0000
0000
0001
0100
0000
0000
0001
0000
,  // measure 8
0000
0000
1000
0010
0000
0000
1000
0000
0000
0000
0001
0010
0001
0000
1000
0000
,  // measure 9
0010
0000
0100
0001
0000
0000
1000
0000
0100
0000
1000
0001
0000
0000
0100
0000
,  // measure 10
0010
0000
1000
0010
0000
0000
0100
0000
0001
0000
0010
0100
0000
0000
1000
0000
,  // measure 11
0010
0000
0100
0001
0000
0000
1000
0000
0100
0000
0010
0001
0010
0000
0000
0000
,  // measure 12
0000
0000
0000
0000
0000
0000
0010
1000
,  // measure 13
0100
1000
0000
0001
0000
1000
0000
0100
1000
0000
0001
0000
0010
0000
0001
0000
,  // measure 14
0100
0001
0000
1000
0000
0001
0000
0100
0001
0000
1000
0000
0100
0000
1000
0000
,  // measure 15
0010
1000
0000
0001
0000
1000
0000
0010
1000
0000
0001
0000
0100
0000
0001
0000
,  // measure 16
0010
0001
0000
1000
0000
0001
0000
0010
0001
0000
1000
0000
0100
0000
0010
0000
,  // measure 17
0001
0100
0000
0010
0000
1000
0000
0100
0010
0000
0001
0000
0010
0000
0100
0000
,  // measure 18
1000
0010
0000
0100
0000
0001
0000
0010
0100
0000
1000
0000
0001
0000
0100
0000
,  // measure 19
0010
1000
0000
0100
0000
0010
0000
0100
1000
0000
1000
0000
0001
0010
0100
1000
,  // measure 20
0001
1000
0010
0100
0001
0100
0010
1000
0001
1000
0100
0010
0001
0000
0000
0010
,  // measure 21
0100
0000
1000
0010
0100
0000
0000
0001
0010
0000
0100
1000
0010
0000
0000
0100
,  // measure 22
0001
0000
0010
0100
1000
0000
0000
0010
0100
0000
0001
0010
0100
0000
0000
1000
,  // measure 23
0010
0000
0100
0001
0010
0000
0000
0100
1000
0000
0010
0100
0001
0000
0000
0010
,  // measure 24
0100
0000
1000
0010
0100
0000
0000
0001
0010
0000
0100
1000
0010
0000
0000
0010
,  // measure 25
1000
0000
0100
0010
0001
0000
0000
0001
1000
0000
0010
1000
0100
0000
0000
0100
,  // measure 26
0010
0000
0001
0100
0010
0000
0000
0010
1000
0000
0001
0010
0100
0000
0000
0100
,  // measure 27
0010
0000
0001
0100
0010
0000
0000
0010
0100
0000
0001
1000
0010
0000
0000
0010
,  // measure 28
1000
0000
0100
0010
0001
0000
0000
1000
0010
0000
0000
0000
0010
0000
0000
1000
,  // measure 29
0100
0000
0010
0000
0001
0000
0100
0000
0101
0000
0000
0000
0010
0000
0000
0001
,  // measure 30
0100
0000
0010
0000
1000
0000
0100
0000
1100
0000
0000
0000
0010
0000
0000
1000
,  // measure 31
0100
0000
1000
0000
0010
0000
0001
0000
0011
0000
0000
0000
0010
0000
0000
0001
,  // measure 32
0100
0001
1000
0010
1010
0000
1000
0001
,  // measure 33
0101
0000
0001
1000
1100
0000
1000
0001
,  // measure 34
0011
0000
0001
1000
1010
0000
1000
0001
,  // measure 35
1001
0000
0010
0100
0110
0000
0001
0010
,  // measure 36
0100
0000
1000
0010
0000
0100
0000
0001
0010
0000
0100
0000
2000
0000
0000
0000
,  // measure 37
0000
0000
0000
0000
0000
3010
0200
0000
,  // measure 38
0000
0000
0000
0302
,  // measure 39
0000
0000
0000
0000
0000
0000
0013
0100
,  // measure 40
1000
0001
0100
1000
0100
0001
0010
0100
,  // measure 41
0000
0000
0100
1000
0000
0000
0001
0000
0100
0000
0010
1000
0000
0000
0100
0000
,  // measure 42
1000
0000
0001
0010
0000
0000
0100
0000
1000
0000
0010
0100
0000
0000
0001
0000
,  // measure 43
0010
0000
0100
1000
0000
0000
0001
0000
1000
0000
0100
0010
0000
0000
0100
0000
,  // measure 44
1000
0000
0010
0100
0000
0001
0000
0010
0100
0000
1000
0000
0001
0000
0001
0000
,  // measure 45
1000
0010
0000
0100
0000
0100
0000
0001
0010
0000
0100
0000
1000
0000
1000
0000
,  // measure 46
0001
0100
0000
0010
0000
0010
0000
1000
0100
0000
0010
0000
0001
0000
1000
0000
,  // measure 47
0001
0100
0000
0010
0000
1000
0000
0001
1000
0000
0100
0000
0010
0000
0001
0000
,  // measure 48
1000
0010
0000
0100
0000
0001
0000
1000
0001
0000
0010
0000
0100
0000
0000
1000
,  // measure 49
0010
0000
0010
0000
0100
0000
0000
0001
0010
0000
0010
0000
0100
0000
0000
1000
,  // measure 50
0001
0000
1000
0000
0001
0000
0000
1000
0010
0000
1000
0000
0001
0010
0001
0000
,  // measure 51
0100
0001
0100
0000
1000
0100
1000
0000
0010
1000
0010
0000
0200
0000
0000
0000
,  // measure 52
0000
0000
0000
0000
0000
0300
0000
0000
;
