#VERSION:0.83;
#TITLE:Robocybia;
#SUBTITLE:(Speed Mix);
#ARTIST:Dave Phaneuf;
#TITLETRANSLIT:;
#SUBTITLETRANSLIT:;
#ARTISTTRANSLIT:;
#GENRE:;
#ORIGIN:;
#CREDIT:;
#BANNER:Robocybia Speed Bn.png;
#BACKGROUND:robocyspeed bg.png;
#PREVIEWVID:;
#JACKET:;
#CDIMAGE:;
#DISCIMAGE:;
#LYRICSPATH:;
#CDTITLE:;
#MUSIC:Robocybia (Speed Mix).mp3;
#OFFSET:-0.050000;
#SAMPLESTART:26.670000;
#SAMPLELENGTH:12.000000;
#SELECTABLE:YES;
#BPMS:0.000=180.000;
#STOPS:;
#DELAYS:;
#WARPS:;
#TIMESIGNATURES:0.000=4=4;
#TICKCOUNTS:0.000=4;
#COMBOS:0.000=1;
#SPEEDS:0.000=1.000=0.000=0;
#SCROLLS:0.000=1.000;
#FAKES:;
#LABELS:0.000=Song Start;
#BGCHANGES:;
#KEYSOUNDS:;
#ATTACKS:
;

//---------------dance-single - ----------------
#NOTEDATA:;
#CHARTNAME:;
#STEPSTYPE:dance-single;
#DESCRIPTION:;
#CHARTSTYLE:;
#DIFFICULTY:Easy;
#METER:6;
#RADARVALUES:0.449456,0.548005,0.412616,0.060173,0.000000,366.000000,318.000000,48.000000,7.000000,0.000000,0.000000,0.000000,0.000000,0.000000,0.449456,0.548005,0.412616,0.060173,0.000000,366.000000,318.000000,48.000000,7.000000,0.000000,0.000000,0.000000,0.000000,0.000000;
#CREDIT:;
#NOTES:
// measure 0
0000
0000
0000
0000
,  // measure 1
0000
0000
0000
0000
,  // measure 2
0000
0000
0000
0000
,  // measure 3
0000
0000
0000
0000
,  // measure 4
0010
1000
0100
0100
,  // measure 5
0010
0001
0100
0100
,  // measure 6
0010
0010
1000
0001
,  // measure 7
0010
0010
0001
1000
,  // measure 8
0100
0100
0001
1000
,  // measure 9
0010
0010
0001
1000
,  // measure 10
0010
0010
0100
0001
,  // measure 11
1000
0000
1000
0000
0001
0010
0100
0000
,  // measure 12
1001
0000
0010
0100
,  // measure 13
0010
1000
0100
0001
,  // measure 14
1001
0000
0010
0100
,  // measure 15
0010
0001
0100
1000
,  // measure 16
1001
0000
0100
0010
,  // measure 17
0100
1000
0010
0001
,  // measure 18
1001
0000
0110
0000
,  // measure 19
0010
0010
0010
0000
0100
0100
0100
0000
,  // measure 20
1001
0100
1000
0001
,  // measure 21
0100
0010
0110
1001
,  // measure 22
1000
0010
0001
0100
,  // measure 23
0001
1000
0110
0110
,  // measure 24
1001
1000
0001
0010
,  // measure 25
0100
0100
0010
1000
,  // measure 26
1000
1000
0010
0000
0100
0100
0001
0000
,  // measure 27
1001
1000
0001
0001
,  // measure 28
1001
1000
0010
0100
,  // measure 29
0001
0001
0101
1100
,  // measure 30
1001
1000
0001
0100
,  // measure 31
1000
0001
1010
0011
,  // measure 32
1001
0100
0100
0010
,  // measure 33
0100
0100
0001
1000
,  // measure 34
0010
0010
0010
0000
0100
0100
0100
0000
,  // measure 35
0001
0000
1000
0000
0001
1000
0001
0000
,  // measure 36
0200
0000
0000
0000
0000
0000
0000
0310
,  // measure 37
2000
0000
0000
0000
,  // measure 38
3002
0000
0000
0000
,  // measure 39
0013
0100
1000
0000
0010
0100
0010
0000
,  // measure 40
0100
0001
1000
1000
,  // measure 41
0100
0001
1000
0010
,  // measure 42
0001
1000
0100
0100
,  // measure 43
0001
1000
0010
0100
,  // measure 44
1000
0100
0001
0100
,  // measure 45
0010
1000
0010
0001
,  // measure 46
0100
0001
0100
0010
,  // measure 47
0100
1000
0100
0010
,  // measure 48
1000
0100
0010
1001
,  // measure 49
1000
0001
0100
1001
,  // measure 50
1000
0010
0100
1001
,  // measure 51
1000
0010
0100
1001
,  // measure 52
0100
0010
0001
0100
,  // measure 53
0100
0010
0010
1000
,  // measure 54
0100
0001
0010
1000
,  // measure 55
0001
1000
0001
0001
,  // measure 56
0100
1000
0010
0001
,  // measure 57
0010
1000
0100
0001
,  // measure 58
0100
1000
0010
0001
,  // measure 59
0100
1000
0010
0110
,  // measure 60
1002
0000
0000
0000
0000
0000
0000
0013
,  // measure 61
0200
0000
0000
0000
,  // measure 62
2300
0000
0000
0000
,  // measure 63
3001
0010
0100
0000
1000
0010
0100
0000
,  // measure 64
0001
0010
0100
1000
,  // measure 65
0001
1000
0010
0100
,  // measure 66
0001
0100
0010
1000
,  // measure 67
0001
1000
0100
0010
,  // measure 68
1001
0010
1000
1000
,  // measure 69
0001
1000
0110
0110
,  // measure 70
1001
0001
0100
1000
,  // measure 71
0001
0001
0110
0110
,  // measure 72
1001
1000
0010
0100
,  // measure 73
0001
0010
0110
1100
,  // measure 74
1001
0010
1001
0100
,  // measure 75
1001
1000
0001
0110
,  // measure 76
1001
0010
1000
0100
,  // measure 77
1000
0010
0101
0110
,  // measure 78
1001
1000
0001
0001
,  // measure 79
0010
0100
1100
0110
,  // measure 80
1001
0000
0001
0010
0100
0000
1000
0000
,  // measure 81
1000
0010
0100
0000
1001
0000
0110
0000
,  // measure 82
1001
0000
0001
0010
0100
1000
0010
0000
,  // measure 83
0100
0000
0010
0000
1000
0100
0010
0001
,  // measure 84
0200
0000
0000
0000
,  // measure 85
0300
0000
0000
0000
;

//---------------dance-single - ----------------
#NOTEDATA:;
#CHARTNAME:;
#STEPSTYPE:dance-single;
#DESCRIPTION:;
#CHARTSTYLE:;
#DIFFICULTY:Medium;
#METER:7;
#RADARVALUES:0.474017,0.584539,0.240693,0.077365,0.000000,386.000000,358.000000,28.000000,9.000000,0.000000,0.000000,0.000000,0.000000,0.000000,0.474017,0.584539,0.240693,0.077365,0.000000,386.000000,358.000000,28.000000,9.000000,0.000000,0.000000,0.000000,0.000000,0.000000;
#CREDIT:;
#NOTES:
// measure 0
0000
0000
0000
0000
,  // measure 1
0000
0000
0000
0000
,  // measure 2
0000
0000
0000
0000
,  // measure 3
0000
0000
0000
0000
,  // measure 4
0010
0010
1000
0100
,  // measure 5
0010
0010
0001
0100
,  // measure 6
0010
0010
1000
0100
,  // measure 7
0010
0010
0001
0100
,  // measure 8
0010
0000
1000
0000
0001
0100
0001
0000
,  // measure 9
0010
0000
0001
0000
1000
0100
1000
0000
,  // measure 10
0010
0000
1000
0000
0001
1000
0001
0000
,  // measure 11
0100
0000
0001
0000
1000
0001
1000
0001
,  // measure 12
1000
0000
0010
0000
0000
0100
0001
0000
,  // measure 13
0010
0000
0100
0000
0000
0100
1000
0000
,  // measure 14
0010
0000
0100
0000
0000
0001
1000
0000
,  // measure 15
0100
0000
0010
0000
0000
0001
1000
0000
,  // measure 16
0010
0000
1001
0000
0000
0001
0100
0000
,  // measure 17
0100
0000
1001
0000
0000
1000
0010
0000
,  // measure 18
0010
0000
1001
0000
0000
0001
0100
0000
,  // measure 19
0010
1001
0100
0110
,  // measure 20
1001
1000
0100
1000
,  // measure 21
0001
0000
0001
0000
0100
0001
1000
0000
,  // measure 22
1001
0001
0010
0001
,  // measure 23
1000
0000
1000
0000
0010
1000
0100
0000
,  // measure 24
1001
1000
0001
0010
,  // measure 25
0100
0000
0100
0000
1000
0010
0100
0000
,  // measure 26
0001
0010
0100
0000
1000
0100
0010
0000
,  // measure 27
1001
1000
0001
0110
,  // measure 28
0010
0001
0100
0000
0010
0000
0100
0000
,  // measure 29
0001
0000
0010
0000
0100
1000
0010
0000
,  // measure 30
0100
0001
0010
0000
0100
0000
1000
0000
,  // measure 31
0010
0000
0100
0000
1000
0010
0100
0000
,  // measure 32
0001
0010
0100
0000
0100
0000
0110
0000
,  // measure 33
1001
1000
0001
0010
,  // measure 34
1000
0100
0001
0000
1000
0000
1000
0000
,  // measure 35
0010
0010
0100
0100
,  // measure 36
2000
0000
0000
0000
0000
0000
0000
3100
,  // measure 37
0002
0000
0000
0000
,  // measure 38
0203
0000
0000
0000
,  // measure 39
0310
1000
0100
0000
0010
0001
0100
0000
,  // measure 40
0001
0001
1000
1000
,  // measure 41
0001
1000
0001
1000
,  // measure 42
0100
0100
0010
0010
,  // measure 43
0100
0010
0100
0010
,  // measure 44
1010
0000
1001
0000
1000
0100
0001
0000
,  // measure 45
0110
0000
1100
0000
1000
0010
0100
0000
,  // measure 46
0101
0000
1001
0000
0001
0010
0100
0000
,  // measure 47
1100
0000
1001
0000
0001
0100
0010
0000
,  // measure 48
1001
0000
0100
0000
1000
0001
1000
0000
,  // measure 49
1001
0000
0010
0000
1000
0001
1000
0000
,  // measure 50
1001
0000
0100
0000
0001
1000
0001
0000
,  // measure 51
1001
0000
0010
0000
0001
1000
0001
0000
,  // measure 52
0010
0000
0100
0000
1000
0000
0000
0010
,  // measure 53
0100
0001
1000
0000
,  // measure 54
0001
0010
0100
0000
,  // measure 55
1000
0010
0100
0000
0001
0010
0100
0000
,  // measure 56
1000
0001
0100
0000
0001
1000
0010
0000
,  // measure 57
1000
0001
0100
0000
0001
1000
0010
0000
,  // measure 58
1000
0001
0100
0000
0001
1000
0010
0000
,  // measure 59
1000
0001
0100
0000
0001
1000
0010
0000
,  // measure 60
2000
0000
0000
0000
0000
0000
0000
3010
,  // measure 61
0020
0000
0000
0000
,  // measure 62
0230
0000
0000
0000
,  // measure 63
0301
0010
0100
0000
1000
0010
0100
0000
,  // measure 64
0010
0000
0010
0000
0100
0100
0100
0000
,  // measure 65
0001
0000
0001
0000
1000
1000
1000
0000
,  // measure 66
0100
0000
0100
0000
0010
0010
0010
0000
,  // measure 67
1000
0000
1000
0000
0001
0001
0001
0000
,  // measure 68
0010
0100
1000
0000
0010
0000
0010
0000
,  // measure 69
0100
0100
1000
0010
,  // measure 70
1001
0001
0010
0100
,  // measure 71
1000
0010
0100
0110
,  // measure 72
1000
0100
0001
0000
0001
0000
0010
0000
,  // measure 73
0100
0000
1000
0000
1000
0010
0100
0000
,  // measure 74
0001
0010
0100
0000
0100
0010
0001
0000
,  // measure 75
2001
3001
1002
1003
,  // measure 76
1000
0010
0100
0000
0100
0000
0010
0000
,  // measure 77
1000
0000
1000
0000
0001
0010
0100
0000
,  // measure 78
0100
0010
0001
0000
0010
0000
0010
0000
,  // measure 79
0100
0100
1000
0001
,  // measure 80
1000
0010
0100
0000
0100
0000
0010
0000
,  // measure 81
1000
0001
0010
0100
,  // measure 82
1000
0001
0100
0000
0010
0000
0010
0000
,  // measure 83
0010
1000
0100
0010
0001
0100
0010
0000
,  // measure 84
0200
0000
0000
0000
,  // measure 85
0300
0000
0000
0000
;

//---------------dance-single - ----------------
#NOTEDATA:;
#CHARTNAME:;
#STEPSTYPE:dance-single;
#DESCRIPTION:;
#CHARTSTYLE:;
#DIFFICULTY:Hard;
#METER:8;
#RADARVALUES:0.564891,0.621073,0.318058,0.137539,0.081664,460.000000,423.000000,37.000000,16.000000,0.000000,0.000000,0.000000,0.000000,0.000000,0.564891,0.621073,0.318058,0.137539,0.081664,460.000000,423.000000,37.000000,16.000000,0.000000,0.000000,0.000000,0.000000,0.000000;
#CREDIT:;
#NOTES:
// measure 0
0000
0000
0000
0000
,  // measure 1
0000
0000
0000
0000
,  // measure 2
0000
0000
0000
0000
,  // measure 3
0000
0000
0000
0000
,  // measure 4
0010
0000
1000
0000
0100
0001
0100
0000
,  // measure 5
1000
0000
0010
0000
0100
0001
0100
0000
,  // measure 6
0010
0000
1000
0000
0100
0001
0100
0000
,  // measure 7
1000
0000
0010
0000
0100
0001
0100
0000
,  // measure 8
0010
0000
1000
0000
0001
0001
0100
0000
,  // measure 9
0010
0000
1000
0000
0100
0100
0010
0000
,  // measure 10
0001
0000
0100
0000
0010
0010
1000
0000
,  // measure 11
0100
0000
0100
0000
0010
0001
1000
0100
,  // measure 12
0010
0100
1100
0101
,  // measure 13
0010
1001
0100
1001
,  // measure 14
0100
0010
0011
1010
,  // measure 15
0010
1001
0010
1001
,  // measure 16
1100
0000
0101
0000
0001
0100
1000
0000
,  // measure 17
0011
0000
1010
0000
1000
0010
0001
0000
,  // measure 18
0010
0110
0001
1001
,  // measure 19
1000
0000
1000
0000
0001
0010
0100
1000
,  // measure 20
0010
0000
0100
0001
0010
0000
0100
0000
,  // measure 21
1100
0101
0010
0010
,  // measure 22
1001
0000
1000
0100
0001
0000
0010
0000
,  // measure 23
1010
0011
0100
0100
,  // measure 24
1001
0000
0010
1000
0100
0000
0100
0000
,  // measure 25
1100
0011
0100
0010
,  // measure 26
0010
1000
0100
1000
0010
0001
0010
1000
,  // measure 27
0100
0100
0100
0100
,  // measure 28
0010
0001
0200
0000
0010
0000
0310
1000
,  // measure 29
0010
0100
0001
0010
0100
1000
0100
0001
,  // measure 30
0100
1000
0020
0000
0100
0000
0100
0000
,  // measure 31
0130
0000
0001
0100
1000
0000
0110
0000
,  // measure 32
1000
0001
0020
0000
0100
0000
1030
0001
,  // measure 33
1000
0001
0100
0010
1000
0001
0010
0100
,  // measure 34
1000
0011
0001
1100
,  // measure 35
0100
1000
0100
0110
,  // measure 36
2001
0000
0000
0000
0000
0000
0000
3100
,  // measure 37
0020
0000
0000
0000
,  // measure 38
0032
0000
0000
0000
,  // measure 39
1003
0100
0001
0100
1000
0010
1000
0100
,  // measure 40
0001
0000
0000
0010
0100
0000
0000
0000
1000
0000
0000
0010
0100
0000
0000
0000
,  // measure 41
1000
0000
0000
0100
0001
0000
0000
0000
0100
0000
0000
1000
0010
0000
0000
0000
,  // measure 42
0100
0000
0000
0001
1000
0000
0000
0000
0010
0000
0000
1000
0001
0000
0000
0000
,  // measure 43
0010
0000
0000
0100
1000
0000
0000
0000
0010
0000
1000
0000
0001
0000
0010
0000
,  // measure 44
0100
0000
1000
0001
0010
0100
1000
0010
,  // measure 45
0100
0000
0001
0010
0100
1000
0010
0100
,  // measure 46
0001
0000
1000
0010
0100
0001
1000
0100
,  // measure 47
1000
0000
0001
0010
0100
1000
0010
0100
,  // measure 48
0001
0000
0100
1000
0010
1000
0100
0001
,  // measure 49
0100
0000
1000
0010
0100
0001
0010
0100
,  // measure 50
1000
0000
0010
0100
0001
0010
0100
1000
,  // measure 51
0100
1001
0010
1001
,  // measure 52
2001
0000
0000
0000
0000
0000
0000
3001
,  // measure 53
0020
0000
0000
0000
,  // measure 54
0230
0000
0000
0000
,  // measure 55
1300
0010
0100
0001
0100
0010
1000
0100
,  // measure 56
0010
0000
0000
0100
0001
0000
0000
0000
1000
0000
0000
0100
0010
0000
0000
0000
,  // measure 57
0100
0000
0000
0010
1000
0000
0000
0000
0001
0000
0000
0010
0100
0000
0000
0000
,  // measure 58
1000
0000
0000
0001
0100
0000
0000
0000
0001
0000
0000
1000
0010
0000
0000
0000
,  // measure 59
1000
0010
0100
0010
,  // measure 60
0020
0000
0000
0000
0000
0000
0000
1030
,  // measure 61
0200
0000
0000
0000
,  // measure 62
2300
0000
0000
0000
,  // measure 63
3010
1000
0100
1000
0100
0001
0100
0001
,  // measure 64
0100
0000
0000
1000
0010
0000
0000
0000
1000
0000
0000
0100
0001
0000
0000
0000
,  // measure 65
0100
0000
0000
1000
0010
0000
0000
0000
1000
0000
0000
0100
0001
0000
0000
0000
,  // measure 66
0010
0000
0000
0100
0001
0000
0000
0000
0010
0000
0000
0100
1000
0000
0000
0000
,  // measure 67
0010
0000
0010
0000
0001
0010
0100
1000
,  // measure 68
0010
1001
0100
1001
,  // measure 69
1000
0100
0001
0100
1000
0100
0001
0000
,  // measure 70
0100
1001
0010
1001
,  // measure 71
0001
0010
1000
0010
0001
0010
1000
0000
,  // measure 72
1000
0101
0001
1010
,  // measure 73
1000
0010
0100
0001
0010
0100
1000
0000
,  // measure 74
0001
0010
0100
1000
0001
1000
0010
0100
,  // measure 75
0001
0001
1000
1000
,  // measure 76
0010
0100
0002
0000
1000
0000
0013
0100
,  // measure 77
1000
0010
1000
0010
1000
0100
1000
0001
,  // measure 78
0100
0010
2000
0000
0001
0000
0001
0000
,  // measure 79
3100
0010
0001
0100
0010
0000
0110
0000
,  // measure 80
0010
0001
0200
0000
0010
0000
0310
1000
,  // measure 81
0001
0100
0010
1000
0100
1000
0010
1000
,  // measure 82
0100
1000
0010
1000
0001
0100
0010
1000
,  // measure 83
0100
0010
0001
0100
0010
1000
0100
0010
,  // measure 84
0200
0000
0000
0000
,  // measure 85
0300
0000
0000
0000
;
