#VERSION:0.83;
#TITLE:Red Canyon;
#SUBTITLE:(Remake);
#ARTIST:Taro Bando (Remake by Tony Thai);
#TITLETRANSLIT:;
#SUBTITLETRANSLIT:;
#ARTISTTRANSLIT:;
#GENRE:;
#ORIGIN:;
#CREDIT:;
#BANNER:RC bn.png;
#BACKGROUND:RC bg.png;
#PREVIEWVID:;
#JACKET:;
#CDIMAGE:;
#DISCIMAGE:;
#LYRICSPATH:;
#CDTITLE:;
#MUSIC:redcanyon.mp3;
#OFFSET:3.125000;
#SAMPLESTART:24.020000;
#SAMPLELENGTH:12.000000;
#SELECTABLE:YES;
#BPMS:0.000=170.170;
#STOPS:;
#DELAYS:;
#WARPS:;
#TIMESIGNATURES:0.000=4=4;
#TICKCOUNTS:0.000=4;
#COMBOS:0.000=1;
#SPEEDS:0.000=1.000=0.000=0;
#SCROLLS:0.000=1.000;
#FAKES:;
#LABELS:0.000=Song Start;
#BGCHANGES:;
#KEYSOUNDS:;
#ATTACKS:
;

//---------------dance-single - ----------------
#NOTEDATA:;
#CHARTNAME:;
#STEPSTYPE:dance-single;
#DESCRIPTION:;
#CHARTSTYLE:;
#DIFFICULTY:Easy;
#METER:3;
#RADARVALUES:0.419318,0.482175,0.404858,0.000000,0.000000,261.000000,225.000000,36.000000,0.000000,0.000000,0.000000,0.000000,0.000000,0.000000,0.419318,0.482175,0.404858,0.000000,0.000000,261.000000,225.000000,36.000000,0.000000,0.000000,0.000000,0.000000,0.000000,0.000000;
#CREDIT:;
#NOTES:
0000
0000
0000
0000
,
0000
0000
0000
0000
,
0000
0000
0000
0000
,
0000
1001
0100
0010
,
0001
0100
1000
0001
,
0100
1000
0100
0010
,
0001
0100
1000
0010
,
0001
0100
1000
0010
,
0100
0001
0010
0100
,
1000
0010
0100
0001
,
1000
0100
0010
1001
,
0110
1001
0010
1000
,
0001
0100
1000
0001
,
0010
0100
0001
1000
,
0010
0001
1000
0001
,
1000
0100
1000
0001
,
0010
0100
0001
1000
,
0001
0010
0100
0010
,
0100
1001
0110
1100
,
0011
1001
0000
1000
,
0000
0001
0000
1000
,
0000
0010
0100
0010
,
0100
1001
0100
0010
,
0001
1000
0010
0001
,
0100
0001
0010
1000
,
0100
0001
1000
0010
,
0100
1001
1000
0001
,
0010
1001
0100
0010
,
1000
0110
0100
0001
,
0100
0110
1000
0100
,
0100
1000
1000
0001
,
1000
0010
0010
0100
,
0010
1000
0100
0001
,
0010
0001
0100
1000
,
0110
1001
0100
0010
,
0001
0100
1000
0001
,
0100
1000
0100
0001
,
0100
1000
0100
0001
,
0100
1001
0010
0100
,
1000
0001
0010
0100
,
1000
0010
0001
0100
,
1000
0100
0001
0010
,
1001
1001
1000
0100
,
0001
0100
1000
0100
,
0001
0100
1000
0100
,
0001
0100
1000
0100
,
0001
0100
1000
0010
,
0001
0010
1000
0010
,
0001
0010
1000
0010
,
0100
1001
0110
1001
,
0110
1001
0000
1001
,
0000
0110
0000
0110
,
0000
1000
0001
0100
,
0010
1000
0001
1000
,
0001
0100
0010
0100
,
0010
1000
0100
0001
,
0010
0001
0100
1000
,
0010
1001
0100
1000
,
0110
1001
0010
0001
,
0110
1001
0100
1000
,
0110
1001
0010
0001
,
0110
1001
0000
0000
;

//---------------dance-single - ----------------
#NOTEDATA:;
#CHARTNAME:;
#STEPSTYPE:dance-single;
#DESCRIPTION:;
#CHARTSTYLE:;
#DIFFICULTY:Medium;
#METER:5;
#RADARVALUES:0.473941,0.551057,0.652272,0.000000,0.000000,295.000000,237.000000,58.000000,0.000000,0.000000,0.000000,0.000000,0.000000,0.000000,0.473941,0.551057,0.652272,0.000000,0.000000,295.000000,237.000000,58.000000,0.000000,0.000000,0.000000,0.000000,0.000000,0.000000;
#CREDIT:;
#NOTES:
0000
0000
0000
0000
,
0000
0000
0000
0000
,
0000
0000
0000
0000
,
0000
1001
0110
0100
,
0001
1000
0100
0010
,
0001
1001
0100
0010
,
0100
1000
0001
1000
,
0010
1001
0110
1000
,
0001
0010
0100
0010
,
1000
0110
0100
0001
,
0001
1000
0001
0000
0100
0000
0110
0000
,
0110
1001
1000
0001
,
1000
0110
0100
0010
,
0100
1001
1000
0001
,
1000
0110
0100
0010
,
0100
0000
0001
1000
0001
0000
1000
0000
,
0001
0000
0010
0100
0010
0000
0100
0000
,
0010
0000
1000
0100
0001
0000
0010
0000
,
1000
1000
1001
0001
,
1001
1100
0000
0101
,
0000
0011
0000
1010
,
0000
0000
1000
0000
0000
1000
0000
0000
,
1000
1000
0100
0001
,
0100
1000
0010
0001
,
0010
1000
0100
0001
,
0100
1000
0010
0001
,
0010
1001
0100
0010
,
0100
1001
0010
0100
,
0010
1100
1000
1010
,
0010
0011
0001
0101
,
0100
0000
1100
0000
1000
0100
1000
0000
,
0001
0000
0101
0000
0100
0001
0100
0000
,
0010
0000
0011
0000
0001
0010
0001
0000
,
1000
0000
1010
0000
0010
1000
0010
0000
,
1001
1001
0100
0010
,
0001
0100
1000
0001
,
0100
1000
0100
0010
,
0001
0100
1000
0010
,
0001
0000
1001
0000
0000
0100
0000
0000
,
1000
0000
0110
0000
0000
0001
0000
0000
,
0100
0000
1001
0000
0000
0100
0000
0000
,
0001
0000
1000
0100
0001
0000
0100
1000
,
0010
1001
1000
0001
,
1001
1001
0100
0010
,
1001
1001
0001
0010
,
1001
1001
0010
0100
,
1001
0000
1001
0000
0010
0100
0010
0000
,
1001
0000
1001
0000
0010
1000
0001
0000
,
1001
0000
1001
0000
0100
0001
1000
0000
,
0110
0000
0001
0100
1000
0000
0100
0001
,
0010
1001
0000
0000
,
0000
1001
0000
0000
,
0000
0000
1000
0001
0001
1000
0001
0001
,
1000
1000
0100
0001
,
0100
1000
0010
0001
,
0010
1000
0100
0001
,
0100
1000
0010
0001
,
0010
1001
0100
1100
,
0100
1010
0001
0100
,
1000
0011
0001
0100
,
0010
0101
0110
1001
,
0110
1001
0000
0000
;

//---------------dance-single - ----------------
#NOTEDATA:;
#CHARTNAME:;
#STEPSTYPE:dance-single;
#DESCRIPTION:;
#CHARTSTYLE:;
#DIFFICULTY:Hard;
#METER:8;
#RADARVALUES:0.621747,0.619939,0.494827,0.067476,0.000000,387.000000,343.000000,44.000000,6.000000,0.000000,0.000000,0.000000,0.000000,0.000000,0.621747,0.619939,0.494827,0.067476,0.000000,387.000000,343.000000,44.000000,6.000000,0.000000,0.000000,0.000000,0.000000,0.000000;
#CREDIT:;
#NOTES:
0000
0000
0000
0000
,
0000
0000
0000
0000
,
0000
0000
0000
0000
,
0000
0000
1001
0000
1000
0100
0000
1000
,
0010
0000
1001
0000
0001
0100
0000
0010
,
1000
0000
0110
0000
0100
1000
0000
1000
,
0001
0000
0110
0000
0100
0001
0000
1000
,
0010
0000
1001
0000
0010
0100
0000
0010
,
1001
0000
1001
0000
0100
0010
0000
0100
,
1001
0000
0110
0000
1000
0001
0000
1000
,
0001
0000
1000
0010
0100
0001
1000
0100
,
0010
0001
2000
0000
0001
0000
0001
0000
,
0001
3002
1000
1000
,
1000
0203
0010
0010
,
0010
0320
0100
0100
,
0100
0000
2030
0000
0001
0001
0001
0000
,
0001
0000
3002
0000
1000
1000
1000
0000
,
1000
0000
1003
0100
0001
0000
0100
1000
,
0010
1001
0110
1001
,
0110
1001
0010
0001
,
1000
0010
0100
0010
,
0100
0000
1000
0001
0001
1000
0001
0001
,
1001
0000
1000
0001
0010
0000
0100
0001
,
1000
0000
0100
1000
0010
0000
0001
1000
,
0100
0000
1000
0100
0001
0000
0100
0010
,
0100
0000
1000
0010
0100
0010
0001
0100
,
1000
1001
0110
0100
,
0100
0001
1000
0000
1001
0000
0010
0100
,
1000
0001
0010
0000
1001
0000
0010
1000
,
0001
0010
0100
1000
0100
0001
0010
0001
,
0100
0000
1000
0001
0010
0100
0001
1000
,
1000
0001
0010
0100
1000
0001
0100
0010
,
1000
0001
0010
0100
1000
0001
0100
0010
,
1000
0010
0001
0010
0100
1000
0001
0100
,
1000
0000
1001
0000
1000
0100
0000
1000
,
0010
0000
1001
0000
0001
0100
0000
0010
,
1000
0000
0110
0000
0100
1000
0000
1000
,
0001
0000
0110
0000
0100
0001
0000
1000
,
0010
0000
1001
0000
0010
0100
0000
0010
,
1001
0000
1001
0000
0100
0010
0000
0100
,
1001
0000
0110
0000
1000
0001
0000
1000
,
0001
0000
1001
1000
1000
1000
0010
0100
,
0010
1000
1001
0000
1000
0100
0001
0000
,
1001
0000
1001
0000
0100
1000
0001
0000
,
0110
0000
0110
0000
1000
0010
0100
0000
,
1001
0000
1001
0000
0001
0100
1000
0000
,
0110
0000
1000
0100
0001
0000
0100
1000
,
0010
0000
1000
0001
0100
0000
0100
1000
,
0010
0000
1000
0100
0010
0001
1000
0100
,
0010
0001
1001
0000
1001
0000
1001
0000
,
1001
0000
1001
0000
1000
0100
0001
0000
,
0100
0000
1000
0000
0010
0001
0100
0000
,
0100
0000
1000
0001
0001
1000
0001
0001
,
1001
0000
1000
0010
0100
0001
1000
0100
,
0010
0001
1000
0010
0100
0010
1000
0001
,
0010
0100
1000
0100
0010
0001
0100
0010
,
1000
0001
0010
0100
0010
0100
0010
0100
,
1000
0001
1000
0010
0100
0010
1000
0001
,
0010
0100
0001
0100
1000
0010
0100
0001
,
1000
0010
0100
0001
0010
0100
1000
0001
,
0100
0010
1000
0100
0010
0001
0100
0010
,
0100
0010
1001
0000
0000
0000
0000
0000
;

//---------------dance-single - ----------------
#NOTEDATA:;
#CHARTNAME:;
#STEPSTYPE:dance-single;
#DESCRIPTION:;
#CHARTSTYLE:;
#DIFFICULTY:Challenge;
#METER:10;
#RADARVALUES:1.061950,1.136555,0.764732,0.000000,0.798471,661.000000,593.000000,68.000000,0.000000,0.000000,0.000000,0.000000,0.000000,0.000000,1.061950,1.136555,0.764732,0.000000,0.798471,661.000000,593.000000,68.000000,0.000000,0.000000,0.000000,0.000000,0.000000,0.000000;
#CREDIT:;
#NOTES:
// measure 0
0000
0000
0000
0000
,  // measure 1
0000
0000
0000
0000
,  // measure 2
0000
0000
0000
0000
1000
0000
0000
0000
1000
0001
1000
0001
1000
0001
1000
0001
,  // measure 3
1000
0001
1000
0000
1001
0000
0001
0100
0001
0000
1000
0000
0001
0100
0001
0000
,  // measure 4
1000
0001
1000
0001
0010
0000
0100
1000
0100
0000
0010
0000
0100
1000
0100
0000
,  // measure 5
0010
0100
0010
0100
0100
0000
0010
0001
0010
0000
0100
0000
0010
0001
0010
0000
,  // measure 6
0100
0010
0100
0010
0001
0000
1000
0100
1000
0000
0001
0000
1000
0100
1000
0000
,  // measure 7
0001
1000
0001
1000
0010
0000
0100
0010
0100
0000
0010
0000
0100
0010
0100
0000
,  // measure 8
0010
0100
0010
0100
1000
0000
0001
1000
0001
0000
1000
0000
0001
1000
0001
0000
,  // measure 9
1000
0001
1000
0001
0010
0000
0100
0010
0100
0000
1000
0000
0001
1000
0001
0000
,  // measure 10
0010
0100
0001
1000
0010
0000
1001
0000
0100
0000
1001
0000
1000
0000
0110
0000
,  // measure 11
0001
0110
1001
0100
0010
0001
1000
0100
,  // measure 12
1000
0001
1000
0001
1000
0000
0110
0000
0100
0000
1000
0000
0001
0000
0100
0000
,  // measure 13
0010
0100
0010
0100
0010
0000
1001
0000
0100
0000
0010
0000
0001
0000
1000
0000
,  // measure 14
1000
0001
0010
0100
0010
0000
1001
0000
0100
0000
1000
0000
0001
0000
0010
0000
,  // measure 15
0010
0100
0001
1000
0001
0000
0100
0000
0001
0000
0100
0000
1000
0000
0010
0000
,  // measure 16
1000
0001
0010
0100
1000
0001
0100
1000
,  // measure 17
0100
0000
0001
0000
1000
0100
1000
0000
0010
1000
0010
0000
0100
0010
0100
0000
,  // measure 18
0001
1000
0001
0000
1001
0000
0100
0000
1001
0000
0010
0000
1001
0000
0100
0000
,  // measure 19
1001
0010
1001
0000
0000
0000
0000
0000
,  // measure 20
0000
1001
1001
1001
,  // measure 21
1001
0000
0000
0000
1000
0000
0001
0100
0010
0000
1000
0000
0100
0010
0001
0000
,  // measure 22
1000
0001
0100
0000
1001
0000
0100
0000
0010
0000
0001
0000
0110
0000
1000
0000
,  // measure 23
0001
0100
1001
0100
0010
1000
0110
0001
,  // measure 24
1000
0010
1001
0100
0010
1000
0110
0001
,  // measure 25
0100
0010
1001
0100
1001
0100
1001
0100
,  // measure 26
1001
0100
1001
0001
1000
0100
0010
1000
,  // measure 27
0001
0100
0010
1000
0001
0100
0010
1000
,  // measure 28
0001
0010
0100
1000
0001
0010
0100
1000
,  // measure 29
0001
0100
1001
1100
1001
0101
1001
1100
,  // measure 30
1001
0000
0110
0000
1000
0100
0001
0100
1000
0100
0001
0100
1000
0010
0001
0010
,  // measure 31
1000
0010
0001
0010
1000
0100
0001
0100
1000
0010
0001
0010
1000
0100
0001
0100
,  // measure 32
1000
0010
0001
0100
0001
1000
0001
1000
0010
0100
0010
0100
1000
0100
0001
0100
,  // measure 33
1000
0010
0001
0010
1000
0100
0001
0010
1000
0100
0001
0100
0010
0100
0010
0100
,  // measure 34
0010
0000
0000
0000
1001
0000
0001
0100
0001
0000
1000
0000
0001
0100
0001
0000
,  // measure 35
1000
0001
1000
0001
0010
0000
0100
1000
0100
0000
0010
0000
0100
1000
0100
0000
,  // measure 36
0010
0100
0010
0100
0100
0000
0010
0001
0010
0000
0100
0000
0010
0001
0010
0000
,  // measure 37
0100
0010
0100
0010
0001
0000
1000
0100
1000
0000
0001
0000
1000
0100
1000
0000
,  // measure 38
0001
1000
0001
1000
0010
0000
0100
0010
0100
0000
0010
0000
0100
0010
0100
0000
,  // measure 39
0010
0100
0010
0100
1000
0000
0001
1000
0001
0000
1000
0000
0001
1000
0001
0000
,  // measure 40
1000
0001
1000
0001
0010
0000
0100
0010
0100
0000
1000
0000
0001
1000
0001
0000
,  // measure 41
0010
0100
0001
1000
0010
0000
1001
0000
0100
0000
1001
0000
1000
0000
0110
0000
,  // measure 42
0001
0110
1001
0100
0010
0001
1000
0100
,  // measure 43
1000
0001
1000
0001
1000
0000
0110
0000
0100
0000
1000
0000
0001
0000
0100
0000
,  // measure 44
0010
0100
0010
0100
0010
0000
1001
0000
0100
0000
0010
0000
0001
0000
1000
0000
,  // measure 45
1000
0001
0010
0100
0010
0000
1001
0000
0100
0000
1000
0000
0001
0000
0010
0000
,  // measure 46
0010
0100
0001
1000
0001
0000
0100
0000
0001
0000
0100
0000
1000
0000
0010
0000
,  // measure 47
1000
0001
0010
0100
1000
0001
0100
1000
,  // measure 48
0100
0000
0001
0000
1000
0100
1000
0000
0010
1000
0010
0000
0100
0010
0100
0000
,  // measure 49
0001
1000
0001
0000
1001
0000
0100
0000
1001
0000
0010
0000
1001
0000
0100
0000
,  // measure 50
1001
0010
1001
0000
0000
0000
1001
0000
,  // measure 51
0000
0000
0000
0000
1000
0100
0001
0100
1000
0000
0000
0000
1000
0010
0001
0010
,  // measure 52
1000
0000
1001
0110
0110
1001
0110
0110
,  // measure 53
1001
0000
1000
0100
0010
0001
1000
0100
,  // measure 54
0010
0001
1000
0001
1000
0010
0100
0001
,  // measure 55
1000
0010
0100
0001
1000
0010
0100
0001
,  // measure 56
1000
0100
1001
1001
0110
0110
1100
1100
,  // measure 57
0011
0000
0011
0000
0010
1000
0010
0000
0001
0100
0001
0000
0100
0010
0100
0000
,  // measure 58
1000
0100
1000
0000
0001
1000
0001
0000
0010
0100
0010
0000
1000
0010
1000
0000
,  // measure 59
0001
1000
0001
0000
0100
0010
0100
0000
0001
0100
0001
0000
1000
0100
1000
0000
,  // measure 60
0001
0010
0001
0000
1000
0001
1000
0001
0010
0100
0010
0100
1000
0100
1000
0100
,  // measure 61
0010
0001
0010
0001
1001
0000
0000
0000
0000
0000
0000
0000
0000
0000
0000
0000
;
