#TITLE:Put Your Faith In Me;
#SUBTITLE:(Saturday Night Mix);
#ARTIST:Uzi-Lay;
#TITLETRANSLIT:;
#SUBTITLETRANSLIT:;
#ARTISTTRANSLIT:;
#GENRE:;
#CREDIT:;
#BANNER:putfasatbn.png;
#BACKGROUND:putfasatbg.png;
#LYRICSPATH:;
#CDTITLE:;
#MUSIC:putfasat.mp3;
#OFFSET:-0.090000;
#SAMPLESTART:48.040005;
#SAMPLELENGTH:12.000000;
#SELECTABLE:YES;
#BPMS:0.000000=120.000000
;
#STOPS:
;
#BGCHANGES:;
#KEYSOUNDS:;
#ATTACKS:;

//---------------dance-single - ----------------
#NOTES:
     dance-single:
     :
     Easy:
     3:
     0.256518,0.309366,0.173072,0.000000,0.000000,166.000000,150.000000,16.000000,0.000000,0.000000,0.000000,0.256518,0.309366,0.173072,0.000000,0.000000,166.000000,150.000000,16.000000,0.000000,0.000000,0.000000:
// measure 0
0000
0000
0000
0000
,  // measure 1
0000
0000
0000
0000
,  // measure 2
0000
0000
0000
0000
,  // measure 3
0000
0000
0000
0000
,  // measure 4
1000
1000
1000
1000
,  // measure 5
1000
1000
1000
1000
,  // measure 6
0001
0001
0001
0001
,  // measure 7
0001
0001
0001
0001
,  // measure 8
0010
0001
0100
1000
,  // measure 9
1001
0001
1000
1001
,  // measure 10
0010
0001
0100
0001
,  // measure 11
1000
1000
0010
0010
,  // measure 12
0100
1001
0100
0001
,  // measure 13
0001
0010
0100
0100
,  // measure 14
1000
0000
0001
0000
,  // measure 15
0010
0010
0100
0100
,  // measure 16
1001
1000
0100
0001
,  // measure 17
0100
1000
0010
1000
,  // measure 18
1001
0001
0100
0010
,  // measure 19
0001
0010
0100
1000
,  // measure 20
0010
1000
0100
0001
,  // measure 21
0010
1000
0100
0001
,  // measure 22
0100
1000
0010
0001
,  // measure 23
0100
1000
0010
0001
,  // measure 24
1001
1000
1000
1000
,  // measure 25
0001
0001
0001
0001
,  // measure 26
0100
0100
0100
0100
,  // measure 27
1001
0000
0000
0000
,  // measure 28
0010
0010
1000
1000
,  // measure 29
0100
0100
0001
0001
,  // measure 30
0100
0000
0010
0000
,  // measure 31
0100
0010
1000
0001
,  // measure 32
0010
0001
0100
0100
,  // measure 33
0001
1000
0010
0001
,  // measure 34
0010
1000
0100
1001
,  // measure 35
1000
1000
0001
0001
,  // measure 36
1001
0110
1001
0100
,  // measure 37
0100
0100
0000
0000
,  // measure 38
0010
0001
0010
1000
,  // measure 39
0010
0010
0100
1001
,  // measure 40
1100
0101
1001
0010
,  // measure 41
0100
0100
0000
0000
,  // measure 42
0001
0001
0010
0100
,  // measure 43
1000
1000
0010
0100
,  // measure 44
1001
0000
0000
0000
;

//---------------dance-single - ----------------
#NOTES:
     dance-single:
     :
     Medium:
     5:
     0.324510,0.356961,0.227157,0.000000,0.000000,210.000000,189.000000,21.000000,0.000000,0.000000,0.000000,0.324510,0.356961,0.227157,0.000000,0.000000,210.000000,189.000000,21.000000,0.000000,0.000000,0.000000:
// measure 0
0000
0000
0000
0000
,  // measure 1
0000
0000
0000
0000
,  // measure 2
0000
0000
0000
0000
,  // measure 3
0000
0000
0000
0000
0000
0000
1000
1000
,  // measure 4
1000
1000
1000
1000
,  // measure 5
0001
0000
0001
0000
0001
0000
0001
0001
,  // measure 6
0010
0010
0010
0010
,  // measure 7
0100
0000
0100
0000
0100
0000
0100
0100
,  // measure 8
0100
0000
0010
0000
1001
0000
1000
0100
,  // measure 9
0001
1001
0100
0100
,  // measure 10
0010
1000
0100
0000
0010
0001
0100
0000
,  // measure 11
0010
0010
0100
0100
,  // measure 12
1001
1100
0101
0100
,  // measure 13
0001
0100
1000
0000
0100
0000
0001
0000
,  // measure 14
0100
0100
0100
0000
0010
0010
0010
0000
,  // measure 15
1000
0001
1001
0110
,  // measure 16
1001
0000
0001
0000
0100
0010
1000
0000
,  // measure 17
0010
0000
0100
0000
0001
0010
0100
0000
,  // measure 18
1000
0000
0100
0000
0001
0001
0001
0000
,  // measure 19
0100
0000
1000
0000
0001
0001
0001
0000
,  // measure 20
0010
0000
1000
0000
0100
1000
0010
0000
,  // measure 21
0100
0000
0001
0000
0100
0001
0010
0000
,  // measure 22
0010
0000
0100
0000
0010
0100
0010
0000
,  // measure 23
0100
0000
0001
0000
1000
0001
1000
0000
,  // measure 24
1001
1000
1000
1000
,  // measure 25
0001
0000
0001
0000
0001
0000
0100
0100
,  // measure 26
0100
0100
0100
0000
0010
0000
0010
0000
,  // measure 27
1001
0000
0000
0000
,  // measure 28
0010
1000
0100
0000
0100
0000
0100
0000
,  // measure 29
0010
0001
0100
0000
0100
0000
0100
0000
,  // measure 30
0001
1000
0001
1000
,  // measure 31
0010
1000
0100
0000
0010
0001
0100
0000
,  // measure 32
0010
0001
0010
0000
0001
0000
0100
0000
,  // measure 33
0010
1000
0010
0000
0100
0000
0001
0000
,  // measure 34
0010
0001
0010
0000
0010
1000
0010
0000
,  // measure 35
0010
1001
1100
0101
,  // measure 36
1001
1000
1001
0001
,  // measure 37
0100
0100
0100
0000
0000
0000
0010
0000
,  // measure 38
0001
0001
1000
0100
,  // measure 39
0010
0000
0001
0000
0010
0010
0010
0000
,  // measure 40
1001
0110
1001
1100
,  // measure 41
0001
0001
0001
0000
0000
0000
0101
0000
,  // measure 42
1000
1000
0001
0001
,  // measure 43
0001
0010
0100
0000
1000
0010
0100
0000
,  // measure 44
1001
0000
0000
0000
;

//---------------dance-single - ----------------
#NOTES:
     dance-single:
     :
     Hard:
     6:
     0.397139,0.428354,0.227157,0.000000,0.000000,257.000000,236.000000,21.000000,0.000000,0.000000,0.000000,0.397139,0.428354,0.227157,0.000000,0.000000,257.000000,236.000000,21.000000,0.000000,0.000000,0.000000:
// measure 0
0000
0000
0000
0000
,  // measure 1
0000
0000
0000
0000
,  // measure 2
0000
0000
0000
0000
,  // measure 3
0000
0000
0000
0000
0000
0000
1000
0100
,  // measure 4
0001
0001
1000
1000
,  // measure 5
0001
0000
0001
0000
0100
0000
0001
0100
,  // measure 6
1000
1000
0001
0001
,  // measure 7
0100
0000
0100
0000
0110
0000
1001
0100
,  // measure 8
0100
0000
1000
0000
0001
0000
0100
0010
,  // measure 9
1000
1001
0010
0100
,  // measure 10
0001
0010
0100
1000
0010
1000
0100
0000
,  // measure 11
1000
0010
0100
0001
0010
0001
0100
0000
,  // measure 12
1001
0000
0110
0000
0100
0000
0100
1000
,  // measure 13
0100
0100
0001
0000
0100
0000
1001
0000
,  // measure 14
0010
1000
0010
0100
0010
0001
0010
0000
,  // measure 15
0100
0001
0100
0010
0100
1000
0100
0000
,  // measure 16
0010
0010
0001
0000
0100
0100
0010
0000
,  // measure 17
1000
0100
0010
0001
1000
0010
0100
0000
,  // measure 18
0010
0001
0100
0010
1000
0100
0010
0000
,  // measure 19
1000
1000
0010
0000
0010
0010
0100
0000
,  // measure 20
0001
0001
1000
0000
0100
0100
1000
0000
,  // measure 21
0010
0100
0010
1000
0010
0100
0001
0000
,  // measure 22
0010
0100
0000
1000
0010
1000
0100
0000
,  // measure 23
0001
0100
1000
0100
0001
0100
1000
0000
,  // measure 24
1000
0010
0100
0000
0100
0000
0100
0000
,  // measure 25
0100
0000
0001
0000
0001
0000
1000
0010
,  // measure 26
1000
0010
0100
0000
0100
0000
0100
0000
,  // measure 27
1001
0000
0000
0000
,  // measure 28
0010
1000
0100
0000
0010
0001
0100
0000
,  // measure 29
0010
1000
0100
0010
0001
0100
0010
0000
,  // measure 30
1000
1000
0100
0000
0001
0001
0100
0000
,  // measure 31
1000
1000
0100
0001
0001
0100
1000
0000
,  // measure 32
0001
0010
0011
0000
1000
0100
1100
0000
,  // measure 33
0001
1000
1001
0010
0100
1001
0010
0000
,  // measure 34
0010
0010
1000
0000
0100
0100
1000
0000
,  // measure 35
0010
0010
1000
0100
0001
0001
0100
0000
,  // measure 36
1001
0000
1100
0000
0101
0000
0001
0100
,  // measure 37
1000
0100
0001
0000
0001
0000
1000
0000
,  // measure 38
0010
0100
0001
0010
0100
1000
0010
0000
,  // measure 39
0010
0100
0001
0010
0100
1000
0001
0000
,  // measure 40
1001
0000
0110
0000
1001
0000
1000
0100
,  // measure 41
0001
0100
1000
0000
0110
0000
1001
0000
,  // measure 42
1000
0010
0100
0001
0100
0010
1000
0000
,  // measure 43
0010
0010
0100
0100
1001
0000
0100
0100
,  // measure 44
1001
0000
0000
0000
;
