#TITLE:Port Tech;
#SUBTITLE:;
#ARTIST:Taro Bando (Remixed by Tony Thai);
#TITLETRANSLIT:;
#SUBTITLETRANSLIT:;
#ARTISTTRANSLIT:;
#GENRE:;
#CREDIT:;
#BANNER:Porttech bn2.png;
#BACKGROUND:Porttech bg.png;
#LYRICSPATH:;
#CDTITLE:;
#MUSIC:Port Tech.mp3;
#OFFSET:-2.790000;
#SAMPLESTART:34.759998;
#SAMPLELENGTH:12.000000;
#SELECTABLE:YES;
#BPMS:0.000000=180.000000
;
#STOPS:
;
#BGCHANGES:;
#KEYSOUNDS:;
#ATTACKS:;

//---------------dance-single - ----------------
#NOTES:
     dance-single:
     :
     Easy:
     6:
     0.459348,0.534032,0.442216,0.097437,0.014990,429.000000,370.000000,59.000000,13.000000,0.000000,0.000000,0.459348,0.534032,0.442216,0.097437,0.014990,429.000000,370.000000,59.000000,13.000000,0.000000,0.000000:
// measure 0
0000
0000
0000
0000
,  // measure 1
0000
0000
0000
0000
,  // measure 2
0000
0000
0000
0000
,  // measure 3
0000
0000
0000
0000
,  // measure 4
0010
0010
0100
1000
,  // measure 5
0010
0001
0100
1000
,  // measure 6
0010
0001
1001
0100
,  // measure 7
1000
0000
0000
1000
0000
0000
1000
0000
0000
1000
0000
0000
0001
0000
0010
0000
,  // measure 8
0100
1000
0100
1000
,  // measure 9
0100
0001
0100
1000
,  // measure 10
0100
0001
0100
1000
,  // measure 11
0100
0001
0010
1000
,  // measure 12
0100
0001
0100
1000
,  // measure 13
0100
0001
0010
0100
,  // measure 14
1000
0100
1000
0100
,  // measure 15
0001
0010
1000
0100
,  // measure 16
1001
0010
0100
0010
,  // measure 17
0001
0010
0100
1100
,  // measure 18
1001
0100
0010
0100
,  // measure 19
1000
0100
0010
0011
,  // measure 20
1001
0010
0100
0010
,  // measure 21
0001
0010
0100
1100
,  // measure 22
0110
0001
0010
0100
,  // measure 23
1000
0010
0100
0000
0001
0010
0100
0000
,  // measure 24
1001
0011
1000
0001
,  // measure 25
0010
0100
0010
0011
,  // measure 26
1001
1010
0100
0010
,  // measure 27
0001
0010
0100
1100
,  // measure 28
1001
1010
0001
0011
,  // measure 29
0100
1001
0010
0101
,  // measure 30
1000
1100
0010
0110
,  // measure 31
0001
0011
0100
0110
,  // measure 32
1001
0000
0100
0000
1000
0010
0100
0000
,  // measure 33
0001
0010
0100
0010
,  // measure 34
0001
0011
0100
1100
,  // measure 35
0010
1010
0100
0101
,  // measure 36
1000
0000
0100
0000
1000
0010
0100
0000
,  // measure 37
1001
0010
1000
0001
,  // measure 38
0010
0100
0010
0011
,  // measure 39
1001
0000
0100
0000
0010
0000
0001
1000
,  // measure 40
0100
1001
0010
0100
,  // measure 41
0001
0000
0010
0000
0001
0000
1000
0100
,  // measure 42
0010
0001
1000
1000
,  // measure 43
0100
0001
0100
1000
,  // measure 44
0010
1001
0100
0100
,  // measure 45
0001
0110
1000
1000
,  // measure 46
0001
1000
0100
0000
0010
0001
0100
0000
,  // measure 47
0010
1000
0100
0000
0010
0001
0100
0000
,  // measure 48
0002
0000
0000
0000
,  // measure 49
2003
0100
0100
3100
,  // measure 50
0020
0002
0000
0003
,  // measure 51
0230
1300
0002
0013
,  // measure 52
1001
0000
0100
0000
,  // measure 53
1000
0100
0001
0100
,  // measure 54
1000
0000
0010
0000
,  // measure 55
0100
0001
1000
0100
,  // measure 56
1001
0000
0010
0000
,  // measure 57
0001
0010
0010
0000
0100
0100
1000
0000
,  // measure 58
0001
1000
0100
0100
,  // measure 59
0010
0000
0000
0010
0000
0000
0010
0000
0000
0010
0000
0000
0001
0000
0100
0000
,  // measure 60
0010
1001
0000
0100
,  // measure 61
0010
0001
1000
0010
,  // measure 62
0100
1001
0000
0010
,  // measure 63
1000
0001
0010
0100
,  // measure 64
1001
0100
0000
0010
,  // measure 65
0001
1000
0100
0000
0010
0001
0100
0000
,  // measure 66
0010
1001
0000
0100
,  // measure 67
1000
0100
0010
0000
0100
1000
0001
0000
,  // measure 68
1001
0100
0000
0001
,  // measure 69
1001
0100
0000
0010
,  // measure 70
0011
0100
0000
1000
,  // measure 71
1001
0000
0001
0000
0000
0000
0010
0100
,  // measure 72
1000
0110
1000
1100
,  // measure 73
0010
0011
0100
1100
,  // measure 74
0100
1001
0010
1001
,  // measure 75
0010
1100
0001
0110
,  // measure 76
2000
0000
0000
0000
3100
0010
0001
0000
,  // measure 77
0010
0100
1000
0010
,  // measure 78
0100
1001
0010
1001
,  // measure 79
0000
0010
0000
0100
1000
0000
0010
0000
,  // measure 80
2000
0000
0000
0000
3010
0100
0001
0000
,  // measure 81
0010
0100
1000
0100
,  // measure 82
0001
0010
1000
0001
,  // measure 83
0010
0000
1001
0000
0100
0000
0001
0010
,  // measure 84
0002
0000
0000
0000
0013
0100
1000
0000
,  // measure 85
0010
0100
0001
0010
,  // measure 86
0100
1000
0010
0000
0100
0001
0010
0000
,  // measure 87
1001
0000
0100
0010
,  // measure 88
1001
0000
0100
0000
1000
0010
0100
0000
,  // measure 89
1001
0000
0100
0000
0001
0010
0100
0000
,  // measure 90
1000
0001
0010
0000
0100
1000
0010
0000
,  // measure 91
0100
0001
1000
0000
0100
0010
0001
0000
,  // measure 92
2000
0000
0000
0000
,  // measure 93
3002
0010
0010
0013
,  // measure 94
0200
2000
0000
3300
,  // measure 95
1001
0000
0000
0000
;

//---------------dance-single - ----------------
#NOTES:
     dance-single:
     :
     Medium:
     7:
     0.541795,0.605236,0.389750,0.059961,0.014990,506.000000,454.000000,52.000000,8.000000,0.000000,0.000000,0.541795,0.605236,0.389750,0.059961,0.014990,506.000000,454.000000,52.000000,8.000000,0.000000,0.000000:
// measure 0
0000
0000
0000
0000
,  // measure 1
0000
0000
0000
0000
,  // measure 2
0000
0000
0000
0000
,  // measure 3
0000
0000
0000
0000
,  // measure 4
0100
1001
0010
0001
,  // measure 5
1000
0100
1000
0000
0001
0010
0001
0000
,  // measure 6
1000
0010
0100
0010
,  // measure 7
1000
0000
0000
0001
0000
0000
1000
0000
0000
0010
0000
0000
0100
0000
0001
0000
,  // measure 8
1000
1000
0100
0001
,  // measure 9
0100
1000
0100
0010
,  // measure 10
0001
0001
0100
1000
,  // measure 11
0100
0001
0100
0010
,  // measure 12
1000
0000
1000
0000
0001
0100
1000
0000
,  // measure 13
0100
1001
0100
1001
,  // measure 14
0001
0000
0001
0000
1000
0100
0001
0000
,  // measure 15
0100
1001
0100
1001
,  // measure 16
0001
0011
0010
0100
,  // measure 17
1000
0001
0100
0000
0001
1000
0100
0000
,  // measure 18
1000
1010
0010
0100
,  // measure 19
0001
1000
0100
0000
1000
0001
0100
0000
,  // measure 20
0001
1001
1000
0100
,  // measure 21
0010
0100
1000
0000
0010
0100
0001
0000
,  // measure 22
1000
0100
0010
0100
,  // measure 23
1000
0010
0100
0001
1000
0100
0010
0001
,  // measure 24
1000
0000
0011
0000
0100
0000
1000
0100
,  // measure 25
0010
0000
0001
0000
0100
0010
0100
0001
,  // measure 26
1000
0000
1100
0000
0001
0000
0100
0010
,  // measure 27
1000
0000
0001
0000
1000
0001
0010
0100
,  // measure 28
1000
0000
0001
0100
0010
0000
1001
0000
,  // measure 29
0011
0000
0001
0000
0100
0010
1000
0100
,  // measure 30
0010
0000
0100
1000
0010
0000
1001
0000
,  // measure 31
1100
0000
0010
0100
0001
0010
0100
1000
,  // measure 32
0001
0110
1000
0110
,  // measure 33
0001
1000
0100
0000
1000
0001
0100
0000
,  // measure 34
0001
1001
1000
1001
,  // measure 35
0001
0010
0000
0100
0010
0000
0110
0000
,  // measure 36
1001
0000
0100
0000
1000
0010
0100
0000
,  // measure 37
0001
0010
0100
0000
0010
0001
0100
0000
,  // measure 38
0010
1010
0100
0101
,  // measure 39
0010
1001
0100
1001
,  // measure 40
1001
0000
0100
0000
1000
0001
1000
0000
,  // measure 41
0010
1000
0010
0000
0100
0001
0100
0000
,  // measure 42
0001
0010
0100
0000
1000
0010
0100
0000
,  // measure 43
0010
1001
0010
0011
,  // measure 44
1001
0010
1000
0110
,  // measure 45
1001
0010
1000
0110
,  // measure 46
1000
0001
0100
0000
0010
1000
0100
0000
,  // measure 47
1000
0100
0010
0001
1000
0010
0100
0001
,  // measure 48
0020
0000
0000
0000
,  // measure 49
0230
1000
1000
1300
,  // measure 50
0002
2000
0000
3000
,  // measure 51
0013
0100
0010
0100
0010
0100
0010
0100
,  // measure 52
1000
0001
0000
0001
0000
0010
0000
0001
,  // measure 53
0000
1000
0000
0100
0000
0010
0000
0001
,  // measure 54
0000
1000
0000
0100
0000
1000
0000
0010
,  // measure 55
0000
0001
0000
0100
0000
1001
0000
0010
,  // measure 56
0100
1000
0000
1000
0000
0100
0000
0010
,  // measure 57
0001
0010
0100
0000
1000
0010
0100
0000
,  // measure 58
0001
1000
0000
0100
0000
0010
0000
0001
,  // measure 59
0010
0000
0000
0100
0000
0000
1000
0000
0000
0100
0000
0000
0010
0000
0001
0000
,  // measure 60
1000
0001
0010
0001
,  // measure 61
1000
0001
0001
0000
0100
0001
0001
0000
,  // measure 62
1000
0001
0100
0000
0001
1000
0001
0000
,  // measure 63
1000
0010
0001
0100
,  // measure 64
1001
0000
0001
0000
0010
0100
1000
0000
,  // measure 65
1001
0000
1000
0000
0100
0010
0001
0000
,  // measure 66
1000
1001
0100
1100
,  // measure 67
1000
0100
0010
0000
0001
0100
0010
0000
,  // measure 68
0100
0000
1001
0000
0010
0000
0100
0010
,  // measure 69
0001
0000
0100
0000
1001
0000
0010
0100
,  // measure 70
0001
0000
0011
0000
0010
0000
0100
1000
,  // measure 71
0010
0000
1000
0000
0001
0000
0010
0100
,  // measure 72
1000
0000
0001
0000
0100
0000
0010
0100
,  // measure 73
0001
0000
0100
0000
1000
0000
0001
1000
,  // measure 74
0100
1001
0010
0100
,  // measure 75
1000
0100
0010
0001
1000
0100
0010
0001
,  // measure 76
1000
0011
0100
0010
,  // measure 77
0001
1000
0010
0000
1000
0100
0001
0000
,  // measure 78
0100
1001
0010
1001
,  // measure 79
1000
0100
0010
0000
0001
0100
1000
0000
,  // measure 80
0010
0011
0100
1100
,  // measure 81
1001
0010
0100
0110
,  // measure 82
0001
0010
0100
0000
1000
0100
0010
0000
,  // measure 83
0001
0010
0100
0000
0010
0000
0100
0000
,  // measure 84
0011
0000
1100
0000
0010
0100
0001
0000
,  // measure 85
0010
0100
1000
0000
0010
0100
0001
0000
,  // measure 86
0010
1001
0100
1001
,  // measure 87
1000
0100
0001
0000
0001
0100
1000
0000
,  // measure 88
0010
0100
0001
0000
0010
0100
1000
0000
,  // measure 89
0001
0100
0010
0000
1000
0100
0010
0000
,  // measure 90
1000
0100
1000
0100
1000
0100
1000
0100
,  // measure 91
0010
0001
0010
0001
0010
0001
0010
0001
,  // measure 92
0020
0000
0000
0000
,  // measure 93
0230
1000
1000
1300
,  // measure 94
0020
0200
0000
0330
,  // measure 95
1001
0000
0000
0000
;

//---------------dance-single - ----------------
#NOTES:
     dance-single:
     :
     Hard:
     8:
     0.636020,0.676440,0.337283,0.067457,0.029981,594.000000,549.000000,45.000000,9.000000,0.000000,0.000000,0.636020,0.676440,0.337283,0.067457,0.029981,594.000000,549.000000,45.000000,9.000000,0.000000,0.000000:
// measure 0
0000
0000
0000
0000
,  // measure 1
0000
0000
0000
0000
,  // measure 2
0000
0000
0000
0000
,  // measure 3
0000
0000
0000
0000
,  // measure 4
1000
0000
0001
0000
0010
0100
1000
0000
,  // measure 5
0010
1000
0100
0010
0001
0100
0010
1000
,  // measure 6
0001
1000
0100
1000
0000
0001
0010
0001
,  // measure 7
1000
0001
0000
1000
0001
0000
1000
0001
0000
1000
0001
0000
0100
0000
0010
0000
,  // measure 8
1001
0100
0010
0011
,  // measure 9
1001
0010
0100
1100
,  // measure 10
1001
0110
0010
0010
,  // measure 11
0001
0100
0010
0000
1000
0100
0010
0000
,  // measure 12
1001
0011
0010
0100
,  // measure 13
1000
0010
0010
0000
0100
0001
0001
0000
,  // measure 14
0110
1000
0110
0001
,  // measure 15
0100
0010
1000
0000
0001
0010
0100
0000
,  // measure 16
1000
0100
0010
0000
0001
0100
0010
0000
,  // measure 17
1000
0001
0100
0010
0100
0001
1000
0000
,  // measure 18
0001
0010
0100
0000
1000
0010
0100
0000
,  // measure 19
0001
1000
0100
0010
0100
1000
0001
0000
,  // measure 20
0100
0010
1000
0000
0010
0100
0001
0000
,  // measure 21
0010
0100
1000
0100
0010
0001
0010
0100
,  // measure 22
1000
0100
0001
0000
0001
0100
1000
0000
,  // measure 23
0010
1000
0100
0001
0100
1000
0010
1000
,  // measure 24
0001
0000
0100
0010
0000
0100
0010
1000
,  // measure 25
0010
0000
0100
0001
0000
0010
0100
1000
,  // measure 26
1000
0000
0100
0010
0000
0100
0010
0001
,  // measure 27
0010
0000
0100
1000
0000
0010
0100
0001
,  // measure 28
1000
0100
0010
0001
0000
0100
0010
1000
,  // measure 29
0001
0010
0100
0010
0001
0100
0010
1000
,  // measure 30
0001
0010
0100
1000
0000
0010
0100
0001
,  // measure 31
1000
0100
0010
0100
1000
0010
0100
0001
,  // measure 32
1000
0000
1100
0000
1000
0001
0100
0000
,  // measure 33
0010
1000
0001
0000
0100
0001
1000
0000
,  // measure 34
0001
0010
0100
1000
0001
0010
0100
1000
,  // measure 35
0100
0020
0000
0130
1000
0000
0010
0000
,  // measure 36
1001
0000
0011
0000
0001
1000
0010
0000
,  // measure 37
1000
0100
0010
0000
0001
0100
0010
0000
,  // measure 38
1000
0100
0010
0001
1000
0100
0010
0001
,  // measure 39
1000
0010
0000
0100
0001
0000
0010
0000
,  // measure 40
1001
0000
1010
0000
0001
0010
0100
0000
,  // measure 41
0010
0001
1000
0000
0010
1000
0001
0000
,  // measure 42
0001
0010
0100
1000
0001
1000
0100
0010
,  // measure 43
0001
1000
0100
0000
0010
0001
1000
0000
,  // measure 44
0010
1001
0100
1001
,  // measure 45
0001
0100
1000
0000
0001
0100
1000
0000
,  // measure 46
0001
0010
0001
0010
0100
0010
0100
0010
,  // measure 47
0100
1000
0100
1000
0010
0100
0010
0100
,  // measure 48
0002
0000
0000
0000
,  // measure 49
0023
0100
0100
0130
,  // measure 50
2000
0002
0000
0003
,  // measure 51
3001
0010
0100
1000
0001
0010
0100
1000
,  // measure 52
1000
0010
0000
1001
0000
0011
0000
0010
,  // measure 53
0100
1000
0000
0110
0000
0001
0000
0010
,  // measure 54
0001
1000
0000
0101
0000
0010
0000
1000
,  // measure 55
0100
0010
0100
1000
0010
0100
0010
1000
,  // measure 56
0001
0010
0000
1100
0000
0010
0000
0001
,  // measure 57
0010
0100
0010
0001
1000
0010
0100
0001
,  // measure 58
1000
0001
0000
0011
0000
1001
0000
0100
,  // measure 59
1000
0001
0000
1000
0001
0000
1000
0001
0000
1000
0001
0000
0010
0000
0010
0000
,  // measure 60
1001
0000
1100
0000
1000
0001
0100
0000
,  // measure 61
1001
0000
0011
0000
0001
1000
0010
0000
,  // measure 62
1000
0100
0001
0000
0001
0100
1000
0000
,  // measure 63
0001
0010
0100
0010
0100
1000
0100
0010
,  // measure 64
0001
1001
0100
1001
,  // measure 65
0001
1100
1000
0101
,  // measure 66
0001
0010
0100
0000
1000
0010
0100
0000
,  // measure 67
0001
1000
0100
0010
0100
1000
0001
1000
,  // measure 68
0010
0000
0100
0010
0000
1000
0100
0010
,  // measure 69
0001
0000
0100
0010
0000
1000
0010
0100
,  // measure 70
0001
0000
1000
0001
0000
0010
0100
1000
,  // measure 71
0001
0000
1000
0100
0000
0010
0001
0100
,  // measure 72
0010
1000
0100
0001
0000
0100
1000
0010
,  // measure 73
0100
0001
0010
0100
0000
0010
0001
0100
,  // measure 74
0010
0000
0100
1001
0000
0001
0110
0000
,  // measure 75
1001
0000
0010
0100
0000
0010
0100
0010
,  // measure 76
1001
0000
1100
0000
0010
0001
0100
0001
,  // measure 77
0010
0100
1000
0010
1000
0001
0010
0001
,  // measure 78
1000
0100
0010
0001
0100
0010
0100
0001
,  // measure 79
0010
0100
1000
0001
0100
0010
1000
0100
,  // measure 80
0010
1001
0011
1001
,  // measure 81
0001
0010
0100
0000
1000
0010
0100
0000
,  // measure 82
0001
0100
1000
0000
1000
0100
0001
0000
,  // measure 83
0001
0100
1000
0000
1000
0100
0001
0000
,  // measure 84
1001
0000
0011
0000
1000
0001
0010
0000
,  // measure 85
0100
1000
0010
0000
0100
0001
0010
0000
,  // measure 86
0100
1000
0001
0000
0100
0010
1000
0000
,  // measure 87
1001
0010
0011
0100
,  // measure 88
1000
0100
1000
0100
0010
0001
0010
0001
,  // measure 89
1000
0010
1000
0010
0100
0001
0100
0001
,  // measure 90
0010
0100
1000
0100
0010
0001
0010
0100
,  // measure 91
1000
0010
1000
0100
0001
1000
0010
0001
,  // measure 92
0020
0000
0000
0000
,  // measure 93
0032
0100
0100
0103
,  // measure 94
2000
0002
0000
3003
,  // measure 95
0110
0000
0000
0000
;
