#VERSION:0.83;
#TITLE:Pokémon;
#SUBTITLE:(Dance Mix);
#ARTIST:John Siegler;
#TITLETRANSLIT:Pokemon;
#SUBTITLETRANSLIT:;
#ARTISTTRANSLIT:;
#GENRE:;
#ORIGIN:;
#CREDIT:;
#BANNER:Pokedance bn.png;
#BACKGROUND:Pokedance bg.png;
#PREVIEWVID:;
#JACKET:;
#CDIMAGE:;
#DISCIMAGE:;
#LYRICSPATH:;
#CDTITLE:;
#MUSIC:Pokemon (Dance Mix).mp3;
#OFFSET:0.180000;
#SAMPLESTART:73.417000;
#SAMPLELENGTH:12.000000;
#SELECTABLE:YES;
#BPMS:0.000=157.030;
#STOPS:;
#DELAYS:;
#WARPS:;
#TIMESIGNATURES:0.000=4=4;
#TICKCOUNTS:0.000=4;
#COMBOS:0.000=1;
#SPEEDS:0.000=1.000=0.000=0;
#SCROLLS:0.000=1.000;
#FAKES:;
#LABELS:0.000=Song Start;
#BGCHANGES:;
#KEYSOUNDS:;
#ATTACKS:
;

//---------------dance-single - ----------------
#NOTEDATA:;
#CHARTNAME:;
#STEPSTYPE:dance-single;
#DESCRIPTION:;
#CHARTSTYLE:;
#DIFFICULTY:Easy;
#METER:3;
#RADARVALUES:0.210353,0.330578,0.091510,0.183019,0.000000,177.000000,166.000000,11.000000,22.000000,0.000000,0.000000,0.000000,0.000000,0.000000,0.210353,0.330578,0.091510,0.183019,0.000000,177.000000,166.000000,11.000000,22.000000,0.000000,0.000000,0.000000,0.000000,0.000000;
#CREDIT:;
#NOTES:
// measure 0
0000
0000
0000
0000
,  // measure 1
0000
0000
0000
0000
,  // measure 2
0000
0000
0000
0000
,  // measure 3
0000
0000
0000
0000
,  // measure 4
0000
0000
0000
0000
,  // measure 5
0000
0000
0000
0000
,  // measure 6
0000
0000
0000
0000
,  // measure 7
0000
0000
0000
0000
,  // measure 8
0000
0000
0020
0000
0000
0030
2000
0000
,  // measure 9
0000
3000
0002
0000
0000
0003
0200
0000
,  // measure 10
0000
0300
2000
0000
0000
0000
0000
0000
,  // measure 11
0000
0002
0000
0000
,  // measure 12
3003
0000
0200
0000
0000
0300
0002
0000
,  // measure 13
0000
0003
2000
0000
0000
3000
0020
0000
,  // measure 14
0000
0030
0002
0000
0000
0000
0000
0000
,  // measure 15
0000
2000
0000
0000
,  // measure 16
3003
0010
1000
0100
,  // measure 17
0000
1000
0000
0001
,  // measure 18
0000
0100
0001
0010
,  // measure 19
0000
0001
0000
1000
,  // measure 20
0000
0001
0100
1000
,  // measure 21
0000
0100
0000
0010
,  // measure 22
0000
1000
0010
0001
,  // measure 23
0000
0010
0000
0100
,  // measure 24
0100
1001
1000
0001
,  // measure 25
1000
0010
0000
0100
,  // measure 26
0000
0010
0100
0010
,  // measure 27
0100
0001
0000
1000
,  // measure 28
0000
0001
0010
0100
,  // measure 29
1000
0010
0000
0100
,  // measure 30
0000
1000
0010
0100
,  // measure 31
0001
0100
0000
0010
,  // measure 32
0000
1001
1000
0100
,  // measure 33
1000
0010
1000
0001
,  // measure 34
0100
0010
0000
1000
,  // measure 35
0000
0001
0000
1000
,  // measure 36
0000
0010
0001
0100
,  // measure 37
0001
0010
0100
1000
,  // measure 38
0001
1000
0000
0010
,  // measure 39
0000
0100
0000
0010
,  // measure 40
0000
1001
0001
1000
,  // measure 41
1000
0010
0100
0100
,  // measure 42
0010
1000
0001
0100
,  // measure 43
0000
0010
0000
0100
,  // measure 44
0000
0100
0001
0100
,  // measure 45
1000
0010
1000
0100
,  // measure 46
1000
0010
0001
0010
,  // measure 47
1000
0000
0000
0100
0000
0000
0100
0000
,  // measure 48
0100
2000
0000
0000
,  // measure 49
0000
0000
0000
0000
,  // measure 50
0000
3000
0002
0000
0000
0000
0000
0000
,  // measure 51
0000
0000
0000
0000
,  // measure 52
0000
0003
2000
0000
0000
0000
0000
0000
,  // measure 53
0000
0000
0000
0000
,  // measure 54
0000
3000
0002
0000
0000
0000
0000
0000
,  // measure 55
0000
0000
0000
0000
,  // measure 56
0000
0003
0010
0000
0100
0000
1000
0000
,  // measure 57
0001
0100
0010
1000
,  // measure 58
0100
0000
0020
0000
0000
0030
2000
0000
,  // measure 59
0000
3000
0002
0000
0000
0003
0200
0000
,  // measure 60
0000
0300
0010
0000
0100
0000
1000
0000
,  // measure 61
0001
0010
1000
0100
,  // measure 62
0010
0000
0200
0000
0000
0300
0002
0000
,  // measure 63
0003
0010
0010
0100
,  // measure 64
0100
1001
0100
0001
,  // measure 65
1000
0110
0000
1001
,  // measure 66
0000
1000
0010
1000
,  // measure 67
0001
0110
0000
1001
,  // measure 68
0000
0100
0010
1000
,  // measure 69
0001
1100
0000
0011
,  // measure 70
0000
0010
0100
0001
,  // measure 71
0100
1000
0010
0001
,  // measure 72
0010
1001
0000
0000
;

//---------------dance-single - ----------------
#NOTEDATA:;
#CHARTNAME:;
#STEPSTYPE:dance-single;
#DESCRIPTION:;
#CHARTSTYLE:;
#DIFFICULTY:Medium;
#METER:5;
#RADARVALUES:0.339893,0.450789,0.166381,0.116467,0.000000,286.000000,266.000000,20.000000,14.000000,0.000000,0.000000,0.000000,0.000000,0.000000,0.339893,0.450789,0.166381,0.116467,0.000000,286.000000,266.000000,20.000000,14.000000,0.000000,0.000000,0.000000,0.000000,0.000000;
#CREDIT:;
#NOTES:
// measure 0
0000
0000
0000
0000
,  // measure 1
0000
0000
0000
0000
,  // measure 2
0000
0000
0000
0000
,  // measure 3
0000
0000
0000
0000
,  // measure 4
0000
0000
0000
0000
,  // measure 5
0000
0000
0000
0000
,  // measure 6
0000
0000
0000
0000
,  // measure 7
0000
0000
0000
0000
,  // measure 8
0000
0000
0020
0000
0000
0030
0200
0000
,  // measure 9
0000
0300
0002
0000
0000
0003
2000
0000
,  // measure 10
3000
2001
0000
0010
,  // measure 11
0000
0001
0000
0100
,  // measure 12
3000
0000
0200
0000
0000
0300
0020
0000
,  // measure 13
0000
0030
2000
0000
0000
3000
0002
0000
,  // measure 14
0003
1002
0000
0100
,  // measure 15
0000
1000
0000
0010
,  // measure 16
0003
1001
0010
0001
,  // measure 17
0001
0001
0001
0001
,  // measure 18
0001
1001
0100
1000
,  // measure 19
1000
1000
1000
1000
,  // measure 20
1000
1001
0010
0001
,  // measure 21
0001
0001
0001
0001
,  // measure 22
0001
1001
0100
1000
,  // measure 23
1000
1000
1000
1000
,  // measure 24
1000
0000
0010
0000
0001
1000
0001
0000
,  // measure 25
0010
0100
0010
0100
,  // measure 26
0010
0000
0100
0000
1000
0001
1000
0000
,  // measure 27
0100
0010
0100
0010
,  // measure 28
0100
0000
1000
0000
0010
1000
0100
0000
,  // measure 29
0001
1000
0010
0100
,  // measure 30
0001
0000
0010
0000
0001
1000
0100
0000
,  // measure 31
0100
0010
0010
0100
,  // measure 32
0100
1001
0010
1000
,  // measure 33
0100
0001
1000
0100
,  // measure 34
0010
1000
0100
0000
0001
0000
0010
0000
,  // measure 35
0001
0000
0100
0001
1000
0000
0100
0000
,  // measure 36
0010
1001
0100
0010
,  // measure 37
0001
0010
0001
0100
,  // measure 38
1000
0001
0010
0000
0100
0000
1000
0000
,  // measure 39
0001
0000
0100
1000
0010
0000
0100
0000
,  // measure 40
0100
1001
0001
1000
,  // measure 41
0100
0010
0100
0001
,  // measure 42
1000
0010
0100
0000
0001
0000
0010
0000
,  // measure 43
0100
0010
1000
0100
,  // measure 44
0001
0100
0010
0000
1000
0100
0000
1000
,  // measure 45
0000
0010
0000
1000
0000
0100
0000
1000
,  // measure 46
0000
0010
0100
0000
0001
0000
1000
0000
,  // measure 47
0001
0000
0000
0100
0000
0100
0100
0000
,  // measure 48
0100
2001
0010
0001
,  // measure 49
0010
0001
0100
0001
,  // measure 50
3100
1002
0100
1000
,  // measure 51
0100
1000
0010
1000
,  // measure 52
0013
0210
0001
0010
,  // measure 53
0001
0010
1000
0010
,  // measure 54
1300
0120
1000
0100
,  // measure 55
1000
0100
0001
0100
,  // measure 56
0031
0000
1001
0000
0010
1000
0100
0000
,  // measure 57
0001
0100
0001
0100
,  // measure 58
1000
0010
0100
0000
0001
0000
1000
0000
,  // measure 59
0010
0001
0100
0000
0001
1000
0100
0000
,  // measure 60
0010
0000
1001
0000
0010
0001
0100
0000
,  // measure 61
0001
1000
0001
1000
,  // measure 62
0010
1000
0001
0000
0100
0001
1000
0000
,  // measure 63
0010
1001
1001
0110
,  // measure 64
1001
0100
0000
0000
0001
0010
0100
0000
,  // measure 65
0100
1000
1000
0001
,  // measure 66
0001
0010
0010
0100
,  // measure 67
0100
0001
0100
1000
,  // measure 68
0010
0100
0000
0000
0001
0010
0100
0000
,  // measure 69
1000
0010
0100
0001
,  // measure 70
0010
0100
1000
0000
0001
0100
1000
0000
,  // measure 71
0010
0001
1000
0000
0010
0100
1000
0000
,  // measure 72
0001
0100
1001
0000
0000
0000
0000
0000
;

//---------------dance-single - ----------------
#NOTEDATA:;
#CHARTNAME:;
#STEPSTYPE:dance-single;
#DESCRIPTION:;
#CHARTSTYLE:;
#DIFFICULTY:Hard;
#METER:8;
#RADARVALUES:0.433779,0.540946,0.174700,0.232933,0.000000,365.000000,344.000000,21.000000,28.000000,0.000000,0.000000,0.000000,0.000000,0.000000,0.433779,0.540946,0.174700,0.232933,0.000000,365.000000,344.000000,21.000000,28.000000,0.000000,0.000000,0.000000,0.000000,0.000000;
#CREDIT:;
#NOTES:
// measure 0
0000
0000
0000
0000
,  // measure 1
0000
0000
0000
0000
,  // measure 2
0000
0000
0000
0000
,  // measure 3
0000
0000
0000
0000
,  // measure 4
0000
0000
0000
0000
,  // measure 5
0000
0000
0000
0000
,  // measure 6
0000
0000
0000
0000
,  // measure 7
0000
0000
0000
0000
,  // measure 8
0000
0020
0000
2000
,  // measure 9
0000
3000
0200
0000
0000
0300
0002
0000
,  // measure 10
0033
0020
0000
0032
,  // measure 11
0000
0203
0000
2300
,  // measure 12
3000
0200
0000
0002
,  // measure 13
0000
0003
0020
0000
0000
0030
2000
0000
,  // measure 14
3300
0200
0000
2300
,  // measure 15
0000
3020
0000
0032
,  // measure 16
0003
0000
1001
0000
0010
0001
0100
0001
,  // measure 17
0100
0001
0100
0001
0100
0001
0100
0001
,  // measure 18
0100
0001
1000
0000
0010
1000
0100
0000
,  // measure 19
0001
0010
0100
1000
,  // measure 20
0010
0000
1001
0000
0010
1000
0100
1000
,  // measure 21
0100
1000
0100
1000
0100
1000
0100
1000
,  // measure 22
0100
1000
0001
0000
0100
0001
0010
0000
,  // measure 23
1000
0000
0010
0001
1000
0100
1000
0010
,  // measure 24
1000
0001
1001
0000
0010
1000
0001
0100
,  // measure 25
0001
1000
0001
0010
0001
1000
0001
0100
,  // measure 26
0001
0010
0001
0000
0100
0010
1000
0000
,  // measure 27
0010
0100
0001
1000
,  // measure 28
0001
0000
1001
0000
0100
0001
1000
0010
,  // measure 29
1000
0001
1000
0100
1000
0001
1000
0010
,  // measure 30
1000
0100
1000
0000
0010
0100
0001
0000
,  // measure 31
0100
0000
0010
0000
0010
1000
0100
0001
,  // measure 32
0100
0010
1001
0000
0010
1000
0100
0000
,  // measure 33
0001
0100
0000
0010
0000
0010
1000
0100
,  // measure 34
1000
0000
0001
0000
0010
0100
1000
0000
,  // measure 35
0001
0000
1000
0100
1000
0000
0010
0001
,  // measure 36
0010
1001
0110
0100
,  // measure 37
1000
0100
0010
0000
0001
0100
0010
0000
,  // measure 38
1000
0100
0010
0001
1000
0010
1000
0010
,  // measure 39
0001
0010
0001
0010
1000
0010
0100
0001
,  // measure 40
0100
0000
1001
0000
0010
1000
0100
0001
,  // measure 41
0100
1000
0010
0000
0100
0000
0001
0000
,  // measure 42
1000
0000
0010
0000
0100
0001
0010
1000
,  // measure 43
0001
0100
0010
0000
0100
0000
0001
0000
,  // measure 44
0010
0000
1001
0000
0010
1000
0000
0100
,  // measure 45
0001
1000
0000
0100
1000
0010
0000
0010
,  // measure 46
0100
0010
0001
0010
1000
0010
0001
0100
,  // measure 47
0001
0010
0001
0100
0000
0010
1001
0000
,  // measure 48
0110
0000
0200
0000
2300
0000
0000
3002
,  // measure 49
0000
0000
0023
0000
0230
0000
0000
0302
,  // measure 50
0000
0000
2003
0000
3020
0000
0000
0032
,  // measure 51
0000
0000
2003
0000
3200
0000
0000
0320
,  // measure 52
0000
1030
0001
0100
,  // measure 53
0010
0100
1000
0001
,  // measure 54
0010
1000
0010
0001
,  // measure 55
0100
0001
0010
0100
,  // measure 56
1000
0000
1001
0000
0010
1000
0100
1000
,  // measure 57
0100
1000
0001
1000
0010
1000
0001
1000
,  // measure 58
0100
0010
0100
0000
0001
0000
0101
0000
,  // measure 59
1010
1000
1000
0000
0100
0000
0010
0000
,  // measure 60
0011
0000
1001
0000
0100
1000
0001
1000
,  // measure 61
0001
1000
0010
1000
0001
1000
0001
1000
,  // measure 62
0100
1000
0010
0001
0100
0000
0010
0000
,  // measure 63
0011
0000
1100
1000
1000
0000
0100
0000
,  // measure 64
1001
0000
1001
0000
0100
1000
0010
0000
,  // measure 65
0010
0000
0010
0000
0100
1000
0010
0000
,  // measure 66
0010
0000
0010
0000
0100
0001
0010
0000
,  // measure 67
0010
0000
0010
0000
0100
0001
0010
0000
,  // measure 68
0010
0000
0010
1000
0010
1000
0100
1000
,  // measure 69
0001
0100
0010
1000
0001
0010
0100
1000
,  // measure 70
0010
0100
0001
0010
0100
1000
0010
0100
,  // measure 71
0001
0010
0100
1000
0010
1000
0100
1000
,  // measure 72
0010
0100
1001
0000
0000
0000
0000
0000
;

//---------------dance-double - ----------------
#NOTEDATA:;
#CHARTNAME:;
#STEPSTYPE:dance-double;
#DESCRIPTION:;
#CHARTSTYLE:;
#DIFFICULTY:Easy;
#METER:3;
#RADARVALUES:0.229368,0.360631,0.074871,0.000000,0.000000,193.000000,184.000000,9.000000,0.000000,0.000000,0.000000,0.000000,0.000000,0.000000,0.229368,0.360631,0.074871,0.000000,0.000000,193.000000,184.000000,9.000000,0.000000,0.000000,0.000000,0.000000,0.000000,0.000000;
#CREDIT:;
#NOTES:
// measure 0
00000000
00000000
00000000
00000000
,  // measure 1
00000000
00000000
00000000
00000000
,  // measure 2
00000000
00000000
00000000
00000000
,  // measure 3
00000000
00000000
00000000
00000000
,  // measure 4
00000000
00000000
00000000
00000000
,  // measure 5
00000000
00000000
00000000
00000000
,  // measure 6
00000000
00000000
00000000
00000000
,  // measure 7
00000000
00000000
00000000
00000000
,  // measure 8
00000000
00100000
00000000
00000000
,  // measure 9
00000000
10000000
00000000
00000000
,  // measure 10
00000000
01000000
00000000
00000000
,  // measure 11
00000000
00010000
00000000
00000000
,  // measure 12
00000000
00001000
00000000
00000000
,  // measure 13
00000000
00000100
00000000
00000000
,  // measure 14
00000000
00000010
00000000
00000000
,  // measure 15
00000000
00000001
00000000
00000000
,  // measure 16
00000000
00000010
00001000
00000100
,  // measure 17
00000000
00000001
00000100
00001000
,  // measure 18
00010000
01000000
10000000
00100000
,  // measure 19
00000000
00100000
10000000
01000000
,  // measure 20
10000000
00100000
01000000
10000000
,  // measure 21
00000000
10000000
01000000
00010000
,  // measure 22
00001000
00000100
00000001
00000010
,  // measure 23
00000000
00000001
00000100
00000010
,  // measure 24
00000100
00000010
00000001
00000100
,  // measure 25
00000000
00000010
00000100
00001000
,  // measure 26
00010000
00100000
01000000
10000000
,  // measure 27
00000000
00100000
10000000
00100000
,  // measure 28
00010000
01000000
00100000
10010000
,  // measure 29
00000000
10000000
01000000
00010000
,  // measure 30
00001000
00000100
00000010
00000001
,  // measure 31
00000000
00001000
00000010
00000100
,  // measure 32
00001001
00000100
00000010
00001000
,  // measure 33
00010000
01000000
00100000
10000000
,  // measure 34
01000000
00100000
00010000
00100000
,  // measure 35
10010000
10000000
01000000
00100000
,  // measure 36
00010000
10000000
01000000
00010000
,  // measure 37
00001000
00000100
00000001
00000010
,  // measure 38
00001001
00000100
00001000
00010000
,  // measure 39
00100000
01000000
00010000
00011000
,  // measure 40
00000000
00001001
00000100
00000010
,  // measure 41
00000001
00000010
00000100
00001000
,  // measure 42
00001000
00010000
01000000
10000000
,  // measure 43
01000000
00100000
01000000
00010000
,  // measure 44
01000000
00010000
00001000
00001000
,  // measure 45
00010000
00010000
00001000
00001000
,  // measure 46
00010000
00100000
01000000
10000000
,  // measure 47
00010000
00000000
00000000
00000100
00000000
00000100
00000100
00000000
,  // measure 48
00000100
00010000
00000000
00000000
,  // measure 49
00000000
10000000
00000000
00000000
,  // measure 50
00000000
00001000
00000000
00000000
,  // measure 51
00000000
00000001
00000000
00000000
,  // measure 52
00000000
01000000
00000000
00000000
,  // measure 53
00000000
00100000
00000000
00000000
,  // measure 54
00000000
00000100
00000000
00000000
,  // measure 55
00000000
00000010
00000000
00000000
,  // measure 56
00000000
00100000
00000000
10000000
,  // measure 57
00000000
01000000
00000000
00010000
,  // measure 58
00000000
00001000
00000000
00000010
,  // measure 59
00000000
00000001
00000000
00000100
,  // measure 60
00000000
00000001
00000000
00000010
,  // measure 61
00000000
00000100
00000000
00001000
,  // measure 62
00000000
00010000
00000000
00100000
,  // measure 63
00000000
01000000
01000000
10000000
,  // measure 64
10000000
10000000
00000000
00000000
10000000
00000000
01000000
00000000
,  // measure 65
00010000
00001000
00000100
00000001
,  // measure 66
00000010
00000000
00000001
00000100
,  // measure 67
00001000
00010000
00100000
00010000
,  // measure 68
01000000
00000000
10000000
00100000
,  // measure 69
00010000
00001000
00000100
00000001
,  // measure 70
00000010
00001001
00000100
00000010
,  // measure 71
00001000
00011000
00010000
00100000
,  // measure 72
01000000
10010000
00000000
00000000
;

//---------------dance-double - ----------------
#NOTEDATA:;
#CHARTNAME:;
#STEPSTYPE:dance-double;
#DESCRIPTION:;
#CHARTSTYLE:;
#DIFFICULTY:Medium;
#METER:4;
#RADARVALUES:0.272152,0.390683,0.149743,0.000000,0.000000,229.000000,211.000000,18.000000,0.000000,0.000000,0.000000,0.000000,0.000000,0.000000,0.272152,0.390683,0.149743,0.000000,0.000000,229.000000,211.000000,18.000000,0.000000,0.000000,0.000000,0.000000,0.000000,0.000000;
#CREDIT:;
#NOTES:
// measure 0
00000000
00000000
00000000
00000000
,  // measure 1
00000000
00000000
00000000
00000000
,  // measure 2
00000000
00000000
00000000
00000000
,  // measure 3
00000000
00000000
00000000
00000000
,  // measure 4
00000000
00000000
00000000
00000000
,  // measure 5
00000000
00000000
00000000
00000000
,  // measure 6
00000000
00000000
00000000
00000000
,  // measure 7
00000000
00000000
00000000
00000000
,  // measure 8
00000000
00000010
00000000
00000001
,  // measure 9
00000000
00000100
00000000
00000010
,  // measure 10
00000000
00000001
00000000
00001000
,  // measure 11
00000000
00000010
00000000
00000100
,  // measure 12
00000000
01000000
00000000
10000000
,  // measure 13
00000000
00010000
00000000
00100000
,  // measure 14
00000000
01000000
00000000
10000000
,  // measure 15
00000000
00010000
00000000
00100000
,  // measure 16
00000000
01000000
10000000
00100000
,  // measure 17
01000000
10000000
00100000
10000000
,  // measure 18
00010000
00001000
00000100
00000010
,  // measure 19
00000001
00000010
00000001
00000100
,  // measure 20
00001000
00010000
00100000
10000000
,  // measure 21
01000000
10000000
00100000
01000000
,  // measure 22
00010000
00001000
00000100
00000010
,  // measure 23
00000001
00000100
00000010
00000001
,  // measure 24
00001000
00010000
00100000
01000000
,  // measure 25
00010000
00001000
00000100
00000010
,  // measure 26
00001000
00010000
00100000
01000000
,  // measure 27
00010000
00001000
00000100
00000010
,  // measure 28
00001000
00010000
10000000
00100000
,  // measure 29
01000000
00010000
10000000
00100000
,  // measure 30
00010000
00001000
00000100
00000010
,  // measure 31
00000001
00000100
00000010
00000001
,  // measure 32
00001000
00000110
00001001
00001001
,  // measure 33
00000110
00000100
00001000
00000010
,  // measure 34
00001000
00010000
10000000
01000000
,  // measure 35
00100000
00010000
10000000
01000000
,  // measure 36
00010000
00000110
00001001
00001001
,  // measure 37
00000110
00000100
00001000
00000100
,  // measure 38
00000001
00000100
00000010
00000001
,  // measure 39
00001000
00010000
10000000
00100000
,  // measure 40
01000000
00010000
10000000
00010000
,  // measure 41
00010000
00100000
01000000
01000000
,  // measure 42
00010000
00001000
00000001
00000100
,  // measure 43
00000001
00000010
00000001
00000100
,  // measure 44
00001000
00010000
00100000
01000000
,  // measure 45
00010000
00001000
00000010
00000100
,  // measure 46
00001000
00010000
10000000
00010000
,  // measure 47
10000000
00000000
00000000
00010000
00000000
00001000
00010000
00000000
,  // measure 48
00001000
00010000
00000000
00010000
,  // measure 49
00000000
10000000
00000000
10000000
,  // measure 50
00000000
00100000
00000000
00100000
,  // measure 51
00000000
01000000
00000000
01000000
,  // measure 52
00000000
00000100
00000000
00000100
,  // measure 53
00000000
00000010
00000000
00000010
,  // measure 54
00000000
00001000
00000000
00001000
,  // measure 55
00000000
00000001
00000000
00000001
,  // measure 56
00000000
01000000
00000000
00000010
,  // measure 57
00000000
00001000
00000000
00010000
,  // measure 58
00000000
00001000
00000000
01000000
,  // measure 59
00000000
00010000
00000000
00000010
,  // measure 60
00000000
01000000
00000000
00000010
,  // measure 61
00000000
00001000
00000000
00010000
,  // measure 62
00000000
00001000
00000000
01000000
,  // measure 63
00000000
00010000
00010000
00001000
,  // measure 64
00001000
00001001
00000100
00000001
,  // measure 65
00001000
00000110
00000001
00000010
,  // measure 66
00000100
00001001
00000100
00000001
,  // measure 67
00001000
00011000
01000000
10000000
,  // measure 68
00100000
10010000
01000000
00100000
,  // measure 69
00010000
01100000
10000000
01000000
,  // measure 70
00100000
10010000
01000000
00010000
,  // measure 71
01000000
10000000
00100000
10010000
,  // measure 72
00011000
00001001
00000000
00000000
;

//---------------dance-double - ----------------
#NOTEDATA:;
#CHARTNAME:;
#STEPSTYPE:dance-double;
#DESCRIPTION:;
#CHARTSTYLE:;
#DIFFICULTY:Hard;
#METER:9;
#RADARVALUES:0.522912,0.570999,0.099829,0.000000,0.016638,440.000000,428.000000,12.000000,0.000000,0.000000,0.000000,0.000000,0.000000,0.000000,0.522912,0.570999,0.099829,0.000000,0.016638,440.000000,428.000000,12.000000,0.000000,0.000000,0.000000,0.000000,0.000000,0.000000;
#CREDIT:;
#NOTES:
// measure 0
00000000
00000000
00000000
00000000
,  // measure 1
00000000
00000000
00000000
00000000
,  // measure 2
00000000
00000000
00000000
00000000
,  // measure 3
00000000
00000000
00000000
00000000
,  // measure 4
00000000
00000000
00000000
00000000
,  // measure 5
00000000
00000000
00000000
00000000
,  // measure 6
00000000
00000000
00000000
00000000
,  // measure 7
00000000
00000000
00000000
00000000
,  // measure 8
00000000
00100000
00010000
01000000
,  // measure 9
10000000
00010000
00001000
00000100
,  // measure 10
00000001
00000100
00000001
00000010
,  // measure 11
00001000
00010000
10000000
01000000
,  // measure 12
00100000
10010000
01000000
00100000
,  // measure 13
00010000
00011000
00000100
00000001
,  // measure 14
00001000
00010000
00010000
01000000
,  // measure 15
00010000
00001000
00000100
00000010
,  // measure 16
00011000
00011000
00000000
00000000
01000000
10000000
00100000
10000000
,  // measure 17
01000000
00010000
00100000
00010000
01000000
00100000
00001000
00010000
,  // measure 18
00000100
00000001
00000010
00000000
00000001
00000100
00000010
00001000
,  // measure 19
00000100
00000010
00000100
00010000
00001000
00100000
01000000
10000000
,  // measure 20
00100000
01000000
00100000
00000000
01000000
10000000
00100000
10000000
,  // measure 21
01000000
00010000
00100000
00010000
01000000
00100000
00001000
00010000
,  // measure 22
00000100
00000001
00000010
00000000
00000001
00000100
00000010
00001000
,  // measure 23
00000100
00000010
00000100
00010000
00001000
00100000
01000000
10000000
,  // measure 24
00100000
00000000
00100000
10000000
00010000
01000000
00100000
10000000
,  // measure 25
01000000
00100000
01000000
10000000
00010000
01000000
00100000
10000000
,  // measure 26
01000000
00010000
00001000
00000100
00000010
00000001
00001000
00000010
,  // measure 27
00000100
00000001
00001000
00000100
00000010
00000100
00001000
00000001
,  // measure 28
00001000
00000000
00100000
10000000
00010000
01000000
00100000
10000000
,  // measure 29
01000000
00100000
01000000
10000000
00010000
01000000
00100000
10000000
,  // measure 30
01000000
00010000
00001000
00000100
00000010
00000001
00001000
00000010
,  // measure 31
00000100
00000001
00001000
00000100
00000010
00000100
00001000
00000001
,  // measure 32
00001000
00000000
00000010
00000001
00000100
00000000
00001000
00000010
,  // measure 33
00001000
00000000
00000100
00001000
00000001
00000000
00000100
00010000
,  // measure 34
00001000
00000000
00001000
00001000
00001000
00001000
00010000
00010000
,  // measure 35
00010000
00000000
00100000
10000000
01000000
00000000
10000000
01000000
,  // measure 36
00010000
00000000
00100000
01000000
00010000
00000000
10000000
00100000
,  // measure 37
01000000
00000000
01000000
00100000
01000000
00000000
00010000
10000000
,  // measure 38
00010000
10000000
10010000
00100000
00100000
00000000
00010000
00010000
,  // measure 39
00010000
00000000
11000000
10000000
10000000
00000000
00110000
00010000
,  // measure 40
00010000
00000000
00010000
00010000
00100000
00100000
10000000
01000000
,  // measure 41
00100000
01000000
00010000
10000000
01000000
10000000
00100000
10000000
,  // measure 42
00010000
01000000
00100000
10000000
00010000
00100000
01000000
10000000
,  // measure 43
00010000
01000000
00100000
10000000
00010000
00100000
01000000
10000000
,  // measure 44
01000000
00010000
00001000
00001000
00000100
00000001
00000001
00000010
,  // measure 45
00000100
00001000
00000010
00000010
00001000
00000100
00000010
00000010
,  // measure 46
00000001
00001000
00000010
00000001
00000100
00001000
00010000
01000000
,  // measure 47
10000000
00100000
01000000
10010000
00000000
01100000
10010000
00000000
,  // measure 48
01100000
00000000
10000000
00000000
00100000
00000000
00010000
01000000
,  // measure 49
00000000
00010000
00001000
00000000
00000100
00000000
00000001
00000010
,  // measure 50
00000000
00001000
00010000
00000000
00100000
00000000
00010000
01000000
,  // measure 51
00000000
00010000
00001000
00000000
00000100
00000000
00000001
00000010
,  // measure 52
00000000
00001000
00010000
00000000
00100000
00000000
01000000
00100000
,  // measure 53
00000000
10000000
00100000
00000000
01000000
00000000
00010000
00100000
,  // measure 54
00000000
00010000
00001000
00000000
00000100
00000000
00000001
00001000
,  // measure 55
00000000
00000010
00000100
00000000
00000001
00000000
00001000
00000010
,  // measure 56
00000000
00001000
00010000
10000000
01000000
00100000
01000000
10000000
,  // measure 57
00010000
00000000
00001000
00000001
00000010
00000100
00000010
00000001
,  // measure 58
00001000
00000000
00000001
00000100
00001000
00010000
00100000
01000000
,  // measure 59
10000000
00000000
10000000
00100000
00010000
00001000
00000100
00000010
,  // measure 60
00000001
00000000
00000010
00001000
00000100
00000010
00000001
00000100
,  // measure 61
00000010
00001000
00000100
00000010
00000001
00000100
00000010
00001000
,  // measure 62
00000100
00001000
00010000
00100000
01000000
10000000
00100000
01000000
,  // measure 63
00010000
00100000
01000000
10000000
00100000
01000000
00010000
00100000
,  // measure 64
01000000
00000000
00000000
00000000
00100000
00000000
00010000
10000000
00000000
01000000
00100000
00000000
00010000
00000000
01000000
00000000
,  // measure 65
00100000
00010000
10000000
00010000
00100000
01000000
10000000
00010000
,  // measure 66
00010000
00000000
00000000
00000000
00001000
00000000
00000001
00001000
00000000
00000100
00000010
00000000
00000001
00000000
00000100
00000000
,  // measure 67
00000010
00000001
00000100
00001000
00000010
00000100
00000001
00000010
,  // measure 68
00001000
00000000
00010000
10000000
00100000
00100000
01000000
10000000
,  // measure 69
00010000
01000000
00100000
01000000
00010000
10000000
01000000
00010000
,  // measure 70
01000000
00010000
00001000
00000100
00000001
00000010
00000001
00000100
,  // measure 71
00000010
00000100
00001000
00000100
00000010
00000100
00000001
00000100
,  // measure 72
00000010
00000100
00001001
00000000
00000000
00000000
00000000
00000000
;
