#TITLE:Paranoia Evil;
#SUBTITLE:;
#ARTIST:228;
#TITLETRANSLIT:;
#SUBTITLETRANSLIT:;
#ARTISTTRANSLIT:;
#GENRE:;
#CREDIT:;
#BANNER:pare bn.png;
#BACKGROUND:pare bg.png;
#LYRICSPATH:;
#CDTITLE:;
#MUSIC:Paranoia Evil.mp3;
#OFFSET:-0.910000;
#SAMPLESTART:51.670002;
#SAMPLELENGTH:12.000000;
#SELECTABLE:YES;
#BPMS:0.000000=228.000000
;
#STOPS:
;
#BGCHANGES:;
#KEYSOUNDS:;
#ATTACKS:;

//---------------dance-single - ----------------
#NOTES:
     dance-single:
     :
     Easy:
     7:
     0.529692,0.682320,0.258020,0.000000,0.000000,388.000000,361.000000,27.000000,0.000000,0.000000,0.000000,0.529692,0.682320,0.258020,0.000000,0.000000,388.000000,361.000000,27.000000,0.000000,0.000000,0.000000:
// measure 0
0000
0000
0000
0000
,  // measure 1
0000
0000
0000
0000
,  // measure 2
0000
0000
0000
0000
,  // measure 3
0000
0000
0000
0000
,  // measure 4
0000
1001
0010
0010
,  // measure 5
0010
0010
0010
0010
,  // measure 6
0010
0010
0010
0010
,  // measure 7
0010
0000
0010
0000
0010
0100
0001
0000
,  // measure 8
1000
1001
0100
0100
,  // measure 9
0100
0100
0100
0100
,  // measure 10
0100
0100
0100
0100
,  // measure 11
0100
0000
0100
0000
0100
0010
1000
0000
,  // measure 12
0001
1000
0100
0001
,  // measure 13
0100
1000
0100
0001
,  // measure 14
0100
1000
0010
0001
,  // measure 15
0010
1000
0010
0001
,  // measure 16
0010
1000
0100
0001
,  // measure 17
0100
1000
0100
0001
,  // measure 18
0100
1000
0010
0001
,  // measure 19
0010
1000
0010
0001
,  // measure 20
0010
1000
0000
1000
,  // measure 21
0000
0001
0000
1000
,  // measure 22
0000
0010
0000
0100
,  // measure 23
0000
0000
0010
0000
1000
0000
0001
0100
,  // measure 24
0001
0100
0001
0000
0010
0000
0100
0000
,  // measure 25
1000
0001
0010
0001
,  // measure 26
0100
1001
0100
1001
,  // measure 27
0010
0000
0110
0000
0001
0000
1000
0100
,  // measure 28
1000
0100
0001
1000
0000
1000
0000
0001
,  // measure 29
0000
0001
0000
0010
0000
0010
0000
0100
,  // measure 30
0000
0100
0000
0010
0000
0010
0000
0010
,  // measure 31
0000
0001
0000
0000
0000
0100
0000
0000
,  // measure 32
0010
0000
1000
0001
0000
0001
0000
1000
,  // measure 33
0000
1000
0000
0100
0000
0100
0000
0010
,  // measure 34
0000
0010
0000
1001
0000
1001
0000
0110
,  // measure 35
0000
1001
0000
0000
0000
0010
0000
0000
,  // measure 36
0100
0000
1000
0000
0000
0100
0000
0000
,  // measure 37
0001
0000
1000
0000
0000
0100
0000
0000
,  // measure 38
0001
0000
0001
0000
0000
0010
0000
0000
,  // measure 39
1000
0000
0010
0000
0000
0100
0000
0000
,  // measure 40
0010
0000
0001
0000
0000
0010
0000
0000
,  // measure 41
1000
1000
0100
0001
,  // measure 42
0100
0010
0001
0010
,  // measure 43
1000
0000
0001
0001
0001
0001
0001
0000
,  // measure 44
0000
0000
0010
0000
0100
0000
1000
0001
,  // measure 45
1000
0001
0010
0000
0100
0000
0010
0000
,  // measure 46
0000
1000
0001
1000
,  // measure 47
0001
1000
0001
1000
,  // measure 48
0001
0000
0000
0010
0010
0010
0010
0000
,  // measure 49
0010
1000
0100
0001
,  // measure 50
1001
0100
0001
0010
,  // measure 51
1001
0001
0010
1001
,  // measure 52
0010
0000
0110
0000
1001
0000
1000
0001
,  // measure 53
1000
0001
1000
0000
0100
0000
0001
0000
,  // measure 54
0100
0010
0100
0000
0001
0000
0010
0000
,  // measure 55
0001
1000
0001
0000
0010
0000
1001
0000
,  // measure 56
0010
0000
0110
0000
1001
0000
1000
0001
,  // measure 57
1000
0001
0000
1000
0001
1000
0001
1000
,  // measure 58
0001
1000
0001
0000
0000
1000
0000
0000
,  // measure 59
0001
0000
0000
0010
0100
0010
0100
0010
,  // measure 60
0100
0010
0100
0000
0000
0010
0000
0000
,  // measure 61
0100
1000
0010
0001
,  // measure 62
0100
0001
0010
1000
,  // measure 63
0100
1000
0110
0001
,  // measure 64
1001
0000
0010
0010
0010
0010
0010
0000
,  // measure 65
0000
1000
0100
1000
,  // measure 66
0100
0001
0100
0001
,  // measure 67
0100
0010
0001
0010
,  // measure 68
0001
0000
0010
0000
1000
0000
0010
0001
,  // measure 69
0010
0001
1000
0000
0100
0000
1000
0000
,  // measure 70
0100
0001
0100
0001
,  // measure 71
0100
0010
0001
0010
,  // measure 72
0001
0000
0010
0000
1000
0000
0010
1000
,  // measure 73
0010
1000
0010
0000
1000
0000
0100
0000
,  // measure 74
0001
0100
1000
0010
,  // measure 75
1000
0010
1000
0100
,  // measure 76
0001
1000
0001
0100
,  // measure 77
0010
0000
1000
0100
0001
0000
0100
0000
,  // measure 78
1000
1001
0100
1000
,  // measure 79
0100
0000
1000
0100
0001
0000
0100
0000
,  // measure 80
1000
1001
1000
0001
,  // measure 81
1000
0000
0010
1000
0100
0000
0001
0000
,  // measure 82
0100
1001
0110
1000
,  // measure 83
0001
0000
0100
1000
0010
0000
1000
0000
,  // measure 84
0100
1001
0110
1000
,  // measure 85
0001
0000
1000
0001
1000
0000
0001
0000
,  // measure 86
1000
0100
0001
0010
,  // measure 87
0110
0000
1000
0001
1000
0000
0100
1000
,  // measure 88
0100
0000
0010
0100
0010
0000
0001
0010
,  // measure 89
0001
1001
0000
0000
;

//---------------dance-single - ----------------
#NOTES:
     dance-single:
     :
     Medium:
     9:
     0.671671,0.724965,0.401365,0.000000,0.000000,492.000000,450.000000,42.000000,0.000000,0.000000,0.000000,0.671671,0.724965,0.401365,0.000000,0.000000,492.000000,450.000000,42.000000,0.000000,0.000000,0.000000:
// measure 0
0000
0000
0000
0000
,  // measure 1
0000
0000
0000
0000
,  // measure 2
0000
0000
0000
0000
,  // measure 3
0000
0000
0000
0000
,  // measure 4
0000
0001
0001
1000
,  // measure 5
1000
0100
0100
0010
,  // measure 6
0010
1000
0010
0001
,  // measure 7
0100
0000
1001
0000
1000
0100
0001
0000
,  // measure 8
1001
1000
1001
0010
,  // measure 9
0110
0001
1001
0100
,  // measure 10
0110
1000
1000
0001
,  // measure 11
0001
0000
1001
0000
0100
0100
0100
0000
,  // measure 12
1001
0000
0010
1000
0100
0000
0001
0000
,  // measure 13
1000
0000
0100
1000
0010
0000
1000
0100
,  // measure 14
0001
0000
0010
0001
0100
0000
1000
0000
,  // measure 15
0001
0000
0100
0001
0010
0000
0001
0100
,  // measure 16
1000
0000
0010
1000
0100
0000
0001
0000
,  // measure 17
1000
0000
0100
1000
0010
0000
1000
0100
,  // measure 18
0001
0000
0010
0001
0100
0000
1000
0000
,  // measure 19
0001
0000
0100
0001
0010
0000
0001
0100
,  // measure 20
1000
0000
1000
0100
1000
0000
0010
1000
,  // measure 21
0010
0000
0001
0010
0001
0000
0100
0001
,  // measure 22
0100
0000
1000
0100
1000
0000
0010
1000
,  // measure 23
0010
0000
0001
1000
0001
1000
0010
0100
,  // measure 24
0010
0100
1000
0100
1000
0100
0010
0100
,  // measure 25
0010
0100
0001
0100
0001
0100
0010
0100
,  // measure 26
0010
0100
1000
0100
0001
0100
1000
0100
,  // measure 27
0001
0100
1000
0010
0001
0010
1000
0010
,  // measure 28
0001
0010
1000
0001
0000
0100
0000
1000
,  // measure 29
0000
0010
0000
0100
0000
1000
0000
0001
,  // measure 30
0000
0100
0000
1000
0000
0010
0000
0001
,  // measure 31
0000
0010
0000
1000
0100
0001
0000
0100
,  // measure 32
1000
0000
0010
0100
0000
0010
0000
0001
,  // measure 33
0000
1000
0000
1100
0000
1010
0000
0011
,  // measure 34
0000
0101
0000
0110
0000
1001
0000
0110
,  // measure 35
0000
1001
0000
1000
1000
1000
0000
0001
,  // measure 36
0001
0000
0000
1000
0100
0001
0100
1000
,  // measure 37
0100
0001
0100
0000
0000
0010
0000
0000
,  // measure 38
0100
0000
0000
1000
0010
0001
0010
1000
,  // measure 39
0010
0001
0010
0000
0000
0100
0000
0000
,  // measure 40
0010
0000
0000
0010
0001
1000
0100
0010
,  // measure 41
0001
1000
0100
0001
1000
0001
1000
0001
,  // measure 42
1000
0001
1000
0000
0010
0000
0100
0000
,  // measure 43
1001
0000
0100
0100
0100
0100
0100
0000
,  // measure 44
1001
0000
0110
0000
0000
0000
1000
1000
,  // measure 45
1000
1000
1000
0000
1000
0000
1000
0000
,  // measure 46
0000
0000
0001
0100
1000
0100
0001
0010
,  // measure 47
1000
0010
0001
0100
1000
0100
0001
0010
,  // measure 48
1000
0010
0000
1000
0001
1000
0001
0000
,  // measure 49
1001
0000
1000
0000
0001
0000
1000
0100
,  // measure 50
0000
0001
0000
0000
0110
0000
1001
0000
,  // measure 51
1000
0000
0010
0000
0100
0000
0010
0001
,  // measure 52
0000
0100
0000
0000
1001
0000
0110
0000
,  // measure 53
0010
0001
0011
0010
,  // measure 54
1010
1000
1100
0100
,  // measure 55
0101
0000
1000
0100
0001
0000
0100
1000
,  // measure 56
0010
0000
1000
0100
0001
0000
0100
1000
,  // measure 57
0010
0000
0000
1000
0001
0010
0100
1000
,  // measure 58
0001
0010
0100
0000
0000
1000
0000
0000
,  // measure 59
0001
0000
0000
0001
1000
0100
0010
0001
,  // measure 60
1000
0100
0010
0000
0000
0001
0000
0000
,  // measure 61
1000
0000
0000
1000
0010
0001
1000
0001
,  // measure 62
1000
0001
1000
0100
0001
0100
1000
0001
,  // measure 63
1000
0001
1000
0010
0001
0010
1000
0001
,  // measure 64
1000
0001
0100
0100
0100
0100
0100
0000
,  // measure 65
0000
1001
0000
0000
,  // measure 66
0000
1000
0001
0000
0000
0000
0000
0000
,  // measure 67
0000
0010
0100
0000
0000
0000
1000
0000
,  // measure 68
0000
0000
1000
0000
0100
0000
0001
0100
,  // measure 69
1000
0100
1001
0000
0000
0000
0000
0000
,  // measure 70
0000
1000
0001
0000
0000
0000
0000
0000
,  // measure 71
0000
0010
0100
0000
0000
0000
1001
0000
,  // measure 72
0000
0000
0110
0000
1001
0000
1000
0001
,  // measure 73
1000
0001
0100
0000
0010
0000
0100
0000
,  // measure 74
0010
1000
0001
1000
,  // measure 75
0010
0000
1000
0100
0001
0000
0100
1000
,  // measure 76
0010
0000
0100
0001
0010
0000
0001
0100
,  // measure 77
1000
0110
1001
0110
,  // measure 78
1001
1010
0101
1010
,  // measure 79
0101
0000
0100
0001
0010
0000
0001
0100
,  // measure 80
1000
0000
0100
1000
0001
0000
1000
0001
,  // measure 81
0010
0000
1000
0001
1000
0000
1000
0001
,  // measure 82
1000
0000
0010
0100
0010
0000
0010
0100
,  // measure 83
0010
0000
1000
0100
1000
0000
0001
0010
,  // measure 84
0001
0000
1000
0100
1000
0000
0010
0001
,  // measure 85
0010
0000
1000
0100
0001
0100
1000
0001
,  // measure 86
1000
0010
1000
0100
0001
0100
1000
0001
,  // measure 87
1000
0010
1000
0100
0001
0100
1000
0100
,  // measure 88
0001
0100
1000
0100
0001
0100
1000
0100
,  // measure 89
0010
1001
0000
0000
;

//---------------dance-single - ----------------
#NOTES:
     dance-single:
     :
     Hard:
     10:
     0.894197,1.023480,0.955630,0.000000,0.028669,655.000000,555.000000,100.000000,0.000000,0.000000,0.000000,0.894197,1.023480,0.955630,0.000000,0.028669,655.000000,555.000000,100.000000,0.000000,0.000000,0.000000:
// measure 0
0000
0000
0000
0000
,  // measure 1
0000
0000
0000
0000
,  // measure 2
0000
0000
0000
0000
,  // measure 3
0000
0000
0000
0000
,  // measure 4
0000
0000
1001
0000
1000
0100
0001
0000
,  // measure 5
0100
1000
0010
0000
1000
0001
1000
0000
,  // measure 6
0100
0010
0100
0000
0001
0100
0001
0000
,  // measure 7
0010
0001
0100
0000
1000
0100
1001
0000
,  // measure 8
1001
0000
0110
0000
1000
0100
0001
0100
,  // measure 9
1000
0100
1000
0010
0001
0010
1000
0010
,  // measure 10
0001
0010
1000
0100
0001
0100
1000
0100
,  // measure 11
0001
1000
0001
1000
0010
0100
1001
0000
,  // measure 12
1001
0000
0000
1000
1000
0001
0001
0000
,  // measure 13
0001
0000
0000
0010
0001
1000
0100
0010
,  // measure 14
0000
0000
0000
1000
1000
1000
0010
0000
,  // measure 15
0100
0000
0000
0100
1000
0001
0010
0100
,  // measure 16
0000
0000
0000
0010
0100
1000
0001
0000
,  // measure 17
1001
0000
0000
0100
0100
0010
1001
1001
,  // measure 18
0000
0000
0000
0001
0001
0001
1000
0000
,  // measure 19
1001
0000
0000
0010
1001
0100
0110
1001
,  // measure 20
0000
0000
1000
0001
0010
0100
1000
0010
,  // measure 21
0100
0001
1000
0010
0100
0001
0010
0100
,  // measure 22
1000
0010
0100
0001
1000
0010
0010
0001
,  // measure 23
1000
0100
0010
0001
1000
0010
1001
1001
,  // measure 24
1001
1001
0110
0000
1000
0100
0001
0000
,  // measure 25
0100
1000
0010
0000
0001
0100
1000
0000
,  // measure 26
0100
0001
0010
0000
1000
0001
1000
0000
,  // measure 27
0010
0000
0100
0000
0010
0000
0000
0000
1000
0000
0000
0000
1000
0001
1000
0001
,  // measure 28
1000
0001
1000
0001
0010
0000
1000
0000
0100
0000
0001
0000
0000
0000
1000
0000
,  // measure 29
0010
0100
0000
1000
0100
0010
0000
0001
,  // measure 30
1000
0010
0000
1000
0100
0010
0000
1000
,  // measure 31
0000
0001
0000
0001
0100
1000
0000
1000
,  // measure 32
0010
0000
0100
1000
0001
0010
0000
1000
,  // measure 33
0010
0100
0000
0001
0010
1000
0000
0001
,  // measure 34
0010
0100
0000
1000
0010
0100
0000
0001
,  // measure 35
1000
0010
0000
1000
0100
0000
0000
0100
,  // measure 36
1000
0000
1001
1000
0001
0100
0010
1000
,  // measure 37
0100
0010
1001
0100
0100
1001
0100
0100
,  // measure 38
1001
0000
0110
0010
1000
0001
0010
0100
,  // measure 39
1000
0001
0110
0001
0001
0110
1000
1000
,  // measure 40
0110
0000
1001
0010
1000
0001
0010
0100
,  // measure 41
1000
0010
1001
0100
1000
0001
0100
0010
,  // measure 42
1000
0001
0110
0100
1000
0010
0001
0100
,  // measure 43
1000
0010
1001
1001
1001
1001
1001
0000
,  // measure 44
0000
0000
0000
0000
1001
0000
0000
0000
1001
0000
0000
0000
0100
0010
0100
0010
,  // measure 45
0100
1001
1001
0110
,  // measure 46
1001
0000
0010
1000
0100
0010
0001
0100
,  // measure 47
0010
1000
0100
0010
0001
0100
0010
1000
,  // measure 48
0001
0100
0000
1001
0110
1001
1001
0000
,  // measure 49
0110
0000
1000
0100
0001
0100
1000
0100
,  // measure 50
0001
0110
0000
0000
1001
0000
0110
0000
,  // measure 51
0100
0000
1000
0010
0001
0010
1000
0010
,  // measure 52
0001
0110
0000
0000
1001
0000
0110
0000
,  // measure 53
0100
0000
1001
0100
0010
1000
0001
0100
,  // measure 54
0010
1001
0000
0000
0110
0000
1001
0000
,  // measure 55
0010
0000
1001
0010
0100
0001
1000
0010
,  // measure 56
0100
1001
0000
0000
0110
0000
1001
0000
,  // measure 57
0010
0000
0000
1000
0100
0001
0100
1000
,  // measure 58
0100
0001
0101
0000
0000
1100
0000
0000
,  // measure 59
1010
0000
0000
1000
0010
0001
0010
1000
,  // measure 60
0010
0001
0011
0000
0000
0101
0000
0000
,  // measure 61
1100
0000
0000
1000
0100
0001
0100
1000
,  // measure 62
0010
0001
1001
1000
0100
0001
0100
1000
,  // measure 63
0010
0001
1001
1000
0100
0001
0100
1000
,  // measure 64
0010
0001
0110
0110
0110
0110
1001
0000
,  // measure 65
0000
0000
1001
0100
1000
0010
0100
0001
,  // measure 66
1000
0110
1001
0010
0001
0100
1000
0010
,  // measure 67
0001
0110
1001
0100
0010
0100
1001
0100
,  // measure 68
1000
0001
0110
0000
0110
0000
0110
0110
,  // measure 69
1001
1001
1001
0001
1000
0010
0100
0001
,  // measure 70
1000
0100
0010
0001
1000
0010
0100
0010
,  // measure 71
0100
0010
1000
0001
0010
0100
0010
0100
,  // measure 72
1000
0001
0010
0100
1000
0001
0010
0100
,  // measure 73
1000
0001
1001
1000
0100
1000
0010
1000
,  // measure 74
0010
1000
0001
0100
0001
0100
0010
0100
,  // measure 75
0010
0100
0001
1000
0001
1000
0100
0010
,  // measure 76
0100
0010
0100
0100
1000
0100
0110
0000
,  // measure 77
1001
0000
1000
0100
0001
0100
1000
0100
,  // measure 78
0001
0100
1000
0100
0001
0100
1000
0100
,  // measure 79
0001
0100
1000
0010
0001
0100
1000
0010
,  // measure 80
0001
0100
1000
0010
0001
0100
1000
0010
,  // measure 81
0001
0100
1001
0000
0110
0000
1001
0000
,  // measure 82
0110
1001
0110
1001
,  // measure 83
0010
0010
0100
0000
0110
0000
1000
0010
,  // measure 84
0100
0001
1000
0010
0010
0100
1000
0001
,  // measure 85
0100
0010
1000
0001
0010
0000
1000
0001
,  // measure 86
1000
0001
0010
0100
1001
0000
1001
0000
,  // measure 87
1001
0000
1000
0100
0001
0000
0100
1000
,  // measure 88
0010
0000
1000
0001
1000
0001
0100
0010
,  // measure 89
0100
0010
1001
0000
0000
0000
0000
0000
;
