#VERSION:0.83;
#TITLE:Paranoia Blast;
#SUBTITLE:;
#ARTIST:180 & 2MB;
#TITLETRANSLIT:;
#SUBTITLETRANSLIT:;
#ARTISTTRANSLIT:;
#GENRE:;
#ORIGIN:;
#CREDIT:;
#BANNER:parablast bn.png;
#BACKGROUND:parablast.png;
#PREVIEWVID:;
#JACKET:;
#CDIMAGE:;
#DISCIMAGE:;
#LYRICSPATH:;
#CDTITLE:;
#MUSIC:Paranoia Blast.mp3;
#OFFSET:-0.050000;
#SAMPLESTART:33.970001;
#SAMPLELENGTH:12.000000;
#SELECTABLE:YES;
#BPMS:0.000=198.000;
#STOPS:;
#DELAYS:;
#WARPS:;
#TIMESIGNATURES:0.000=4=4;
#TICKCOUNTS:0.000=4;
#COMBOS:0.000=1;
#SPEEDS:0.000=1.000=0.000=0;
#SCROLLS:0.000=1.000;
#FAKES:;
#LABELS:0.000=Song Start;
#BGCHANGES:;
#KEYSOUNDS:;
#ATTACKS:
;

//---------------dance-single - ----------------
#NOTEDATA:;
#CHARTNAME:;
#STEPSTYPE:dance-single;
#DESCRIPTION:;
#CHARTSTYLE:;
#DIFFICULTY:Easy;
#METER:6;
#RADARVALUES:0.428732,0.504894,0.123576,0.000000,0.000000,340.000000,326.000000,14.000000,0.000000,0.000000,0.000000,0.000000,0.000000,0.000000,0.428732,0.504894,0.123576,0.000000,0.000000,340.000000,326.000000,14.000000,0.000000,0.000000,0.000000,0.000000,0.000000,0.000000;
#CREDIT:;
#NOTES:
// measure 0
0000
0000
0000
0000
,  // measure 1
0000
0000
0000
0000
,  // measure 2
0000
0000
0000
0000
,  // measure 3
0000
0000
0000
0000
,  // measure 4
0000
0001
0100
0010
,  // measure 5
1000
0001
1000
0001
,  // measure 6
0000
1000
0010
0100
,  // measure 7
0001
1000
0001
1000
,  // measure 8
0000
0010
1000
0100
,  // measure 9
0001
0010
0100
0010
,  // measure 10
0000
0001
0010
0100
,  // measure 11
1000
0010
0100
1001
,  // measure 12
0010
0010
0001
0000
,  // measure 13
1000
0100
0010
0001
,  // measure 14
0010
0010
0100
0100
,  // measure 15
1001
0000
0110
0000
0001
0000
0100
0100
,  // measure 16
0100
0010
0001
0100
,  // measure 17
1001
0000
0110
0000
1000
0000
0100
0100
,  // measure 18
0100
0001
1000
0010
,  // measure 19
1001
0110
1001
0000
,  // measure 20
1000
0100
0001
0100
,  // measure 21
1000
0100
0001
0100
,  // measure 22
1000
0010
0001
0100
,  // measure 23
1000
0100
0001
0100
,  // measure 24
1000
0100
0001
0100
,  // measure 25
1000
0010
0001
0100
,  // measure 26
1000
0100
0001
0010
,  // measure 27
0100
1001
0000
0010
,  // measure 28
0010
0000
0000
0001
0000
0000
0100
0000
,  // measure 29
0000
0010
0000
1000
0100
0100
0100
0000
,  // measure 30
0010
0000
0000
1000
0000
0000
0100
0000
,  // measure 31
0000
0010
0000
0001
0100
0100
0100
0000
,  // measure 32
0010
0000
0000
0001
0000
0000
0100
0000
,  // measure 33
0000
0010
0000
1000
0100
0100
0100
0000
,  // measure 34
0010
0000
0000
1000
0000
0000
0100
0000
,  // measure 35
0000
0010
0000
0001
0100
0100
0100
0000
,  // measure 36
1000
0000
0000
0100
0000
0000
0001
0000
,  // measure 37
0000
1000
0000
0010
0001
0001
0001
0000
,  // measure 38
0001
0000
0000
0100
0000
0000
1000
0000
,  // measure 39
0000
0001
0000
0010
1000
1000
1000
0000
,  // measure 40
1000
0000
0000
0100
0000
0000
0001
0000
,  // measure 41
0000
1000
0000
0010
0001
0001
0001
0000
,  // measure 42
0001
0000
0000
0100
0000
0000
1000
0000
,  // measure 43
0000
0001
0000
0010
1000
1000
1000
0000
,  // measure 44
0001
0010
0100
1000
,  // measure 45
0010
0000
0100
0000
,  // measure 46
1000
0010
0100
0001
,  // measure 47
0100
0000
0010
0000
,  // measure 48
0001
0100
0010
1000
,  // measure 49
0100
0000
0010
0000
,  // measure 50
1000
0100
0010
0001
,  // measure 51
0010
0000
0100
0000
,  // measure 52
0010
1000
0100
0100
,  // measure 53
0001
0100
1000
1000
,  // measure 54
0010
0001
0100
0100
,  // measure 55
0010
0001
1000
1000
,  // measure 56
0010
0100
1000
1000
,  // measure 57
0001
0010
0100
0100
,  // measure 58
0001
0010
1000
1000
,  // measure 59
0100
0010
0001
0001
,  // measure 60
0100
0000
0100
0100
,  // measure 61
0000
0100
0100
0100
,  // measure 62
0000
0100
0100
0100
,  // measure 63
0000
0100
0100
0100
,  // measure 64
0010
0100
1001
0000
,  // measure 65
0001
0010
0100
1000
,  // measure 66
0100
0010
1001
0000
,  // measure 67
1000
0010
0100
0001
,  // measure 68
0010
0100
1001
0000
,  // measure 69
0001
0010
0100
1000
,  // measure 70
0100
0010
1001
0000
,  // measure 71
1000
0010
0100
0001
,  // measure 72
1000
0100
0001
0000
0100
0000
1000
0000
,  // measure 73
0100
0001
0010
1000
,  // measure 74
0010
1000
0100
0000
0001
0000
0100
0000
,  // measure 75
0010
0001
0100
1000
,  // measure 76
0010
0001
0100
0000
1000
0000
0100
0000
,  // measure 77
0010
0001
1000
0100
,  // measure 78
1000
0010
0001
0000
1000
0000
0100
0000
,  // measure 79
0001
0010
0100
0001
,  // measure 80
0100
1000
1000
0000
1000
0000
1000
0000
,  // measure 81
0100
0001
0001
0000
0001
0000
0001
0000
,  // measure 82
0100
1000
1000
0000
1000
1000
1000
0000
,  // measure 83
0100
0001
0001
0000
0001
0001
0001
0000
,  // measure 84
0100
0010
1000
0100
,  // measure 85
0001
0010
0001
0100
,  // measure 86
1000
0010
1000
0100
,  // measure 87
0001
0010
1000
0100
,  // measure 88
1001
0000
0000
0000
;

//---------------dance-single - ----------------
#NOTEDATA:;
#CHARTNAME:;
#STEPSTYPE:dance-single;
#DESCRIPTION:;
#CHARTSTYLE:;
#DIFFICULTY:Medium;
#METER:8;
#RADARVALUES:0.504390,0.543733,0.132402,0.000000,0.000000,400.000000,385.000000,15.000000,0.000000,0.000000,0.000000,0.000000,0.000000,0.000000,0.504390,0.543733,0.132402,0.000000,0.000000,400.000000,385.000000,15.000000,0.000000,0.000000,0.000000,0.000000,0.000000,0.000000;
#CREDIT:;
#NOTES:
// measure 0
0000
0000
0000
0000
,  // measure 1
0000
0000
0000
0000
,  // measure 2
0000
0000
0000
0000
,  // measure 3
0000
0000
0000
0000
,  // measure 4
1100
0000
0001
0000
0100
0001
1000
0000
,  // measure 5
0010
0000
0100
1000
0001
0100
1000
0000
,  // measure 6
0101
0000
1000
0000
0100
1000
0001
0000
,  // measure 7
0010
0000
0100
0001
1000
0100
0001
0000
,  // measure 8
0010
0000
0010
0000
1001
0000
0001
0100
,  // measure 9
0010
1010
0101
0000
,  // measure 10
1000
0000
0100
0000
0001
0010
1000
0000
,  // measure 11
0100
0001
1000
1001
,  // measure 12
0000
0000
1000
0000
0100
0000
0010
0100
,  // measure 13
0001
0000
0010
0000
1001
0000
1000
0100
,  // measure 14
0010
0000
0100
0000
0001
0010
0100
0000
,  // measure 15
0010
0100
0001
0100
1000
0000
0001
0010
,  // measure 16
1000
0000
0001
0000
0010
1000
0001
0000
,  // measure 17
1000
0001
0010
0001
0001
0000
0010
1000
,  // measure 18
0100
0000
0010
0000
1000
0100
0010
0000
,  // measure 19
0100
0010
1000
0010
0001
0000
1001
0000
,  // measure 20
0010
0000
1000
0000
0100
0000
0001
0100
,  // measure 21
1000
0000
0100
0000
0001
0000
0010
0001
,  // measure 22
0100
0000
0001
0000
0010
0000
1000
0100
,  // measure 23
0001
0000
0100
0000
1000
0000
0100
0001
,  // measure 24
0010
0001
0100
1000
,  // measure 25
0100
0010
0001
0010
,  // measure 26
1000
0000
0100
0000
0001
0010
1000
0000
,  // measure 27
0100
0010
0100
0000
1001
0000
0110
0000
,  // measure 28
0010
0000
0000
0100
0000
0000
0010
0000
,  // measure 29
0000
0100
0000
0001
0010
0100
1000
0000
,  // measure 30
0100
0000
0000
0010
0000
0000
0100
0000
,  // measure 31
0000
0010
0000
1000
0100
0010
0001
0000
,  // measure 32
1000
0000
0000
0010
0000
0000
0100
0000
,  // measure 33
0000
0001
0000
0010
0100
0100
0010
0000
,  // measure 34
0001
0000
0000
0100
0000
0000
0010
0000
,  // measure 35
0000
1000
0000
0100
0010
0010
0100
0000
,  // measure 36
0010
0000
0000
0100
0000
0000
0010
0000
,  // measure 37
0000
0100
0000
0001
0010
0100
1000
0000
,  // measure 38
0100
0000
0000
0010
0000
0000
0100
0000
,  // measure 39
0000
0010
0000
1000
0100
0010
0001
0000
,  // measure 40
1000
0000
0000
0010
0000
0000
0100
0000
,  // measure 41
0000
0001
0000
0010
0100
0100
0010
0000
,  // measure 42
0001
0000
0000
0100
0000
0000
0010
0000
,  // measure 43
0000
1000
0000
0100
0010
0010
0100
0000
,  // measure 44
0010
1000
0100
1000
,  // measure 45
0001
0100
0001
0010
,  // measure 46
1000
0100
0001
0100
,  // measure 47
0010
0001
1000
0100
,  // measure 48
0101
0010
0001
0010
,  // measure 49
0100
0100
0010
1000
,  // measure 50
1010
0100
0001
1000
,  // measure 51
0011
0010
0100
1100
,  // measure 52
0010
1000
0100
1000
,  // measure 53
0010
0000
0001
1000
0000
1000
0001
0000
,  // measure 54
0100
0001
0010
1000
,  // measure 55
0010
0001
0100
1000
,  // measure 56
0100
0010
0001
1000
,  // measure 57
0010
0000
0001
0100
0000
0010
1000
0000
,  // measure 58
0100
0010
0001
1000
,  // measure 59
0100
0000
0010
0000
0001
0001
1000
0000
,  // measure 60
0100
0000
0100
0100
,  // measure 61
0000
0100
0100
0100
,  // measure 62
0010
0100
0100
0100
,  // measure 63
0010
0100
0100
0100
,  // measure 64
0010
1000
0100
0000
0010
0001
0100
0000
,  // measure 65
0001
0010
0100
1000
,  // measure 66
0010
1000
0100
0000
0010
0001
0100
0000
,  // measure 67
0001
0010
0100
1000
,  // measure 68
0100
1000
0010
0000
0100
0001
0010
0000
,  // measure 69
0100
1000
0001
0010
,  // measure 70
0100
1000
0010
0000
0100
0001
0010
0000
,  // measure 71
0100
1000
0001
0010
,  // measure 72
0001
0010
0100
1000
,  // measure 73
0100
0010
0100
0000
1000
0001
1000
0000
,  // measure 74
0100
0100
0010
0010
,  // measure 75
1000
1000
0001
0001
,  // measure 76
1000
0010
0100
0001
,  // measure 77
0100
0010
1000
0000
0010
1000
0001
0000
,  // measure 78
1000
0100
0010
0000
1000
0001
0100
0000
,  // measure 79
1000
0001
1000
0000
0001
1000
0001
0000
,  // measure 80
0100
1000
0001
0010
,  // measure 81
0001
0000
0100
0010
0000
0100
0010
0000
,  // measure 82
1000
0001
0010
1000
,  // measure 83
0100
0000
0001
0000
0100
1000
0010
0000
,  // measure 84
0001
0100
0001
0010
,  // measure 85
1000
0000
0010
0100
0000
0001
1000
0000
,  // measure 86
0001
0010
0100
1000
,  // measure 87
0010
0001
0100
1000
0100
0001
0010
0000
,  // measure 88
1001
0000
0000
0000
;

//---------------dance-single - ----------------
#NOTEDATA:;
#CHARTNAME:;
#STEPSTYPE:dance-single;
#DESCRIPTION:;
#CHARTSTYLE:;
#DIFFICULTY:Hard;
#METER:9;
#RADARVALUES:0.714973,0.660247,0.264805,0.000000,0.000000,567.000000,537.000000,30.000000,0.000000,0.000000,0.000000,0.000000,0.000000,0.000000,0.714973,0.660247,0.264805,0.000000,0.000000,567.000000,537.000000,30.000000,0.000000,0.000000,0.000000,0.000000,0.000000,0.000000;
#CREDIT:;
#NOTES:
// measure 0
0000
0000
0000
0000
,  // measure 1
0000
0000
0000
0000
,  // measure 2
0000
0000
0000
0000
,  // measure 3
0000
0000
0000
0000
,  // measure 4
0001
0010
0100
1000
0010
1000
0100
1000
,  // measure 5
0001
0010
0100
1000
0001
0010
0100
1000
,  // measure 6
0010
1000
0001
1000
0100
0010
0001
1000
,  // measure 7
0010
0100
0001
1000
0100
0010
0001
1000
,  // measure 8
0000
1000
0100
0010
0001
0010
1000
0001
,  // measure 9
0010
0100
1000
0001
0100
0010
1000
0100
,  // measure 10
0010
0001
0100
0010
1000
0100
0010
0001
,  // measure 11
1000
0010
0100
0010
0100
0000
0000
0000
,  // measure 12
0001
0010
0100
1000
0010
1000
0100
0010
,  // measure 13
0001
1000
0010
1000
0100
0010
0001
1000
,  // measure 14
0010
0100
0001
1000
0100
0010
0001
1000
,  // measure 15
0010
0100
0001
1000
0010
0100
0001
1000
,  // measure 16
0100
0010
0001
1000
0010
0100
0001
0010
,  // measure 17
0100
1000
0010
1000
0001
1000
0010
0100
,  // measure 18
0001
1000
0100
0010
0001
1000
0010
0000
,  // measure 19
0001
0010
0100
1000
0010
0100
0000
0000
,  // measure 20
0001
0010
0100
1000
0010
0100
0001
0000
,  // measure 21
0100
1000
0010
1000
0001
0010
0100
0000
,  // measure 22
0010
1000
0001
0010
0100
1000
0010
0000
,  // measure 23
0001
0010
0100
1000
0010
0100
0001
0000
,  // measure 24
0001
0010
0100
1000
0010
0100
0001
1000
,  // measure 25
0100
0010
0100
0010
0001
1000
0001
1000
,  // measure 26
0010
0100
0001
1000
0100
0010
0001
0010
,  // measure 27
0001
0010
0100
1000
0010
0000
0010
0000
,  // measure 28
1001
0110
1001
0110
,  // measure 29
0010
0100
1000
0001
1000
0100
0010
0000
,  // measure 30
1001
0110
1001
0110
,  // measure 31
0100
0010
1000
0001
1000
0100
0010
0000
,  // measure 32
1001
0110
1001
0110
,  // measure 33
0010
1000
0100
0001
0100
1000
0010
0000
,  // measure 34
1001
0110
1001
0110
,  // measure 35
0010
0001
0100
1000
0100
0001
0010
0000
,  // measure 36
0001
0010
0100
1000
0000
0000
0100
0000
,  // measure 37
1001
0000
0000
0110
0000
0000
1001
0000
,  // measure 38
1000
0100
0010
0001
0000
0000
0010
0000
,  // measure 39
1001
0000
0000
0110
0000
0000
1001
0000
,  // measure 40
0001
0100
0010
1000
0000
0000
0100
0000
,  // measure 41
1001
0000
0000
0110
0000
0000
1001
0000
,  // measure 42
1000
0010
0100
0001
0000
0000
0010
0000
,  // measure 43
1001
0000
0000
0110
0000
0000
1001
0000
,  // measure 44
0010
1000
0010
1000
0010
0001
0010
0001
,  // measure 45
0010
1000
0010
0100
0000
0001
1000
0000
,  // measure 46
0001
0100
0001
0100
1000
0100
1000
0100
,  // measure 47
0010
0100
0010
0100
0001
1000
0001
0000
,  // measure 48
0001
0010
0100
1000
0001
0010
0100
1000
,  // measure 49
0001
0010
0100
1000
0000
0010
0100
0000
,  // measure 50
0001
0010
0100
1000
0001
0010
0100
1000
,  // measure 51
0010
0100
1001
0100
,  // measure 52
0010
1000
0001
0000
0100
1000
0010
0000
,  // measure 53
0001
1000
0100
0000
0010
0100
1000
0000
,  // measure 54
0001
0010
0100
0000
1000
0010
0100
0000
,  // measure 55
0001
1000
0010
0000
0100
1000
0001
0000
,  // measure 56
0010
0010
0001
0000
1000
1000
0100
0000
,  // measure 57
0001
0001
1000
0000
0010
0010
0100
0000
,  // measure 58
0001
0010
0100
1000
0010
0100
0001
0000
,  // measure 59
1000
0010
0100
0001
0010
0100
1000
0000
,  // measure 60
0010
0000
0001
0001
,  // measure 61
0000
0100
0100
0100
,  // measure 62
0010
0100
0100
0100
,  // measure 63
0010
0100
0100
0100
,  // measure 64
0010
1000
0100
1000
0010
1000
0100
0000
,  // measure 65
0010
0001
0100
0001
0010
0001
0100
0000
,  // measure 66
0001
0100
1000
0100
0001
0100
1000
0000
,  // measure 67
0001
0010
1000
0010
0001
0010
1000
0000
,  // measure 68
0001
1000
0010
0100
0010
1000
0001
0000
,  // measure 69
0010
0100
1000
0001
1000
0100
0010
0000
,  // measure 70
1000
0001
0100
0010
0100
0001
1000
0000
,  // measure 71
0100
0010
0001
1000
0001
0010
0100
0000
,  // measure 72
0001
0010
0100
1000
0010
0100
0001
0010
,  // measure 73
0100
1000
0010
0100
0001
0010
0100
1000
,  // measure 74
0001
0010
0001
1000
0100
1000
0010
0100
,  // measure 75
0001
1000
0010
1000
0010
1000
0001
0000
,  // measure 76
0001
0010
0100
1000
0000
0001
0001
0000
,  // measure 77
1000
0010
0100
0001
0000
1000
1000
0000
,  // measure 78
0001
0100
0010
1000
0000
0001
0001
0000
,  // measure 79
1000
0100
0010
0001
0000
1000
1000
0000
,  // measure 80
0001
0010
0000
0100
1000
0010
1000
0000
,  // measure 81
0001
0010
0100
1000
0000
0001
0001
0000
,  // measure 82
0010
1000
0100
0000
1000
0010
0001
0000
,  // measure 83
0010
0100
0010
0000
1000
0001
1000
0000
,  // measure 84
0010
0010
0000
0100
0100
0100
0100
0000
,  // measure 85
0001
0010
0100
1000
0000
0010
0100
0000
,  // measure 86
0001
0010
0100
1000
0001
0010
0100
1000
,  // measure 87
0010
1000
0100
0010
0001
0100
0010
0000
,  // measure 88
1001
0000
0000
0000
;
