#VERSION:0.83;
#TITLE:O-Zila;
#SUBTITLE:;
#ARTIST:Dave Phaneuf;
#TITLETRANSLIT:;
#SUBTITLETRANSLIT:;
#ARTISTTRANSLIT:;
#GENRE:;
#ORIGIN:;
#CREDIT:;
#BANNER:O-zila bn.png;
#BACKGROUND:Ozila-bg.PNG;
#PREVIEWVID:;
#JACKET:;
#CDIMAGE:;
#DISCIMAGE:;
#LYRICSPATH:;
#CDTITLE:;
#MUSIC:O-Zila.mp3;
#OFFSET:1.020000;
#SAMPLESTART:19.689655;
#SAMPLELENGTH:12.000000;
#SELECTABLE:YES;
#BPMS:0.000=290.120;
#STOPS:;
#DELAYS:;
#WARPS:;
#TIMESIGNATURES:0.000=4=4;
#TICKCOUNTS:0.000=4;
#COMBOS:0.000=1;
#SPEEDS:0.000=1.000=0.000=0;
#SCROLLS:0.000=1.000;
#FAKES:;
#LABELS:0.000=Song Start;
#BGCHANGES:;
#KEYSOUNDS:;
#ATTACKS:
;

//---------------dance-single - ----------------
#NOTEDATA:;
#CHARTNAME:;
#STEPSTYPE:dance-single;
#DESCRIPTION:;
#CHARTSTYLE:;
#DIFFICULTY:Easy;
#METER:6;
#RADARVALUES:0.530823,0.775104,0.355764,0.000000,0.000000,282.000000,255.000000,27.000000,0.000000,0.000000,0.000000,0.000000,0.000000,0.000000,0.530823,0.775104,0.355764,0.000000,0.000000,282.000000,255.000000,27.000000,0.000000,0.000000,0.000000,0.000000,0.000000,0.000000;
#CREDIT:;
#NOTES:
// measure 0
0000
0000
0000
0000
,  // measure 1
0000
0000
0000
0000
,  // measure 2
0000
0000
0000
0000
,  // measure 3
0000
0000
0000
0000
,  // measure 4
0000
0000
0000
0000
,  // measure 5
0000
0000
1000
0000
,  // measure 6
0001
0000
1000
0000
,  // measure 7
0001
0000
1000
0000
,  // measure 8
0001
0000
1000
1000
,  // measure 9
0001
0001
0010
0000
,  // measure 10
0100
0000
0010
0000
,  // measure 11
0100
0000
0010
0000
,  // measure 12
0100
0000
0010
0010
,  // measure 13
0100
0100
0010
0000
,  // measure 14
1000
0000
0100
0000
,  // measure 15
0001
0000
0000
0000
1000
0000
0000
0100
,  // measure 16
0000
0001
0010
0010
,  // measure 17
0100
0100
1001
0000
,  // measure 18
0010
0000
0100
1000
,  // measure 19
0001
0010
1000
0000
,  // measure 20
0001
0000
1000
1000
,  // measure 21
0001
0001
1001
0000
,  // measure 22
0010
0000
0100
1000
,  // measure 23
0001
0010
1000
0100
,  // measure 24
0001
0000
0100
0100
,  // measure 25
1000
0001
1000
0100
,  // measure 26
0001
0000
0100
0001
,  // measure 27
0010
0000
0010
1000
,  // measure 28
0100
0000
1000
0100
,  // measure 29
0001
0010
0010
0000
,  // measure 30
0010
0100
1000
0001
,  // measure 31
1000
0000
0000
0000
1000
0000
0000
0001
,  // measure 32
0000
1000
0100
0100
,  // measure 33
0010
0010
0100
0001
,  // measure 34
0001
0100
0001
0001
,  // measure 35
0100
0001
0010
1000
,  // measure 36
1000
0010
1000
1000
,  // measure 37
0010
1000
0001
0001
,  // measure 38
0001
0001
0010
0010
,  // measure 39
0100
0100
1001
1001
,  // measure 40
1001
0000
1001
0000
1000
0000
0000
0001
,  // measure 41
0000
1000
0100
0000
,  // measure 42
0010
0000
0000
0000
1000
0000
0000
0001
,  // measure 43
0000
1000
0100
0000
,  // measure 44
0010
0000
0010
0000
0100
0000
0000
0010
,  // measure 45
0000
0100
1000
0000
,  // measure 46
0001
0000
0000
0000
0100
0000
0000
0010
,  // measure 47
0000
0100
1000
0000
,  // measure 48
0001
1000
1000
0100
,  // measure 49
0001
0100
1000
0100
,  // measure 50
0001
0100
0001
0010
,  // measure 51
1000
0010
0001
0010
,  // measure 52
1000
0010
0001
0001
,  // measure 53
1000
1000
0001
0001
,  // measure 54
1000
1000
0100
0100
,  // measure 55
0010
0010
0100
0100
,  // measure 56
0010
0010
1001
0000
,  // measure 57
0000
0000
1000
1000
,  // measure 58
1000
0000
1000
0000
1000
0000
0000
0001
,  // measure 59
0000
0000
1000
0000
0001
0000
0000
1000
,  // measure 60
0000
0000
0001
0000
0010
0000
0000
0100
,  // measure 61
0000
0000
0010
0000
0100
0000
0000
0010
,  // measure 62
0000
0000
0100
0000
1000
0000
0000
0100
,  // measure 63
0000
0000
1000
0000
0010
0000
0000
0001
,  // measure 64
0000
0000
0010
0000
1000
0000
0000
0001
,  // measure 65
0000
0000
1000
0000
0100
0000
0000
0010
,  // measure 66
0000
0000
0100
0000
1001
0000
0000
0010
,  // measure 67
0000
0000
0100
0000
1001
0000
0000
1000
,  // measure 68
0000
0000
0001
0000
0110
0000
0000
0100
,  // measure 69
0000
0000
0010
0000
0110
0000
0000
0100
,  // measure 70
0000
0010
1001
0100
,  // measure 71
0100
0100
1001
0010
,  // measure 72
0010
0010
0110
0001
,  // measure 73
0001
0001
0110
1000
,  // measure 74
1000
0000
1000
0000
1000
0000
0000
0001
,  // measure 75
0000
1000
0100
0000
,  // measure 76
0010
0000
0000
0000
1000
0000
0000
0001
,  // measure 77
0000
1000
0100
0000
,  // measure 78
0010
0000
0010
0000
1000
0000
0000
0001
,  // measure 79
0000
1000
0100
0000
,  // measure 80
0010
0000
0000
0000
1000
0000
0000
0001
,  // measure 81
0000
1000
0100
0000
,  // measure 82
0010
0010
1001
0000
,  // measure 83
0000
0000
0110
0000
,  // measure 84
0000
0000
1001
0000
,  // measure 85
0000
0000
0110
0000
,  // measure 86
0000
0000
0011
0000
,  // measure 87
1100
0000
1010
0000
,  // measure 88
0101
0000
0110
0000
,  // measure 89
1001
0000
1001
0000
,  // measure 90
0000
0000
1001
0000
;

//---------------dance-single - ----------------
#NOTEDATA:;
#CHARTNAME:;
#STEPSTYPE:dance-single;
#DESCRIPTION:;
#CHARTSTYLE:;
#DIFFICULTY:Medium;
#METER:8;
#RADARVALUES:0.741646,1.024798,0.316235,0.026353,0.039529,394.000000,370.000000,24.000000,2.000000,0.000000,0.000000,0.000000,0.000000,0.000000,0.741646,1.024798,0.316235,0.026353,0.039529,394.000000,370.000000,24.000000,2.000000,0.000000,0.000000,0.000000,0.000000,0.000000;
#CREDIT:;
#NOTES:
// measure 0
0000
0000
0000
0000
,  // measure 1
0000
0000
0000
0000
,  // measure 2
0000
0000
0000
0000
,  // measure 3
0000
0000
0000
0000
,  // measure 4
0000
0000
0000
0000
,  // measure 5
0000
0000
1000
0001
,  // measure 6
0100
0010
1000
0100
,  // measure 7
0001
0000
0001
1000
,  // measure 8
0100
0010
1000
0010
,  // measure 9
0001
0100
1001
1000
,  // measure 10
0001
0100
1000
0100
,  // measure 11
0001
0100
1001
1000
,  // measure 12
0010
0001
0100
0010
,  // measure 13
0100
0010
0110
1000
,  // measure 14
0100
0001
0010
1000
,  // measure 15
1000
0000
0000
0000
1001
0000
0000
0110
,  // measure 16
0000
1000
0010
0010
,  // measure 17
1000
0100
0001
0000
0100
0000
0001
0000
,  // measure 18
0100
0001
0100
1000
,  // measure 19
0100
1000
0001
0100
,  // measure 20
1000
0100
0001
0100
,  // measure 21
1000
0100
0001
0010
,  // measure 22
1000
0010
0001
0010
,  // measure 23
1000
0010
0100
0100
,  // measure 24
0010
0010
0001
0001
,  // measure 25
1000
0000
1000
0010
0100
0000
1000
0000
,  // measure 26
0100
0000
0010
1000
0010
0000
1000
0000
,  // measure 27
0010
0000
0001
0010
0001
0000
0100
0000
,  // measure 28
0001
0000
0100
0001
0100
0000
1000
0000
,  // measure 29
0100
0000
1000
0100
1000
0000
0001
0000
,  // measure 30
1000
0000
0001
1000
0010
0000
0100
0000
,  // measure 31
0010
0000
0100
0000
1001
0000
0000
0110
,  // measure 32
0000
0000
1001
0000
1000
0010
0100
0001
,  // measure 33
1000
0100
0010
0100
0010
0000
0100
0000
,  // measure 34
1000
0000
0001
0000
1000
0100
0001
0000
,  // measure 35
0001
0100
1000
0000
0010
0000
0100
0000
,  // measure 36
0001
0000
1000
0000
0001
0100
1000
0000
,  // measure 37
0001
0100
1000
0000
1001
0000
1001
0000
,  // measure 38
1001
1001
0110
0110
,  // measure 39
0110
0000
0110
0000
1000
0001
0010
0100
,  // measure 40
1000
0001
0010
0100
1000
0000
1000
0001
,  // measure 41
0000
1000
0001
0001
,  // measure 42
0001
0000
0001
0000
0001
0000
0001
1000
,  // measure 43
0000
0001
1000
1000
,  // measure 44
1000
0000
1000
0000
0010
0000
0010
0100
,  // measure 45
0000
0010
0100
0100
,  // measure 46
0100
0000
0100
0000
0100
0000
0100
0010
,  // measure 47
0000
0100
0010
0010
,  // measure 48
0010
0010
1000
0100
,  // measure 49
0001
0000
0100
0000
1000
0100
0001
0000
,  // measure 50
0100
1000
0010
0000
0001
0000
0100
0000
,  // measure 51
1000
0000
0100
0000
1000
0100
0001
0000
,  // measure 52
0100
1000
0010
0000
1000
0100
1000
0000
,  // measure 53
1000
0000
1000
0000
0010
1000
0010
0000
,  // measure 54
0010
0000
0010
0000
0001
0010
0001
0000
,  // measure 55
0001
0000
0001
0000
0100
0001
0100
0000
,  // measure 56
0100
0100
1001
0000
,  // measure 57
0000
0000
0000
0000
1000
0001
1000
0001
,  // measure 58
0010
0100
0010
0100
1000
0000
0100
0001
,  // measure 59
0000
1000
0000
0100
0001
0000
0100
1000
,  // measure 60
0000
0001
0000
0001
0010
0000
1000
0100
,  // measure 61
0000
0010
0000
1000
0100
0000
0001
0010
,  // measure 62
0000
0100
0000
0001
1000
0000
0100
0001
,  // measure 63
0000
1000
0000
0100
0001
0000
0100
1000
,  // measure 64
0000
0001
0000
0001
0010
0000
1000
0100
,  // measure 65
0000
0010
0000
1000
0100
0000
0001
0010
,  // measure 66
0000
0100
0000
0001
1000
0000
0100
0000
,  // measure 67
0001
0000
1000
0001
0010
0000
1000
0000
,  // measure 68
0100
0000
0010
0100
0001
0000
0100
0000
,  // measure 69
1000
0000
0001
1000
0100
0000
0001
0000
,  // measure 70
0010
0000
0100
0010
1000
0000
0100
0000
,  // measure 71
0001
0000
1000
0001
0010
0000
1000
0000
,  // measure 72
0100
0000
0010
0100
0001
0000
0100
0000
,  // measure 73
1000
0000
0001
1000
0100
0000
0001
0000
,  // measure 74
0010
0000
0100
0010
0100
0000
1000
0000
,  // measure 75
0010
0001
0100
1000
,  // measure 76
0010
0000
0001
0000
0100
0001
0100
0000
,  // measure 77
0100
0000
0001
0000
0010
1000
0010
0000
,  // measure 78
1000
0000
0010
0000
1000
0001
1000
0000
,  // measure 79
0001
0000
1000
0000
0001
1000
0001
0000
,  // measure 80
1000
0000
0001
0000
0010
0100
0010
0000
,  // measure 81
0100
0000
0010
0000
0100
0010
0100
0000
,  // measure 82
0010
0100
1001
0000
,  // measure 83
0000
0000
0110
0000
,  // measure 84
0000
0000
1001
0000
,  // measure 85
0000
0000
0110
0000
,  // measure 86
0000
0000
0000
0000
0000
0000
0000
0000
0000
0000
0000
0000
0000
0000
0000
0000
0000
0000
0000
0000
0000
0000
0000
0000
0000
0000
0000
0000
0000
0000
0000
0000
1000
0000
0000
0000
0000
0000
0000
0000
0000
0000
0001
0000
0000
0000
0000
0000
0000
0000
0000
0000
0000
1000
0000
0000
0000
0000
0000
0000
0000
0000
0000
0000
,  // measure 87
0000
0000
0000
0000
0000
0000
0000
0000
0000
0000
0000
0000
0000
0000
0000
0000
0000
0000
0000
0000
0000
0000
0000
0000
0000
0000
0000
0000
0000
0000
0000
0000
1000
0000
0000
0000
0000
0000
0000
0000
0000
0000
0001
0000
0000
0000
0000
0000
0000
0000
0000
0000
0000
1000
0000
0000
0000
0000
0000
0000
0000
0000
0000
0000
,  // measure 88
0000
0000
0000
0000
0000
0000
0000
0000
0000
0000
0000
0000
0000
0000
0000
0000
0000
0000
0000
0000
0000
0000
0000
0000
0000
0000
0000
0000
0000
0000
0000
0000
1000
0000
0000
0000
0000
0000
0000
0000
0000
0000
0001
0000
0000
0000
0000
0000
0000
0000
0000
0000
0000
1000
0000
0000
0000
0000
0000
0000
0000
0000
0000
0000
,  // measure 89
0000
0000
0110
0000
,  // measure 90
1001
0000
0220
0000
,  // measure 91
0000
0000
0330
0000
;

//---------------dance-single - ----------------
#NOTEDATA:;
#CHARTNAME:;
#STEPSTYPE:dance-single;
#DESCRIPTION:;
#CHARTSTYLE:;
#DIFFICULTY:Hard;
#METER:10;
#RADARVALUES:0.997645,1.208939,0.421646,0.026353,0.184470,530.000000,498.000000,32.000000,2.000000,0.000000,0.000000,0.000000,0.000000,0.000000,0.997645,1.208939,0.421646,0.026353,0.184470,530.000000,498.000000,32.000000,2.000000,0.000000,0.000000,0.000000,0.000000,0.000000;
#CREDIT:;
#NOTES:
// measure 0
0000
0000
0000
0000
,  // measure 1
0000
0000
0000
0000
,  // measure 2
0000
0000
0000
0000
,  // measure 3
0000
0000
0000
0000
,  // measure 4
0000
0000
0000
0000
,  // measure 5
0000
0000
1000
0001
,  // measure 6
1000
0000
1000
0010
0001
0000
1000
0000
,  // measure 7
0001
0000
0001
0010
1000
0000
0100
0000
,  // measure 8
0001
0000
0010
0000
0001
0100
0010
1000
,  // measure 9
0001
0100
0010
1000
0001
0100
1000
0000
,  // measure 10
0001
0100
1000
0000
1000
0001
1000
0001
,  // measure 11
1000
0001
1000
0001
0100
0000
0010
0000
,  // measure 12
0100
0010
0100
0010
0100
0000
0001
0100
,  // measure 13
1000
0100
0001
0100
1000
0010
0001
0000
,  // measure 14
1000
1000
0001
0000
1000
0100
0001
0000
,  // measure 15
1000
0010
0001
0000
0100
1000
0010
0001
,  // measure 16
0000
0001
1000
0100
0010
1000
0010
0000
,  // measure 17
0001
1000
0001
1000
0010
0001
0100
0000
,  // measure 18
0001
0010
1000
0000
0100
0001
1000
0000
,  // measure 19
0010
0001
1000
0000
1000
0001
1000
0000
,  // measure 20
0100
0010
0100
0000
0010
1000
0010
0000
,  // measure 21
0001
0100
0001
0000
1000
0100
1000
0000
,  // measure 22
0010
0001
0010
0000
1000
0010
1000
0000
,  // measure 23
0001
0100
0001
0000
1000
0100
0001
0000
,  // measure 24
0100
1000
0010
0000
1000
0100
0001
0010
,  // measure 25
1000
0100
0001
0100
0010
0001
0100
0000
,  // measure 26
0001
0010
1000
0000
0100
0001
1000
0000
,  // measure 27
0010
0001
1000
0000
1000
0001
1000
0000
,  // measure 28
0100
0010
0100
0000
0010
1000
0010
0000
,  // measure 29
0001
0100
0001
0000
1000
0100
1000
0000
,  // measure 30
0010
0001
0010
0000
1000
0010
1000
0000
,  // measure 31
0001
0100
0001
0000
1000
0100
0001
0100
,  // measure 32
0000
0000
1001
0000
1000
0001
0100
0010
,  // measure 33
1000
0001
0100
0000
1001
0000
0010
0100
,  // measure 34
0010
0000
1001
0000
0010
0100
0010
0000
,  // measure 35
1001
0000
0110
0000
1000
0001
1000
0000
,  // measure 36
0100
0010
0001
1000
0001
0000
0110
0000
,  // measure 37
1000
0010
0001
0000
0011
0000
1100
0000
,  // measure 38
0101
0000
1010
0000
1000
0001
0100
0000
,  // measure 39
1000
0001
0010
0000
1000
1000
0001
0001
,  // measure 40
1000
1000
0001
0001
1000
0000
0100
0001
,  // measure 41
0000
0110
1010
1100
,  // measure 42
0101
0000
0011
0000
0001
0000
0100
1000
,  // measure 43
0000
0110
0101
1100
,  // measure 44
1010
0000
0011
0000
1000
0000
0100
0001
,  // measure 45
0000
0110
1010
1100
,  // measure 46
0101
0000
0011
0000
0001
0000
0100
1000
,  // measure 47
0000
0110
0101
1100
,  // measure 48
1010
0000
0011
0000
1000
0100
0001
0000
,  // measure 49
0100
1000
0100
0001
,  // measure 50
0100
1000
0010
0000
1000
0100
0001
0000
,  // measure 51
0100
1000
0100
0001
,  // measure 52
0100
1000
0010
0000
0001
0100
1000
0000
,  // measure 53
0100
0000
0001
0000
0100
0001
0010
0000
,  // measure 54
0001
0100
1000
0000
0100
0000
0001
0000
,  // measure 55
0100
0001
0010
0000
1000
0000
0001
0000
,  // measure 56
1000
0001
1000
0000
0110
0000
0000
0000
,  // measure 57
0000
0000
0000
0000
0100
1000
0001
0010
,  // measure 58
1000
0100
0010
1000
0010
0000
0100
0010
,  // measure 59
0000
1000
0100
0001
0100
0000
0010
0100
,  // measure 60
0000
0001
0010
1000
0010
0000
0100
0010
,  // measure 61
0000
1000
0100
0001
0100
0000
0010
0100
,  // measure 62
0000
0001
0010
1000
0001
0000
1000
0001
,  // measure 63
0000
0010
0100
0010
0100
0000
0010
0100
,  // measure 64
0000
1000
0001
1000
0010
0000
0100
0010
,  // measure 65
0000
1000
0100
0001
0100
0000
0010
0100
,  // measure 66
0000
0001
0010
1000
0010
0000
0100
0010
,  // measure 67
0000
1000
0100
0001
0100
0000
0010
0100
,  // measure 68
0000
0001
0010
1000
0010
0000
0100
0010
,  // measure 69
0000
1000
0100
0001
0100
0000
0010
0100
,  // measure 70
0000
0001
0010
1000
0001
0000
1000
0001
,  // measure 71
0000
0010
0100
0010
0100
0000
0010
0100
,  // measure 72
0000
1000
0001
1000
0010
0000
0100
0010
,  // measure 73
0000
1000
0100
0001
0100
0000
0010
0100
,  // measure 74
0000
0001
0010
1000
0010
1000
0010
1000
,  // measure 75
0001
0100
0001
0100
1000
0001
1000
0001
,  // measure 76
0010
1000
0010
1000
0001
0100
0001
0100
,  // measure 77
0010
1000
0010
1000
0100
0010
0100
0010
,  // measure 78
0001
1000
0001
1000
0010
1000
0010
1000
,  // measure 79
0001
0100
0001
0100
1000
0001
1000
0001
,  // measure 80
0010
1000
0010
1000
0001
0100
0001
0100
,  // measure 81
0010
1000
0010
1000
0100
0010
0100
0010
,  // measure 82
0001
0000
0000
0000
0000
0000
0000
0000
1000
0000
0000
0000
0000
0000
0000
0000
0001
0000
0000
0000
0000
0000
0000
0000
1000
0000
0000
0000
0000
0000
0000
0000
1000
0000
0000
0000
0000
0000
0000
0000
0000
0000
0100
0000
0000
0000
0000
0000
0000
0000
0000
0000
0000
0010
0000
0000
0000
0000
0000
0000
0000
0000
0000
0000
,  // measure 83
0000
0000
0000
0000
0000
0000
0000
0000
0000
0000
0000
0000
0000
0000
0000
0000
0000
0000
0000
0000
0000
0000
0000
0000
0000
0000
0000
0000
0000
0000
0000
0000
0001
0000
0000
0000
0000
0000
0000
0000
0000
0000
0010
0000
0000
0000
0000
0000
0000
0000
0000
0000
0000
0100
0000
0000
0000
0000
0000
0000
0000
0000
0000
0000
,  // measure 84
0000
0000
0000
0000
0000
0000
0000
0000
0000
0000
0000
0000
0000
0000
0000
0000
0000
0000
0000
0000
0000
0000
0000
0000
0000
0000
0000
0000
0000
0000
0000
0000
1000
0000
0000
0000
0000
0000
0000
0000
0000
0000
0100
0000
0000
0000
0000
0000
0000
0000
0000
0000
0000
0010
0000
0000
0000
0000
0000
0000
0000
0000
0000
0000
,  // measure 85
0000
0000
0000
0000
0000
0000
0000
0000
0000
0000
0000
0000
0000
0000
0000
0000
0000
0000
0000
0000
0000
0000
0000
0000
0000
0000
0000
0000
0000
0000
0000
0000
0001
0000
0000
0000
0000
0000
0000
0000
0000
0000
0010
0000
0000
0000
0000
0000
0000
0000
0000
0000
0000
0100
0000
0000
0000
0000
0000
0000
0000
0000
0000
0000
,  // measure 86
0000
0000
0000
0000
0000
0000
0000
0000
0000
0000
0000
0000
0000
0000
0000
0000
0000
0000
0000
0000
0000
0000
0000
0000
0000
0000
0000
0000
0000
0000
0000
0000
1000
0000
0000
0000
0000
0000
0000
0000
0000
0000
0010
0000
0000
0000
0000
0000
0000
0000
0000
0000
0000
0001
0000
0000
0000
0000
0000
0000
0000
0000
0000
0000
,  // measure 87
1000
0000
0000
0000
0000
0000
0000
0000
0000
0000
0100
0000
0000
0000
0000
0000
0000
0000
0000
0000
0000
0001
0000
0000
0000
0000
0000
0000
0000
0000
0000
0000
1000
0000
0000
0000
0000
0000
0000
0000
0000
0000
0010
0000
0000
0000
0000
0000
0000
0000
0000
0000
0000
0001
0000
0000
0000
0000
0000
0000
0000
0000
0000
0000
,  // measure 88
1000
0000
0000
0000
0000
0000
0000
0000
0000
0000
0100
0000
0000
0000
0000
0000
0000
0000
0000
0000
0000
0001
0000
0000
0000
0000
0000
0000
0000
0000
0000
0000
0010
0000
0000
0000
0000
0000
0000
0000
0000
0000
0100
0000
0000
0000
0000
0000
0000
0000
0000
0000
0000
0010
0000
0000
0000
0000
0000
0000
0000
0000
0000
0000
,  // measure 89
1000
0000
0000
0000
0000
0000
0000
0000
0000
0000
0000
0000
0000
0000
0000
0000
0000
0000
0000
0000
0000
0000
0000
0000
0000
0000
0000
0000
0000
0000
0001
0000
0000
0000
0000
0000
0000
0000
0000
0000
0000
0000
0000
0000
0000
0000
0000
0000
0000
0000
0000
0000
0000
0000
0000
0000
0000
0000
0000
0000
0000
0000
0000
1000
0000
0000
0000
0000
0000
0000
0000
0000
0000
0000
0000
0000
0000
0000
0000
0000
0000
0000
0000
0000
0000
0000
0000
0000
0000
0000
0000
0000
0000
0000
0000
0000
1000
0000
0000
0000
0000
0000
0000
0000
0000
0000
0000
0000
0000
0000
0000
0000
0001
0000
0000
0000
0000
0000
0000
0000
0000
0000
0000
0000
0000
0000
0000
0000
1000
0000
0000
0000
0000
0000
0000
0000
0000
0000
0000
0000
0000
0000
0000
0000
0001
0000
0000
0000
0000
0000
0000
0000
0000
0000
0000
0000
0000
0000
0000
0000
1000
0000
0000
0000
0000
0000
0000
0000
0000
0000
0000
0000
0000
0000
0000
0000
0001
0000
0000
0000
0000
0000
0000
0000
0000
0000
0000
0000
0000
0000
0000
0000
,  // measure 90
1000
0001
1000
0001
1000
0001
2002
0000
0000
0000
0000
0000
,  // measure 91
0000
0000
0000
3003
;
