#TITLE:Nozex;
#SUBTITLE:(DWI Version);
#ARTIST:Tony Thai;
#TITLETRANSLIT:;
#SUBTITLETRANSLIT:;
#ARTISTTRANSLIT:;
#GENRE:;
#CREDIT:;
#BANNER:nozex bn.png;
#BACKGROUND:nozex bg.png;
#LYRICSPATH:;
#CDTITLE:;
#MUSIC:Nozex DWI.mp3;
#OFFSET:-0.068000;
#SAMPLESTART:79.482002;
#SAMPLELENGTH:12.000000;
#SELECTABLE:YES;
#BPMS:0.000000=145.000000
,256.000000=72.500000
;
#STOPS:
;
#BGCHANGES:;
#KEYSOUNDS:;
#ATTACKS:;

//---------------dance-single - ----------------
#NOTES:
     dance-single:
     :
     Easy:
     3:
     0.271448,0.307243,0.089706,0.000000,0.000000,233.000000,222.000000,11.000000,0.000000,0.000000,0.000000,0.271448,0.307243,0.089706,0.000000,0.000000,233.000000,222.000000,11.000000,0.000000,0.000000,0.000000:
// measure 0
0000
0000
0000
0000
,  // measure 1
0000
0000
0000
0000
,  // measure 2
0000
0000
0000
0000
,  // measure 3
0000
0000
0000
0000
,  // measure 4
0000
0000
0000
0000
,  // measure 5
0000
0000
0000
0000
,  // measure 6
0000
0000
0000
0000
,  // measure 7
0000
0000
0000
0000
,  // measure 8
1000
0010
0100
0100
,  // measure 9
0001
0010
0100
0100
,  // measure 10
0001
0100
1000
0100
,  // measure 11
1000
0100
0001
0001
,  // measure 12
0100
0001
0100
1000
,  // measure 13
0010
0001
0010
1000
,  // measure 14
0001
0001
0010
0100
,  // measure 15
1001
0000
0000
0000
,  // measure 16
0001
0010
0000
0100
,  // measure 17
0001
0100
1000
0100
,  // measure 18
0001
1000
0000
0010
,  // measure 19
0001
0100
0001
0100
,  // measure 20
0001
1000
0000
0010
,  // measure 21
1000
0010
0001
0010
,  // measure 22
0100
1000
0000
0100
,  // measure 23
1000
0010
1000
0100
,  // measure 24
1000
1001
0000
0001
,  // measure 25
1001
1000
0010
0001
,  // measure 26
0100
0110
0000
0010
,  // measure 27
1000
0100
0001
0100
,  // measure 28
1000
1001
0000
0001
,  // measure 29
0100
1000
0010
1000
,  // measure 30
0010
0110
0000
0100
,  // measure 31
0001
0100
0001
0110
,  // measure 32
1001
1000
0001
0000
,  // measure 33
1000
0001
0010
0100
,  // measure 34
0100
0001
1000
0000
,  // measure 35
0010
0010
0001
1000
,  // measure 36
0100
0100
0001
0000
,  // measure 37
0100
0100
0001
0100
,  // measure 38
1000
0100
0001
0000
,  // measure 39
0010
0100
1000
0010
,  // measure 40
0001
1000
0010
0000
,  // measure 41
0100
0001
1000
0001
,  // measure 42
0100
0100
0100
0000
,  // measure 43
0001
1000
0001
0010
,  // measure 44
1000
0001
1000
0000
,  // measure 45
0100
0001
1000
0001
,  // measure 46
1000
1000
1000
0000
,  // measure 47
0010
0100
0010
0100
,  // measure 48
1001
1000
1000
1000
,  // measure 49
0001
0001
0010
0010
,  // measure 50
0100
0100
0100
0100
,  // measure 51
1000
1000
0010
0010
,  // measure 52
1000
1000
1000
1000
,  // measure 53
0100
0100
0001
0001
,  // measure 54
0100
0100
0100
0100
,  // measure 55
1000
1000
1000
0110
,  // measure 56
1001
0010
1000
0100
,  // measure 57
1000
0010
0001
0100
,  // measure 58
0001
0010
1000
0001
,  // measure 59
0100
1000
0100
0001
,  // measure 60
0100
0001
0100
0001
,  // measure 61
0010
1000
0010
1000
,  // measure 62
0001
0100
0001
0010
,  // measure 63
0100
0001
1000
0010
,  // measure 64
1000
0010
0100
0100
,  // measure 65
1000
0010
0100
0001
,  // measure 66
0010
0100
0001
0001
,  // measure 67
0010
0100
0001
0000
,  // measure 68
1000
0000
0001
0000
;

//---------------dance-single - ----------------
#NOTES:
     dance-single:
     :
     Medium:
     8:
     0.516100,0.530692,0.024465,0.000000,0.053008,443.000000,440.000000,3.000000,0.000000,0.000000,0.000000,0.516100,0.530692,0.024465,0.000000,0.053008,443.000000,440.000000,3.000000,0.000000,0.000000,0.000000:
// measure 0
0000
0000
0000
0000
,  // measure 1
0000
0000
0000
0000
,  // measure 2
0000
0000
0000
0000
,  // measure 3
0000
0000
0000
0000
,  // measure 4
0000
0000
0000
0000
,  // measure 5
0000
0000
0000
0000
,  // measure 6
0000
0000
0000
0000
,  // measure 7
0000
0000
0000
0000
,  // measure 8
1000
0010
0100
0001
0010
0100
1000
0000
,  // measure 9
0001
0010
0100
1000
0010
0100
0001
0000
,  // measure 10
1000
0010
0100
0001
0010
0100
1000
0000
,  // measure 11
0001
0010
0100
1000
0010
0100
0001
0000
,  // measure 12
1000
0010
1000
0100
0001
0100
1000
0000
,  // measure 13
0001
0010
0001
0100
1000
0100
0001
0000
,  // measure 14
0001
1000
0010
1000
0001
0100
0010
1000
,  // measure 15
0100
0000
0000
0000
,  // measure 16
0001
0010
0100
1000
0001
0010
0100
1000
,  // measure 17
0001
1000
0100
1000
0001
0100
0001
1000
,  // measure 18
1000
0010
0100
0001
1000
0010
0100
0001
,  // measure 19
1000
0100
1000
0001
0100
0001
1000
0001
,  // measure 20
0001
0100
0010
1000
0001
0100
0010
1000
,  // measure 21
0100
1000
0010
0001
0010
1000
0100
1000
,  // measure 22
1000
0100
0010
0001
1000
0100
0010
0001
,  // measure 23
0100
0001
0010
1000
0010
0001
1000
0010
,  // measure 24
0100
0001
0010
0100
1000
0001
0100
0010
,  // measure 25
1000
0100
1000
0001
1000
0100
0010
0001
,  // measure 26
0100
0010
1000
0100
1000
0010
1000
0100
,  // measure 27
0010
0001
0100
0010
1000
0100
0010
0001
,  // measure 28
0100
0001
0010
0001
0100
0001
0010
0001
,  // measure 29
0100
0010
1000
0100
0010
0001
1000
0001
,  // measure 30
0100
1000
0100
0001
0100
1000
0100
0001
,  // measure 31
1000
0100
0010
0001
1000
0000
0001
0000
,  // measure 32
1000
1000
0010
0100
0001
0000
1000
0000
,  // measure 33
0001
0001
0010
0100
1000
1000
0010
0000
,  // measure 34
0100
0100
0001
0010
0100
0000
1000
0000
,  // measure 35
1000
0010
0100
0001
0010
0000
0100
0000
,  // measure 36
1000
0010
0100
0001
0010
0000
0100
0000
,  // measure 37
1000
0010
0100
0001
1000
0000
0100
0000
,  // measure 38
1000
0001
0100
0010
1000
0000
0100
0000
,  // measure 39
1000
1000
0001
0010
0100
0000
1000
0000
,  // measure 40
0001
0010
0100
1000
0010
1000
0010
0000
,  // measure 41
0010
0100
0001
0010
0100
1000
0010
0000
,  // measure 42
1000
0001
0100
0010
1000
0100
0010
0000
,  // measure 43
0001
0010
0100
1000
0010
0100
0001
0100
,  // measure 44
0010
1000
0100
0010
0001
0100
0010
0000
,  // measure 45
1000
0100
0010
0001
0100
0010
1000
0000
,  // measure 46
1000
0100
1000
0001
0100
0010
1000
0000
,  // measure 47
0100
1000
0010
0100
0001
0000
1000
0000
,  // measure 48
0001
0010
0100
1000
0001
0010
0100
1000
,  // measure 49
0001
0100
0001
1000
0100
1000
0001
1000
,  // measure 50
0010
1000
0100
1000
0010
1000
0100
1000
,  // measure 51
0010
1000
0001
0100
0010
1000
0001
1000
,  // measure 52
1000
0010
0100
0001
1000
0010
0100
0001
,  // measure 53
1000
0010
0100
0001
0010
0100
1000
0100
,  // measure 54
0010
0001
0100
0001
0010
0001
0100
0001
,  // measure 55
0010
0100
1000
0010
0100
0001
1000
0100
,  // measure 56
1000
0001
0100
0010
1000
0001
0010
0100
,  // measure 57
1000
0001
0100
0001
1000
0001
0100
0001
,  // measure 58
1000
0010
0100
0001
0010
0100
1000
0010
,  // measure 59
1000
0001
0010
0100
1000
0001
0100
0010
,  // measure 60
1000
0001
0010
0100
1000
0001
1000
0001
,  // measure 61
0100
0001
0010
0100
1000
0001
1000
0100
,  // measure 62
1000
0001
0100
0001
0010
0001
0100
0010
,  // measure 63
1001
0000
1001
0000
0110
0000
1000
0001
,  // measure 64
1000
0000
0000
0001
0000
0000
0010
0100
1000
0000
0010
0100
0000
0001
0000
0010
,  // measure 65
0100
0100
1000
0010
,  // measure 66
0100
0000
0000
0000
0000
0000
0001
0000
0010
0000
0000
0000
0100
0000
0000
1000
,  // measure 67
0010
0100
0001
0100
0000
0000
0001
0010
0100
1000
0100
1000
0000
0100
1000
0100
,  // measure 68
1000
0000
0001
0000
;

//---------------dance-single - ----------------
#NOTES:
     dance-single:
     :
     Hard:
     10:
     0.792207,0.837934,0.114171,0.000000,0.860361,680.000000,666.000000,14.000000,0.000000,0.000000,0.000000,0.792207,0.837934,0.114171,0.000000,0.860361,680.000000,666.000000,14.000000,0.000000,0.000000,0.000000:
// measure 0
0000
0000
0000
0000
,  // measure 1
0000
0000
0000
0000
,  // measure 2
0000
0000
0000
0000
,  // measure 3
0000
0000
0000
0000
,  // measure 4
0000
0000
0000
0000
,  // measure 5
0000
0000
0000
0000
,  // measure 6
0000
0000
0000
0000
,  // measure 7
0000
0000
0000
0000
,  // measure 8
1000
0000
0100
1000
0100
0000
1000
0000
0001
0000
0100
0000
0101
0000
0000
0000
,  // measure 9
0001
0000
0100
0001
0100
0000
0001
0000
1000
0000
0100
0000
1100
0000
0100
0000
,  // measure 10
1000
0000
0100
1000
0100
0000
1000
0000
0001
0000
0100
0000
0101
0000
0000
0000
,  // measure 11
0001
0000
0100
0001
0100
0000
0001
0000
1000
0000
0100
0000
1001
0000
0000
0000
,  // measure 12
1000
0000
0010
1000
0010
0000
1000
0000
0001
0000
0010
0000
0011
0000
0000
0000
,  // measure 13
0001
0000
0010
0001
0010
0000
0001
0000
1000
0000
0010
0000
1010
0000
1000
0000
,  // measure 14
0010
0000
0010
1000
0010
0000
1000
0000
0001
0000
0010
0000
0011
0000
0000
0000
,  // measure 15
1001
0000
0000
0000
,  // measure 16
1000
0000
0010
0100
0001
0000
1000
0010
0100
0000
0001
1000
0010
0000
0100
0001
,  // measure 17
0010
0000
0100
1000
0001
0000
0010
0100
1000
0000
0001
0010
0100
0000
0100
1000
,  // measure 18
0010
0000
0100
0001
0010
0000
0100
1000
0010
0000
0100
0001
1000
0000
0100
1000
,  // measure 19
0001
0000
0010
0100
1000
0000
0010
0100
0001
0000
0010
0100
1000
0000
0001
0100
,  // measure 20
0010
0000
1000
0100
0010
0000
0001
0100
0010
0000
0100
0010
1000
0000
0001
0010
,  // measure 21
0100
0000
1000
0100
1000
0000
0001
0100
0001
0000
1000
0010
1000
0000
0001
0010
,  // measure 22
0001
0000
1000
0100
0010
0000
0100
1000
0010
0000
1000
0100
0010
0000
0100
1000
,  // measure 23
0010
0000
0100
0001
0010
0000
0100
0010
0001
0000
0100
0001
0010
0000
0100
0010
,  // measure 24
0001
1000
0010
0100
0001
0010
0100
1000
,  // measure 25
0001
0000
0010
0100
1000
0000
0010
0100
0001
0000
0010
0100
1000
0000
0010
0100
,  // measure 26
0001
1000
0100
0010
0001
0100
0010
1000
,  // measure 27
0001
0000
0100
0001
1000
0000
0100
1000
0001
0000
0100
0001
1000
0000
0100
1000
,  // measure 28
0001
1000
0010
0100
0001
0010
0100
1000
,  // measure 29
0001
0000
0100
0010
1000
0000
0100
0010
0001
0000
0100
0010
1000
0000
0100
0010
,  // measure 30
0001
0000
1000
0001
1000
0000
0001
0000
0010
0000
0100
0010
0100
0000
0010
0000
,  // measure 31
0100
0000
1000
0100
0010
0000
0001
0100
0010
0000
1000
0100
0011
0000
0010
0100
,  // measure 32
1001
0000
1000
0100
1000
0100
1000
0100
1000
0000
0001
0100
0001
0100
0001
0100
,  // measure 33
0001
0000
1000
0001
1000
0001
1000
0001
1000
0000
0010
0100
0001
0000
0010
0100
,  // measure 34
1000
0000
0001
0100
0001
0100
0001
0100
0001
0000
1000
0001
1000
0001
1000
0001
,  // measure 35
1000
0000
0001
0100
0001
0100
0001
0100
0001
0000
0010
0100
1000
0000
0010
0100
,  // measure 36
1000
0000
1000
0010
1000
0010
1000
0010
1000
0000
0001
0010
0001
0010
0001
0010
,  // measure 37
0001
0000
1000
0001
1000
0001
1000
0001
1000
0000
0100
0010
0001
0000
0100
0010
,  // measure 38
1000
0000
0001
0010
0001
0010
0001
0010
0001
0000
1000
0001
1000
0001
1000
0001
,  // measure 39
1000
0000
0001
0010
0001
0010
0001
0010
0001
0000
0100
0010
1000
0000
0100
0010
,  // measure 40
0001
0000
0100
0010
1000
0100
0010
0001
1000
0000
0010
0100
0001
1000
0100
1000
,  // measure 41
0001
0000
1000
0010
0100
0001
1000
0100
0010
0000
1000
0001
0100
0000
0001
1000
,  // measure 42
0010
0000
0100
0001
0010
0100
1000
0010
0100
0000
0001
0010
0100
1000
0100
0010
,  // measure 43
0001
0000
1000
0010
0100
0001
0010
0100
1000
0000
0010
0100
0010
0000
0001
1000
,  // measure 44
0001
0000
0010
0001
0100
0001
0010
0001
0100
0000
0010
1000
0100
1000
0010
1000
,  // measure 45
0100
0000
0010
0001
0100
0001
0010
0100
1000
0000
0001
0010
0100
0000
1000
0001
,  // measure 46
0010
0000
1000
0100
0001
0100
1000
0010
1000
0000
0100
0010
0001
0100
1000
0100
,  // measure 47
0001
0000
0010
0100
1000
0001
1000
0100
0010
0000
0100
0001
0010
0000
0100
1000
,  // measure 48
0010
0000
1000
0001
0010
0000
0001
1000
0010
0000
1000
0001
0100
0000
0001
1000
,  // measure 49
0100
0000
1000
0010
1000
0000
0100
0001
0100
0000
1000
0100
1000
0000
0001
0010
,  // measure 50
0001
0000
1000
0010
0100
0000
0010
1000
0001
0000
0010
0001
0100
0000
0001
1000
,  // measure 51
0100
0000
1000
0001
0010
0000
0001
0100
1000
0000
0100
0010
1000
0000
0001
0010
,  // measure 52
0001
0000
0001
0100
0001
0000
1000
0010
0100
0000
0001
1000
0010
0000
0100
0001
,  // measure 53
0010
0000
0100
1000
0001
0000
0010
0100
1000
0000
0001
0010
0100
0000
0100
1000
,  // measure 54
0001
0000
0001
0100
0010
0000
1000
0100
0010
0000
0001
0100
0010
0000
0100
0010
,  // measure 55
1000
0000
0001
0010
0100
0000
1000
0100
1000
0000
0001
0100
0001
0000
1000
0010
,  // measure 56
0001
1000
0010
0100
0001
0010
0100
1000
,  // measure 57
0001
0000
0010
0100
1000
0000
0010
0100
0001
0000
0010
0100
1000
0000
0010
0100
,  // measure 58
0001
1000
0100
0010
0001
0100
0010
1000
,  // measure 59
0001
0000
0100
0001
1000
0000
0100
1000
0001
0000
0100
0001
1000
0000
0100
1000
,  // measure 60
0001
1000
0010
0100
0001
0010
0100
1000
,  // measure 61
0001
0000
0100
0010
1000
0000
0100
0010
0001
0000
0100
0010
1000
0000
0100
0010
,  // measure 62
0001
0010
0100
1000
0001
0010
0100
1000
,  // measure 63
1001
0000
0100
0000
1001
0000
0000
0000
1001
0000
0000
0000
0001
0010
0100
1000
,  // measure 64
0001
0010
0100
1000
0000
0000
0010
0100
0001
0000
0010
0100
0000
1000
0000
0001
,  // measure 65
0010
0000
0000
0100
0000
0000
1000
0000
0010
0000
0000
0000
0100
0000
0000
0000
,  // measure 66
0001
0010
0100
1000
0000
0000
0000
0000
0001
0010
0100
1000
0000
0000
0000
1000
,  // measure 67
0010
0100
0001
0010
0000
0100
1000
0001
0100
0010
1000
0001
0000
1000
0010
0100
,  // measure 68
1001
0000
0001
0000
;
