#VERSION:0.83;
#TITLE:Night of Fire;
#SUBTITLE:(X'mas Version);
#ARTIST:Niko;
#TITLETRANSLIT:;
#SUBTITLETRANSLIT:;
#ARTISTTRANSLIT:;
#GENRE:;
#ORIGIN:;
#CREDIT:;
#BANNER:nof bn2.png;
#BACKGROUND:nof bg.png;
#PREVIEWVID:;
#JACKET:;
#CDIMAGE:;
#DISCIMAGE:;
#LYRICSPATH:;
#CDTITLE:;
#MUSIC:Niko - Night of Fire (X'mas Version).mp3;
#OFFSET:-1.797000;
#SAMPLESTART:52.803001;
#SAMPLELENGTH:12.000000;
#SELECTABLE:YES;
#BPMS:0.000=155.080;
#STOPS:;
#DELAYS:;
#WARPS:;
#TIMESIGNATURES:0.000=4=4;
#TICKCOUNTS:0.000=4;
#COMBOS:0.000=1;
#SPEEDS:0.000=1.000=0.000=0;
#SCROLLS:0.000=1.000;
#FAKES:;
#LABELS:0.000=Song Start;
#BGCHANGES:;
#KEYSOUNDS:;
#ATTACKS:
;

//---------------dance-single - ----------------
#NOTEDATA:;
#CHARTNAME:;
#STEPSTYPE:dance-single;
#DESCRIPTION:;
#CHARTSTYLE:;
#DIFFICULTY:Easy;
#METER:6;
#RADARVALUES:0.458942,0.465920,0.398879,0.043122,0.043122,298.000000,261.000000,37.000000,4.000000,0.000000,0.000000,0.000000,0.000000,0.000000,0.458942,0.465920,0.398879,0.043122,0.043122,298.000000,261.000000,37.000000,4.000000,0.000000,0.000000,0.000000,0.000000,0.000000;
#CREDIT:;
#NOTES:
// measure 0
0000
0000
0000
0000
,  // measure 1
0000
0000
0000
0000
,  // measure 2
0000
0000
0000
0000
,  // measure 3
0000
0000
0000
0000
,  // measure 4
1000
0001
0000
0001
0000
0001
0000
0001
,  // measure 5
0000
0010
0000
0010
0000
0100
0000
0100
,  // measure 6
0000
1000
0000
1000
0000
1000
0000
1000
,  // measure 7
0001
0000
0000
0001
0000
0000
0001
0000
0000
1000
0000
0000
1000
0000
1000
0000
,  // measure 8
0002
0000
0000
0003
,  // measure 9
1000
1010
0001
0101
,  // measure 10
0001
0100
0001
0000
1000
0010
1000
0000
,  // measure 11
0001
0011
1000
1100
,  // measure 12
1000
0100
1000
0000
0001
0010
0001
0000
,  // measure 13
0010
0110
0100
1100
,  // measure 14
1000
0100
1000
0000
0010
0100
0001
0000
,  // measure 15
1001
0011
0010
1100
,  // measure 16
1000
0000
0000
0001
0000
0000
1000
0000
0000
0001
0000
0000
1000
0000
0001
0000
,  // measure 17
1000
0000
0100
0000
0010
0001
0010
0000
,  // measure 18
0100
0000
1000
0000
0010
1000
0010
0000
,  // measure 19
0100
0101
0100
0101
,  // measure 20
0010
1000
0001
0000
1000
0001
0100
0000
,  // measure 21
0001
0000
0010
0000
0100
1000
0100
0000
,  // measure 22
0010
0000
0001
0000
0100
0001
0100
0000
,  // measure 23
1001
0000
0010
0000
0100
1000
0010
0000
,  // measure 24
0100
0000
0000
0100
0000
0000
0001
0000
0000
0001
0000
0000
1000
0000
1000
0000
,  // measure 25
0010
0100
1001
0010
,  // measure 26
1001
0000
1000
0100
0010
0000
0011
0000
,  // measure 27
1000
0001
1000
0000
0001
1000
0001
0000
,  // measure 28
1000
0001
1000
0001
0000
0010
0100
0000
,  // measure 29
0010
0100
1001
0100
,  // measure 30
1001
0000
0001
0010
0100
0000
1100
0000
,  // measure 31
0020
0000
0000
0000
0230
0000
0000
0302
,  // measure 32
0000
1003
1000
1000
0100
1000
0000
0000
,  // measure 33
1001
0000
0010
0000
0100
0100
0000
0000
,  // measure 34
1001
0000
0100
0000
1000
0010
0100
0000
,  // measure 35
1001
0000
0100
0000
0001
0010
0100
1000
,  // measure 36
0000
0001
0010
0000
0100
0000
1000
0000
,  // measure 37
1001
0000
0010
0000
0100
0100
0000
0000
,  // measure 38
1001
0000
0010
0000
0001
0010
0100
0000
,  // measure 39
1001
0000
0010
0000
1000
0010
0100
0001
,  // measure 40
0000
1000
0100
0000
0010
0000
0001
0000
,  // measure 41
1001
0000
1001
0000
0001
1000
0000
0000
,  // measure 42
0010
0000
0010
0000
1000
0010
0100
0000
,  // measure 43
0001
0000
0001
0000
0010
0100
0010
0100
,  // measure 44
0000
1000
0001
0000
0010
0000
0100
0000
,  // measure 45
1001
0000
1001
0000
1000
0001
0000
0000
,  // measure 46
0100
0000
0100
0000
0001
0100
0010
0000
,  // measure 47
1000
0000
1000
0000
0100
0010
0001
1000
,  // measure 48
0000
0001
1000
0001
1000
0001
1000
0000
,  // measure 49
1000
1010
0001
0101
,  // measure 50
0001
0100
0001
0000
1000
0010
1000
0000
,  // measure 51
0001
0011
1000
1100
,  // measure 52
1000
0100
1000
0000
0001
0010
0001
0000
,  // measure 53
0010
0110
0100
1100
,  // measure 54
1000
0100
1000
0000
0010
0100
0001
0000
,  // measure 55
1001
0011
0010
1100
,  // measure 56
1000
0000
0000
0001
0000
0000
1000
0000
0000
0001
0000
0000
1000
0000
0001
0000
,  // measure 57
1000
0000
0001
0000
0010
0100
0000
0000
;

//---------------dance-single - ----------------
#NOTEDATA:;
#CHARTNAME:;
#STEPSTYPE:dance-single;
#DESCRIPTION:;
#CHARTSTYLE:;
#DIFFICULTY:Medium;
#METER:7;
#RADARVALUES:0.465102,0.434859,0.172488,0.043122,0.043122,302.000000,286.000000,16.000000,4.000000,0.000000,0.000000,0.000000,0.000000,0.000000,0.465102,0.434859,0.172488,0.043122,0.043122,302.000000,286.000000,16.000000,4.000000,0.000000,0.000000,0.000000,0.000000,0.000000;
#CREDIT:;
#NOTES:
// measure 0
0000
0000
0000
0000
,  // measure 1
0000
0000
0000
0000
,  // measure 2
0000
0000
0000
0000
,  // measure 3
0000
0000
0000
0000
,  // measure 4
1000
0001
0000
0001
0000
0001
0000
0001
,  // measure 5
1000
0001
0000
0001
1000
0001
0000
0001
,  // measure 6
0010
0000
0100
0000
1000
0001
0010
0000
,  // measure 7
1000
0000
0000
0100
0000
0000
0010
0000
0000
0001
0000
0000
0010
0000
0100
0000
,  // measure 8
2000
0000
0000
3000
,  // measure 9
0001
0010
0100
0000
1000
0010
0100
0000
,  // measure 10
0010
1000
0100
0000
0010
0001
0100
0000
,  // measure 11
0010
1000
0001
0000
0100
0001
0010
0000
,  // measure 12
0100
1000
0100
0000
0010
0001
0010
0000
,  // measure 13
0100
1000
0001
0000
0010
0001
0010
0000
,  // measure 14
0100
1000
0001
0000
1000
0100
1000
0000
,  // measure 15
0001
1000
0100
0000
0010
0001
0100
0000
,  // measure 16
0010
0000
0000
1000
0000
0000
0100
0000
0000
0010
0000
0000
0001
0000
0100
0000
,  // measure 17
0010
0000
1001
0000
1000
0100
1000
0000
,  // measure 18
0010
0000
1001
0000
0001
0010
0001
0000
,  // measure 19
1000
0100
0010
0000
0001
0100
0010
0000
,  // measure 20
1000
0010
0100
0000
0001
0010
0100
0000
,  // measure 21
0010
0000
1001
0000
0010
1000
1000
0000
,  // measure 22
0100
0000
1001
0000
0010
0001
0001
0000
,  // measure 23
0100
0010
1000
0000
0001
1000
0100
0000
,  // measure 24
1000
0000
0000
0100
0000
0000
1000
0000
0000
0001
0000
0000
0100
0000
0001
0000
,  // measure 25
1000
0000
0010
0100
0000
0001
0000
0010
,  // measure 26
0000
0010
0100
1000
0010
0000
0100
0000
,  // measure 27
0001
0010
0001
0000
0001
0010
0001
0000
,  // measure 28
0001
0010
0100
1000
0000
1000
0001
0000
,  // measure 29
0010
0000
0100
1000
0000
0001
0000
0010
,  // measure 30
0000
0010
0100
0000
1000
0000
0100
0000
,  // measure 31
0020
0000
0000
0000
0032
0000
0000
0023
,  // measure 32
0030
0100
0010
0100
1000
0010
0000
0000
,  // measure 33
1001
0000
0010
0000
0100
1000
0000
0000
,  // measure 34
1000
0000
0001
0010
0001
0000
0110
0000
,  // measure 35
1000
0000
0001
0010
0001
0000
1000
0010
,  // measure 36
0000
0010
0100
0001
1000
0000
0100
0000
,  // measure 37
1001
0000
0010
0000
0100
0001
0000
0000
,  // measure 38
0001
0000
1000
0100
1000
0000
0110
0000
,  // measure 39
0001
0000
1000
0100
1000
0000
0001
0010
,  // measure 40
0000
0010
0100
1000
0001
0000
0100
0000
,  // measure 41
1001
0000
0110
0000
0001
0100
0000
0000
,  // measure 42
1000
0000
0001
0010
0100
0000
1001
0000
,  // measure 43
0001
0000
1000
0100
0010
0000
0001
0010
,  // measure 44
0000
0100
1000
0001
0010
0000
0100
0000
,  // measure 45
1001
0000
0110
0000
1000
0010
0000
0000
,  // measure 46
0001
0000
1000
0100
0010
0000
1001
0000
,  // measure 47
1000
0000
0001
0010
0100
0000
1000
0100
,  // measure 48
0000
0010
0001
1000
0100
0000
0010
0000
,  // measure 49
0001
0010
0100
0000
1000
0010
0100
0000
,  // measure 50
0010
1000
0100
0000
0010
0001
0100
0000
,  // measure 51
0010
1000
0001
0000
0100
0001
0010
0000
,  // measure 52
0100
1000
0100
0000
0010
0001
0010
0000
,  // measure 53
0100
1000
0001
0000
0010
0001
0010
0000
,  // measure 54
0100
1000
0001
0000
1000
0100
1000
0000
,  // measure 55
0001
1000
0100
0000
0010
0001
0100
0000
,  // measure 56
0010
0000
0000
1000
0000
0000
0100
0000
0000
0010
0000
0000
0001
0000
0100
0000
,  // measure 57
1001
0000
0110
0000
0001
1000
0000
0000
;

//---------------dance-single - ----------------
#NOTEDATA:;
#CHARTNAME:;
#STEPSTYPE:dance-single;
#DESCRIPTION:;
#CHARTSTYLE:;
#DIFFICULTY:Hard;
#METER:9;
#RADARVALUES:0.575987,0.528043,0.258732,0.107805,0.043122,374.000000,350.000000,24.000000,10.000000,0.000000,0.000000,0.000000,0.000000,0.000000,0.575987,0.528043,0.258732,0.107805,0.043122,374.000000,350.000000,24.000000,10.000000,0.000000,0.000000,0.000000,0.000000,0.000000;
#CREDIT:;
#NOTES:
// measure 0
0000
0000
0000
0000
,  // measure 1
0000
0000
0000
0000
,  // measure 2
0000
0000
0000
0000
,  // measure 3
0000
0000
0000
0000
,  // measure 4
1000
0001
0000
0001
0000
0010
0000
0100
,  // measure 5
1000
0010
0000
0100
0001
0010
0000
0100
,  // measure 6
1000
0000
0100
0000
0010
0001
0010
0001
,  // measure 7
0100
0000
0000
1000
0000
0000
0010
0000
0000
0001
0000
0000
0100
0000
0010
0000
,  // measure 8
2002
0000
0000
3003
,  // measure 9
0001
0100
1000
0001
0100
1000
0100
0010
,  // measure 10
1000
0100
0001
0100
0010
0001
0100
0010
,  // measure 11
1000
0100
0001
0100
0010
0001
0100
0010
,  // measure 12
1000
0100
0001
0100
1000
0010
0100
0001
,  // measure 13
0010
0100
1000
0100
0001
0100
0010
0001
,  // measure 14
0100
0010
1000
0010
0100
0001
0010
0100
,  // measure 15
1000
0100
0001
0100
0010
0001
0010
0100
,  // measure 16
1000
0000
0000
0010
0000
0000
0001
0000
0000
0100
0000
0000
1000
0000
0010
0000
,  // measure 17
1000
0010
0100
0001
0010
0100
1000
0000
,  // measure 18
0001
0010
0100
1000
0010
0100
0001
0100
,  // measure 19
0010
1000
0100
0000
0010
0001
1000
0000
,  // measure 20
0010
0100
0001
0100
1000
0100
0010
0100
,  // measure 21
0001
0010
0100
1000
0001
0100
1000
0000
,  // measure 22
0100
0001
0010
0001
0100
1000
0100
0010
,  // measure 23
1000
0100
0010
0000
0001
0010
1000
0010
,  // measure 24
0001
0000
0000
0001
0000
0000
0100
0000
0000
0100
0000
0000
0010
0000
1000
0000
,  // measure 25
1001
0000
0001
0010
0000
0100
0000
1001
,  // measure 26
0000
1000
0100
0010
0100
1000
0001
0000
,  // measure 27
0001
0010
1000
0000
0001
0100
1000
0000
,  // measure 28
0001
0010
0100
1000
0000
0100
0010
0001
,  // measure 29
1001
0000
1000
0100
0000
0010
0000
1001
,  // measure 30
0000
0001
0010
0100
0010
0001
1000
0000
,  // measure 31
2200
0000
3300
0000
0022
0033
0000
1001
,  // measure 32
0000
1000
0001
0010
0100
0010
0000
0000
,  // measure 33
1001
0000
0110
0000
0001
0100
0000
0001
,  // measure 34
0000
0010
0100
1000
0010
0100
1000
0000
,  // measure 35
0000
0010
0100
0001
0010
0100
0001
0020
,  // measure 36
0000
0130
1000
0001
0011
0000
1100
0000
,  // measure 37
1001
0000
0110
0000
1000
0100
0000
1000
,  // measure 38
0000
0001
0010
1000
0001
0100
1000
0001
,  // measure 39
0000
1000
0010
0001
1000
0100
0001
0020
,  // measure 40
0000
0031
0001
0010
0011
0000
1100
0000
,  // measure 41
1001
0000
0110
0000
0100
1000
0000
0100
,  // measure 42
0000
0010
0001
0100
0010
1000
0100
0000
,  // measure 43
0000
0010
0001
0100
0010
1000
0100
0002
,  // measure 44
0000
0103
0100
0010
0001
0100
0001
1000
,  // measure 45
1010
0000
1001
0000
0010
0100
1000
0010
,  // measure 46
0000
0010
0100
0001
0010
0100
1000
0010
,  // measure 47
0000
1000
0100
0001
0100
1000
0010
0200
,  // measure 48
0000
0301
0001
0001
0010
0100
0001
0000
,  // measure 49
0001
0100
1000
0001
0100
1000
0100
0010
,  // measure 50
1000
0100
0001
0100
0010
0001
0100
0010
,  // measure 51
1000
0100
0001
0100
0010
0001
0100
0010
,  // measure 52
1000
0100
0001
0100
1000
0010
0100
0001
,  // measure 53
0010
0100
1000
0100
0001
0100
0010
0001
,  // measure 54
0100
0010
1000
0010
0100
0001
0010
0100
,  // measure 55
1000
0100
0001
0100
0010
0001
0010
0100
,  // measure 56
1000
0000
0000
0010
0000
0000
0001
0000
0000
0100
0000
0000
1000
0000
0010
0000
,  // measure 57
1001
0000
0110
0000
1100
0101
0000
0000
;
