#VERSION:0.83;
#TITLE:Never Ending Story;
#SUBTITLE:(Speedo Mix);
#ARTIST:Dj Speedo feat. AC-DC;
#TITLETRANSLIT:;
#SUBTITLETRANSLIT:;
#ARTISTTRANSLIT:;
#GENRE:;
#ORIGIN:;
#CREDIT:;
#BANNER:Never Ending Story Speed - bn.png;
#BACKGROUND:Never Ending Story Speed - bg.png;
#PREVIEWVID:;
#JACKET:;
#CDIMAGE:;
#DISCIMAGE:;
#LYRICSPATH:;
#CDTITLE:;
#MUSIC:Dj Speedo feat. AC-DC - Never Ending Story (Speedo Mix).mp3;
#OFFSET:-0.170000;
#SAMPLESTART:32.550003;
#SAMPLELENGTH:12.000000;
#SELECTABLE:YES;
#BPMS:0.000=170.000;
#STOPS:;
#DELAYS:;
#WARPS:;
#TIMESIGNATURES:0.000=4=4;
#TICKCOUNTS:0.000=4;
#COMBOS:0.000=1;
#SPEEDS:0.000=1.000=0.000=0;
#SCROLLS:0.000=1.000;
#FAKES:;
#LABELS:0.000=Song Start;
#BGCHANGES:;
#KEYSOUNDS:;
#ATTACKS:
;

//---------------dance-single - ----------------
#NOTEDATA:;
#CHARTNAME:;
#STEPSTYPE:dance-single;
#DESCRIPTION:;
#CHARTSTYLE:;
#DIFFICULTY:Easy;
#METER:5;
#RADARVALUES:0.383822,0.546615,0.389116,0.166764,0.000000,290.000000,248.000000,42.000000,18.000000,0.000000,0.000000,0.000000,0.000000,0.000000,0.383822,0.546615,0.389116,0.166764,0.000000,290.000000,248.000000,42.000000,18.000000,0.000000,0.000000,0.000000,0.000000,0.000000;
#CREDIT:;
#NOTES:
// measure 0
0000
0000
0000
0000
,  // measure 1
0000
0000
0000
0000
,  // measure 2
0000
0000
0000
0000
,  // measure 3
0000
0000
0000
0000
,  // measure 4
1001
0100
0000
0010
,  // measure 5
0000
0001
0000
0100
,  // measure 6
1001
0001
1001
1000
,  // measure 7
1010
1010
0101
0101
,  // measure 8
1001
1000
0200
0000
,  // measure 9
0300
0000
0100
0010
,  // measure 10
0001
0001
0100
1000
,  // measure 11
0001
1000
0100
0001
,  // measure 12
0010
0010
0200
0000
,  // measure 13
0300
0000
1000
0001
,  // measure 14
0010
0010
0100
1000
,  // measure 15
0010
0100
0001
1000
,  // measure 16
1001
1000
1000
1000
,  // measure 17
0001
0001
0001
0001
,  // measure 18
0100
0100
0010
0010
,  // measure 19
1000
0001
1001
0110
,  // measure 20
1001
0001
0001
0001
,  // measure 21
1001
1000
1000
0100
,  // measure 22
0110
0010
0100
0010
,  // measure 23
1000
0000
0000
0001
0000
0000
1000
0000
,  // measure 24
1002
0000
0023
0000
,  // measure 25
0000
0130
0000
0100
,  // measure 26
1000
1000
0001
0001
,  // measure 27
0100
1000
0010
0001
,  // measure 28
2001
0000
3020
0000
,  // measure 29
0000
0130
0000
0100
,  // measure 30
1001
0100
1001
0100
,  // measure 31
0010
0010
0010
0010
,  // measure 32
1000
0001
0100
0001
,  // measure 33
1000
0100
1000
0010
,  // measure 34
0100
0100
0001
0010
,  // measure 35
0100
0100
1000
0010
,  // measure 36
0100
1001
0001
0101
,  // measure 37
1000
0001
1000
0001
,  // measure 38
0010
1001
1000
1100
,  // measure 39
0020
0100
0000
0130
,  // measure 40
1001
0000
0000
0100
0200
0000
0000
0000
,  // measure 41
0000
0000
0300
0000
1000
0001
1000
0001
,  // measure 42
2000
0000
3001
0100
,  // measure 43
0001
0001
1000
0100
,  // measure 44
1001
0000
0000
0100
0200
0000
0000
0000
,  // measure 45
0000
0000
0300
0000
0001
1000
0001
1000
,  // measure 46
0002
0000
1003
0100
,  // measure 47
1000
1000
0010
0110
,  // measure 48
1001
0000
0010
0100
0000
0100
0000
0010
,  // measure 49
0000
0100
0000
0000
0000
1000
0001
0000
,  // measure 50
0010
0010
0100
1000
,  // measure 51
0001
0100
1001
0110
,  // measure 52
1001
0000
0001
0100
0000
0000
0010
1000
,  // measure 53
0000
0001
0000
0000
0000
1000
0100
0000
,  // measure 54
0010
1001
0010
1001
,  // measure 55
1001
0000
0000
1001
0000
0000
1001
0000
,  // measure 56
0020
0000
0030
0110
,  // measure 57
1000
0100
1000
0100
,  // measure 58
0001
0100
0001
0100
,  // measure 59
1000
1100
0001
0101
,  // measure 60
1000
0000
1001
0000
0100
0010
0100
0000
,  // measure 61
1000
0010
1000
0010
,  // measure 62
0001
0010
0001
0010
,  // measure 63
1000
1010
0001
0011
,  // measure 64
1000
0000
1001
0000
0010
0100
0010
0000
,  // measure 65
2000
0000
3002
0000
,  // measure 66
0000
0013
0000
0100
,  // measure 67
1000
1000
0010
0001
,  // measure 68
1000
0001
0010
1000
,  // measure 69
0002
0000
2003
0000
,  // measure 70
3001
0000
0100
0000
0000
0001
1000
0001
,  // measure 71
0000
1000
0001
1000
0000
0001
1000
0001
,  // measure 72
0000
0000
0010
0010
,  // measure 73
2002
0000
0000
3003
;

//---------------dance-single - ----------------
#NOTEDATA:;
#CHARTNAME:;
#STEPSTYPE:dance-single;
#DESCRIPTION:;
#CHARTSTYLE:;
#DIFFICULTY:Medium;
#METER:7;
#RADARVALUES:0.476468,0.546615,0.472498,0.259411,0.000000,360.000000,309.000000,51.000000,28.000000,0.000000,0.000000,0.000000,0.000000,0.000000,0.476468,0.546615,0.472498,0.259411,0.000000,360.000000,309.000000,51.000000,28.000000,0.000000,0.000000,0.000000,0.000000,0.000000;
#CREDIT:;
#NOTES:
// measure 0
0000
0000
0000
0000
,  // measure 1
0000
0000
0000
0000
,  // measure 2
0000
0000
0000
0000
,  // measure 3
0000
0000
0000
0000
,  // measure 4
1000
0100
0001
0000
0100
0000
1001
0000
,  // measure 5
0100
1100
0010
1001
,  // measure 6
0001
0100
1000
0000
0100
0000
1001
0000
,  // measure 7
0101
0101
1100
1100
,  // measure 8
1001
0000
0000
0100
0100
0000
0000
0010
,  // measure 9
0001
1000
0001
0000
1000
0100
0010
0001
,  // measure 10
1000
1000
0010
0010
,  // measure 11
1000
1000
0001
0001
,  // measure 12
0010
0000
0000
0100
0100
0000
0000
0010
,  // measure 13
0001
1000
0001
0000
1000
0100
0010
0001
,  // measure 14
1000
0100
0001
0100
,  // measure 15
1000
0010
0001
0100
,  // measure 16
1001
0000
0001
0100
0000
0100
0000
0010
,  // measure 17
0000
0100
0000
0002
0000
0000
0003
0000
,  // measure 18
1000
0000
0001
1000
0000
0010
0000
0200
,  // measure 19
0000
0300
0001
0000
1100
0000
0101
0000
,  // measure 20
0001
1000
0000
0001
0000
0000
1000
0010
,  // measure 21
0000
0200
0000
0000
0300
0001
1000
0000
,  // measure 22
0100
0110
0010
0110
,  // measure 23
1000
0000
0001
1000
0000
0001
1000
0000
,  // measure 24
0010
1002
0103
0120
,  // measure 25
1030
0000
1002
0000
0003
1000
0100
1000
,  // measure 26
0000
0100
1000
0100
0000
1000
0100
2000
,  // measure 27
0000
0000
3000
0000
0001
0010
0001
0100
,  // measure 28
0010
1002
0103
0120
,  // measure 29
1030
0000
2001
0000
3000
0001
0100
0001
,  // measure 30
0000
0100
0001
0100
0000
0001
0100
0002
,  // measure 31
0000
0000
0003
0000
1000
0010
0100
0001
,  // measure 32
1000
1000
0001
0100
,  // measure 33
0001
0001
0010
0100
,  // measure 34
1000
1001
0001
1001
,  // measure 35
0010
1001
0100
1001
,  // measure 36
0001
1000
0010
0000
0100
0000
0001
0000
,  // measure 37
1000
0001
0100
0000
0001
0000
1000
0000
,  // measure 38
0100
1001
0010
1001
,  // measure 39
0100
1001
0100
0110
,  // measure 40
1001
0000
0000
0010
0100
0000
0000
0001
,  // measure 41
1000
1000
1000
0000
0001
0100
1000
0100
,  // measure 42
0001
0010
1000
0100
,  // measure 43
0001
0010
1000
0100
,  // measure 44
0001
0000
0000
0010
0100
0000
0000
1000
,  // measure 45
0001
0001
0001
0000
1000
0100
0001
0100
,  // measure 46
1000
0010
0001
0010
,  // measure 47
1000
0100
0001
0110
,  // measure 48
1001
0000
1000
0100
0000
1000
0000
1010
,  // measure 49
0000
0202
0000
0303
0000
0001
1000
0000
,  // measure 50
0001
0001
1000
0010
,  // measure 51
0100
0110
1010
0101
,  // measure 52
1001
0000
1000
0100
0000
0000
0001
0100
,  // measure 53
0000
0220
0000
0330
0000
0001
1000
0000
,  // measure 54
0010
0110
0100
0110
,  // measure 55
1001
0000
0000
1100
0000
0000
0101
0000
,  // measure 56
0020
0100
0130
0110
,  // measure 57
0001
0100
1000
0000
0001
0000
0001
0000
,  // measure 58
1000
0000
1000
0000
0000
0001
0100
0001
,  // measure 59
0000
1000
0100
1000
0000
0001
0100
0002
,  // measure 60
0000
0000
0003
0000
1000
0010
0100
0001
,  // measure 61
1000
1000
0001
0001
,  // measure 62
0100
0000
0100
0000
0000
0010
1000
0010
,  // measure 63
0000
0100
0001
0100
0000
0010
1000
0020
,  // measure 64
0000
0000
0030
0000
1000
0010
0100
0001
,  // measure 65
1000
2100
3001
0201
,  // measure 66
0310
0000
0120
0000
0030
1000
0001
1000
,  // measure 67
0000
0100
0010
0100
0000
1000
0001
2000
,  // measure 68
0000
0000
3000
0000
0001
0010
0100
1000
,  // measure 69
0001
0120
0031
2001
,  // measure 70
3010
0000
0210
0000
0300
0001
1000
0001
,  // measure 71
0000
0010
0100
0010
0000
0001
1000
0002
,  // measure 72
0000
0003
0100
0100
,  // measure 73
2002
0000
0000
3003
;

//---------------dance-single - ----------------
#NOTEDATA:;
#CHARTNAME:;
#STEPSTYPE:dance-single;
#DESCRIPTION:;
#CHARTSTYLE:;
#DIFFICULTY:Hard;
#METER:9;
#RADARVALUES:0.622056,0.614942,0.537351,0.138970,0.185293,470.000000,412.000000,58.000000,15.000000,0.000000,0.000000,0.000000,0.000000,0.000000,0.622056,0.614942,0.537351,0.138970,0.185293,470.000000,412.000000,58.000000,15.000000,0.000000,0.000000,0.000000,0.000000,0.000000;
#CREDIT:;
#NOTES:
// measure 0
0000
0000
0000
0000
,  // measure 1
0000
0000
0000
0000
,  // measure 2
0000
0000
0000
0000
,  // measure 3
0000
0000
0000
0000
0000
0000
0000
0000
0000
0000
0000
0000
0000
0000
0000
1000
,  // measure 4
0000
0000
0001
0000
0100
0000
0000
0001
0000
0000
0001
0000
0100
0000
0000
0010
,  // measure 5
0000
0000
1000
0000
0001
0000
0000
0010
0000
0100
0010
0000
0001
0000
0000
1000
,  // measure 6
0000
0000
0001
0000
0100
0000
0000
0001
0000
1000
0001
0000
0100
0000
0000
0010
,  // measure 7
0000
1000
0001
0000
0010
0000
0000
0001
0000
0100
0010
0000
1000
0000
0000
0010
,  // measure 8
0100
0001
0100
0001
0100
0010
0100
0010
,  // measure 9
1000
0001
0000
1000
0001
0000
0000
0000
1000
0000
0100
0000
0010
0000
0001
0000
,  // measure 10
1001
0101
0110
1010
,  // measure 11
1001
1000
0001
0010
0000
0001
1000
0000
,  // measure 12
0100
1000
0100
1000
0100
0010
0100
0010
,  // measure 13
0001
1000
0000
0001
1000
0000
0000
0000
0001
0000
0100
0000
0010
0000
1000
0000
,  // measure 14
1001
0011
0110
1100
,  // measure 15
1001
0001
1000
0010
0000
0100
0100
0000
,  // measure 16
1001
0000
0001
0010
0000
0101
0000
1010
,  // measure 17
0000
0001
0100
1000
0000
0001
0100
1000
,  // measure 18
0020
0000
0130
0001
0000
1001
0000
1100
,  // measure 19
0000
1001
1100
0110
,  // measure 20
1001
0010
0000
0010
0000
0100
0001
1000
,  // measure 21
0000
1000
0100
0001
0000
0100
1000
0000
,  // measure 22
1001
0010
1100
0010
,  // measure 23
1000
0000
0001
0100
0001
0000
1000
0000
0001
0100
0001
0000
0010
0000
0100
0000
,  // measure 24
2001
0000
0000
0000
0000
0000
3010
0000
0010
0000
0100
0000
0001
0000
0000
0010
,  // measure 25
0000
0000
0001
0000
1000
0000
0000
0010
0000
0000
0100
0000
0001
0000
0010
0000
,  // measure 26
0000
0100
1000
0010
0000
0100
0001
1000
,  // measure 27
0000
0010
1001
0000
1000
0010
0100
0001
,  // measure 28
2000
0000
0000
0000
0000
0000
3010
0000
0010
0000
0100
0000
0010
0000
0000
1000
,  // measure 29
0000
0000
0100
0000
1000
0000
0000
0010
0000
0000
0100
0000
0001
0000
0100
0000
,  // measure 30
0000
0010
1000
0010
0000
0100
0001
0100
,  // measure 31
0000
0010
1001
0000
0001
0010
0100
1000
,  // measure 32
0002
0000
0000
0013
0020
0000
0000
0030
,  // measure 33
0100
1001
0010
0101
,  // measure 34
1000
0110
0001
1100
,  // measure 35
0010
0000
0000
0000
1001
0000
0000
0000
0100
0000
0000
0000
1001
0000
0000
0001
,  // measure 36
0000
1000
0010
0000
1000
0000
0000
0001
0000
0000
0001
0000
0100
0000
0000
0001
,  // measure 37
0000
0000
0001
0000
0100
0000
0000
0010
0000
0000
0010
0000
1000
0000
0000
0001
,  // measure 38
0000
0000
0100
0000
0001
0000
0000
1000
0000
0010
0100
0000
0010
0000
0000
1000
,  // measure 39
0000
0100
1000
0000
0001
0000
0000
0010
0000
0001
0100
0000
0010
0000
0000
0100
,  // measure 40
0001
0000
0001
0000
1000
0000
1000
0001
,  // measure 41
0010
0100
0000
0010
0100
0000
0000
0000
1000
0000
0100
0000
0010
0000
0001
0000
,  // measure 42
1000
0100
1000
0100
0001
0100
0001
0100
,  // measure 43
1000
0010
1000
0010
0001
0010
0001
0010
,  // measure 44
1000
0000
1000
0000
0001
0000
0001
1000
,  // measure 45
0010
0100
0000
0010
0100
0000
0000
0000
0001
0000
0100
0000
0010
0000
1000
0000
,  // measure 46
0001
0100
0010
0100
0001
0100
0010
1000
,  // measure 47
0100
1000
0001
0100
0010
0100
0110
0000
,  // measure 48
1001
0000
0010
1000
0000
1010
0000
0101
,  // measure 49
0000
0101
0001
1000
0000
0010
0100
0000
,  // measure 50
1002
0000
0013
0200
0000
0000
0310
0001
,  // measure 51
0100
0101
0110
1010
,  // measure 52
1001
0001
1000
0200
0000
0000
1300
0002
,  // measure 53
0000
0203
0000
0300
0000
0010
1000
0000
,  // measure 54
1001
0100
0101
0010
,  // measure 55
1001
0000
1000
0110
0000
0010
1001
0000
,  // measure 56
0120
0100
0130
0110
,  // measure 57
1000
0100
1000
0000
0010
0000
1001
0000
,  // measure 58
1000
0100
0001
0000
0100
1000
0010
0100
,  // measure 59
0000
0001
0100
0001
0000
1000
0010
1000
,  // measure 60
0000
0001
1001
0000
0001
1000
0100
0010
,  // measure 61
0001
0100
0001
0000
0001
0000
0110
0000
,  // measure 62
0100
1000
0010
0000
0010
0100
0001
0010
,  // measure 63
0000
0001
0100
0001
0000
1000
0100
1000
,  // measure 64
0000
0010
1001
0000
0001
0010
0100
1000
,  // measure 65
0002
1000
0203
0010
,  // measure 66
0301
1000
0010
0000
0000
1000
0001
1000
,  // measure 67
0000
0010
0100
0010
0000
0100
0001
0100
,  // measure 68
0000
0010
1001
0000
1000
0010
0100
0001
,  // measure 69
1001
1000
0100
1000
0010
0100
0010
1000
,  // measure 70
0001
0100
0001
0010
0001
0100
1000
0100
,  // measure 71
0000
0001
0010
0001
0000
0100
1000
0100
,  // measure 72
1001
1100
1001
0101
,  // measure 73
2002
0000
0000
3003
;
