#TITLE:Never Ending Story;
#SUBTITLE:(Long Version);
#ARTIST:Pearl;
#TITLETRANSLIT:;
#SUBTITLETRANSLIT:;
#ARTISTTRANSLIT:;
#GENRE:;
#CREDIT:;
#BANNER:neverendlong bn2.png;
#BACKGROUND:neverendlong bg.png;
#LYRICSPATH:;
#CDTITLE:;
#MUSIC:Never Ending Story (long).mp3;
#OFFSET:-0.198000;
#SAMPLESTART:51.099998;
#SAMPLELENGTH:12.000000;
#SELECTABLE:YES;
#BPMS:0.000000=132.000000
;
#STOPS:
;
#BGCHANGES:;
#KEYSOUNDS:;
#ATTACKS:;

//---------------dance-single - ----------------
#NOTES:
     dance-single:
     :
     Easy:
     3:
     0.275586,0.319508,0.115545,0.291375,0.000000,384.000000,361.000000,23.000000,58.000000,0.000000,0.000000,0.275586,0.319508,0.115545,0.291375,0.000000,384.000000,361.000000,23.000000,58.000000,0.000000,0.000000:
// measure 0
0000
0000
0000
0000
,  // measure 1
0000
0000
0000
0000
,  // measure 2
0000
0000
0000
0000
,  // measure 3
0000
0000
0000
0000
,  // measure 4
2000
0000
3002
0000
,  // measure 5
0023
0000
0130
1000
,  // measure 6
0020
0000
0130
0001
,  // measure 7
0020
0000
0130
1000
,  // measure 8
0010
1000
0001
1000
,  // measure 9
0100
1000
0002
0000
,  // measure 10
1003
0100
0010
0001
,  // measure 11
0020
0000
0230
0000
,  // measure 12
1300
0100
0001
0100
,  // measure 13
1000
0002
0003
0100
,  // measure 14
0010
0010
0010
1000
,  // measure 15
0001
0001
0100
0010
,  // measure 16
1001
0010
1000
0100
,  // measure 17
1000
0001
0100
0001
,  // measure 18
2000
3000
0200
0300
,  // measure 19
0002
0003
0100
0010
,  // measure 20
1001
0010
0100
0001
,  // measure 21
0010
0010
0100
1000
,  // measure 22
0002
0003
0020
0030
,  // measure 23
0200
0300
1000
0010
,  // measure 24
0100
0100
0001
0010
,  // measure 25
0100
0100
1000
0010
,  // measure 26
0100
0100
0001
0010
,  // measure 27
0100
0100
1000
0010
,  // measure 28
1001
1000
0100
0000
,  // measure 29
0010
0000
0001
0100
,  // measure 30
0010
0100
0010
1000
,  // measure 31
0010
0100
0001
0100
,  // measure 32
1001
0001
0010
0000
,  // measure 33
0100
0000
1000
0010
,  // measure 34
0100
0010
0100
0001
,  // measure 35
0100
0010
1000
0010
,  // measure 36
1001
0010
0100
0001
,  // measure 37
1000
0100
0010
0001
,  // measure 38
0100
0010
0100
0100
,  // measure 39
0001
1000
0001
0001
,  // measure 40
0010
0100
2000
0000
,  // measure 41
3010
0100
0001
1000
,  // measure 42
0010
1001
0010
1001
,  // measure 43
0100
1001
0100
0010
,  // measure 44
0002
0000
1003
0100
,  // measure 45
2000
0000
3001
0100
,  // measure 46
0010
1000
0010
0100
,  // measure 47
0001
0100
0010
0100
,  // measure 48
0002
0000
0013
0100
,  // measure 49
2000
0000
3010
0100
,  // measure 50
0001
0010
0100
1000
,  // measure 51
0002
1003
0002
1003
,  // measure 52
2000
0000
3100
0010
,  // measure 53
0002
0000
0103
0010
,  // measure 54
1000
0100
0010
0100
,  // measure 55
2001
3100
1002
0103
,  // measure 56
1000
0100
2000
3000
,  // measure 57
0001
0100
0002
0003
,  // measure 58
0010
0100
2000
3000
,  // measure 59
0010
0200
0300
0001
,  // measure 60
0010
0100
1000
0100
,  // measure 61
0010
0001
0010
0100
,  // measure 62
1000
0010
0100
0010
,  // measure 63
0100
0001
0100
0010
,  // measure 64
2000
3001
0010
0001
,  // measure 65
0200
0310
1000
0010
,  // measure 66
2000
3001
0010
0100
,  // measure 67
0020
0130
1000
0001
,  // measure 68
2000
0000
3010
0100
,  // measure 69
0002
0000
0013
0100
,  // measure 70
2000
3100
0002
0103
,  // measure 71
2000
3010
0002
0013
,  // measure 72
1001
0010
0000
0010
,  // measure 73
0000
0100
0000
0100
,  // measure 74
1001
1000
0100
1000
,  // measure 75
0001
0001
0100
0001
,  // measure 76
1000
0001
0010
0100
,  // measure 77
1000
0010
0100
0001
,  // measure 78
2000
0000
3010
0100
,  // measure 79
0010
1000
0100
1000
,  // measure 80
0001
0001
0010
0001
,  // measure 81
1000
1000
0100
1000
,  // measure 82
0020
0000
0130
0001
,  // measure 83
0200
0000
0310
1000
,  // measure 84
0100
0010
0002
0000
,  // measure 85
0103
0010
2000
3001
,  // measure 86
0100
0010
0100
0001
,  // measure 87
0010
0100
0010
0001
,  // measure 88
0010
1001
0010
1001
,  // measure 89
0100
0100
1001
0100
,  // measure 90
2000
0000
3010
0100
,  // measure 91
0002
0000
0013
0100
,  // measure 92
2000
0000
3002
0000
,  // measure 93
0013
0100
1001
0100
,  // measure 94
0002
0000
1003
0100
,  // measure 95
0020
0000
0031
0010
,  // measure 96
0200
0000
1300
0010
,  // measure 97
2000
0000
3001
0010
,  // measure 98
1001
0010
1000
0001
,  // measure 99
0110
1000
0010
0100
,  // measure 100
1001
0100
0001
1000
,  // measure 101
0110
0001
0100
0010
,  // measure 102
2001
3100
0020
0000
,  // measure 103
0031
0100
0001
0010
,  // measure 104
0200
1300
0020
0130
,  // measure 105
1002
0013
0100
0010
,  // measure 106
1001
0000
0000
0000
;

//---------------dance-single - ----------------
#NOTES:
     dance-single:
     :
     Medium:
     6:
     0.358837,0.399385,0.080379,0.195925,0.002512,500.000000,484.000000,16.000000,39.000000,0.000000,0.000000,0.358837,0.399385,0.080379,0.195925,0.002512,500.000000,484.000000,16.000000,39.000000,0.000000,0.000000:
// measure 0
0000
0000
0000
0000
,  // measure 1
0000
0000
0000
0000
,  // measure 2
0000
0000
0000
0000
,  // measure 3
0000
0000
0000
0000
,  // measure 4
2000
0000
3000
0100
0020
0000
0031
0000
,  // measure 5
0200
0000
0300
0010
2000
0000
3001
0000
,  // measure 6
2000
0000
3000
0010
,  // measure 7
0200
0301
2000
3100
,  // measure 8
0020
0000
0031
0100
0000
0010
0000
1000
,  // measure 9
0000
0010
0000
0200
0000
0000
0300
0000
,  // measure 10
0002
0000
0013
0100
0000
2000
0000
3020
,  // measure 11
0000
0000
0230
0000
,  // measure 12
0302
0000
1003
0200
0000
0300
0010
0001
,  // measure 13
0000
2000
0000
0000
3000
0000
0001
0010
,  // measure 14
0001
1000
0001
0010
,  // measure 15
0100
0100
1000
0001
,  // measure 16
0200
0000
0000
0310
1000
0000
0001
0000
,  // measure 17
0100
0000
0001
0000
0010
0000
0100
1000
,  // measure 18
0000
0010
0000
0100
0000
0010
0000
1000
,  // measure 19
0000
0001
0100
0000
0010
0000
0100
0000
,  // measure 20
0002
0000
0000
0013
0100
0000
0010
0000
,  // measure 21
0001
0000
0100
0000
0010
0000
1000
0100
,  // measure 22
0000
0010
0000
0001
0000
0100
0000
0010
,  // measure 23
1000
0000
0100
0000
0010
0001
1000
0001
,  // measure 24
0010
0000
0100
0000
1000
0100
1000
0000
,  // measure 25
0100
0000
0010
0000
0001
0010
0001
0000
,  // measure 26
0010
0000
0100
0000
1000
0010
0100
0000
,  // measure 27
0010
0000
0100
0000
0001
0010
0100
0000
,  // measure 28
1001
0100
0010
0001
,  // measure 29
0010
0000
0100
0000
1000
0010
0100
0010
,  // measure 30
1000
0000
0001
0000
0010
0000
0100
1000
,  // measure 31
0000
0010
0000
0100
0000
0010
0100
0000
,  // measure 32
1001
0000
0000
1000
0100
0000
0010
0000
,  // measure 33
0001
0000
0010
0100
0010
0001
0010
0100
,  // measure 34
0010
0000
0001
0000
0100
0000
0010
0100
,  // measure 35
0000
0001
0000
0010
0000
0100
0010
0000
,  // measure 36
1001
0000
1000
0010
0000
0010
0000
0100
,  // measure 37
0000
0010
0000
0000
1000
0000
1000
0100
,  // measure 38
1000
0000
0100
0020
0000
0031
0000
0200
,  // measure 39
0001
0301
0010
0010
,  // measure 40
1001
0000
1000
0010
0100
0000
0001
0010
,  // measure 41
0000
0100
0000
1000
0100
0000
0010
0100
,  // measure 42
2000
3100
2000
3001
,  // measure 43
0010
1002
0103
0001
,  // measure 44
2000
0000
0000
0010
3010
0000
0100
0000
,  // measure 45
0010
0000
1000
0000
0001
0000
1000
0100
,  // measure 46
0000
1000
0000
0010
0000
0100
0000
0001
,  // measure 47
0000
1000
0100
0000
1000
0010
1000
0100
,  // measure 48
2000
0000
0000
0010
3010
0000
0100
0000
,  // measure 49
0010
0000
1000
0000
0100
0000
0010
0001
,  // measure 50
0000
1000
0000
0100
0000
1000
0000
0010
,  // measure 51
0000
0100
0010
0000
0100
0000
0100
0000
,  // measure 52
0001
1000
0100
0000
1000
0001
0100
0000
,  // measure 53
0001
1000
0010
0000
1000
0001
0010
0100
,  // measure 54
0000
1000
0000
0001
0000
0010
0000
0100
,  // measure 55
0000
1000
0001
0000
1000
0000
0100
0000
,  // measure 56
1001
0000
0010
0000
0100
1000
0010
0000
,  // measure 57
0100
0000
0001
0000
0010
0100
1000
0000
,  // measure 58
0010
0000
0100
0000
0001
1000
0100
0000
,  // measure 59
1000
0000
0010
0000
0100
0010
1000
0100
,  // measure 60
2000
0000
0000
0000
3000
0000
0001
0010
,  // measure 61
0100
0000
0010
0001
0000
1000
0100
0000
,  // measure 62
0010
0000
0001
0000
1000
0010
0100
0000
,  // measure 63
0001
0000
1000
0000
0001
0010
0100
0000
,  // measure 64
2000
0010
0100
3020
,  // measure 65
0230
0000
0000
0000
0301
0000
0000
0000
0010
0000
0000
0001
0000
0000
0100
0000
,  // measure 66
0020
1000
0230
0301
,  // measure 67
0010
0100
1000
0000
0010
0000
0100
0000
,  // measure 68
0002
0103
0020
1030
,  // measure 69
0001
0100
0010
1000
,  // measure 70
1000
0010
0100
0000
0001
0010
0100
0000
,  // measure 71
1000
0010
1000
0010
0100
0001
0100
0001
,  // measure 72
0010
0000
0010
0010
,  // measure 73
0010
0100
0000
0100
,  // measure 74
1001
0000
1000
0010
0000
0100
0001
0000
,  // measure 75
0010
0000
0100
0000
1000
0001
0100
0001
,  // measure 76
1000
0000
1000
0000
1000
0100
0010
0001
,  // measure 77
0000
0010
0000
0001
0000
1000
0010
0000
,  // measure 78
2000
0000
0000
3020
0000
0000
0130
0000
,  // measure 79
1001
0000
0100
0010
1000
0100
0010
0001
,  // measure 80
0020
0000
0000
0000
0000
0130
1000
0100
,  // measure 81
0000
1000
0001
1000
0000
0010
0100
0000
,  // measure 82
0001
1000
0100
0010
0000
0100
0000
0010
,  // measure 83
0000
0002
0000
0003
0000
0000
1000
0100
,  // measure 84
1000
0000
0010
0200
0000
0000
0310
1000
,  // measure 85
0100
1010
0100
0011
,  // measure 86
1100
0000
0001
0020
0000
0030
0100
0010
,  // measure 87
0000
0001
0000
1000
0010
0000
0100
0001
,  // measure 88
1000
1000
0001
0010
,  // measure 89
1001
1001
0110
1001
,  // measure 90
1000
0000
0010
0100
0010
0000
1000
0000
,  // measure 91
0001
0010
0100
0000
1000
0000
0100
0010
,  // measure 92
0000
0100
0000
1000
0000
0010
0000
0100
,  // measure 93
0000
0010
1000
0000
0001
0010
0001
0010
,  // measure 94
0100
0000
1000
0010
0100
0000
0010
0000
,  // measure 95
1000
0100
0010
0000
0001
0000
0100
0010
,  // measure 96
0000
1000
0000
0010
0000
0100
0000
0010
,  // measure 97
0000
1000
0100
0000
0010
0001
0010
0100
,  // measure 98
1000
0000
0001
0000
0010
0100
1000
0000
,  // measure 99
0001
0010
0100
0000
1000
0010
0000
0100
,  // measure 100
0000
0010
0000
1000
0000
0100
0000
0010
,  // measure 101
0000
0001
1000
0000
0100
0010
0100
1000
,  // measure 102
0001
0010
0100
1000
1000
0000
0001
0000
,  // measure 103
0010
0100
1000
0100
0010
0001
1000
0010
,  // measure 104
0000
0100
0001
0100
0000
0010
1000
0010
,  // measure 105
0000
1000
0100
0010
0001
0010
0100
1000
,  // measure 106
1001
0000
0000
0000
;

//---------------dance-single - ----------------
#NOTES:
     dance-single:
     :
     Hard:
     7:
     0.457158,0.505888,0.095451,0.145688,0.055261,637.000000,618.000000,19.000000,29.000000,0.000000,0.000000,0.457158,0.505888,0.095451,0.145688,0.055261,637.000000,618.000000,19.000000,29.000000,0.000000,0.000000:
// measure 0
0000
0000
0000
0000
,  // measure 1
0000
0000
0000
0000
,  // measure 2
0000
0000
0000
0000
,  // measure 3
0000
0000
0000
0000
,  // measure 4
2000
0000
0000
0100
3200
0000
0000
0000
,  // measure 5
0320
0000
0000
0001
0031
0010
0100
1000
,  // measure 6
0020
0000
0000
0000
0000
1030
0100
2000
,  // measure 7
0000
3100
0001
0200
0000
1300
0010
0000
,  // measure 8
1002
0000
0013
0100
0000
0100
0000
0020
,  // measure 9
0000
0032
0000
0203
0000
0000
0300
0000
,  // measure 10
2000
0000
0010
3010
0000
0100
0000
0002
,  // measure 11
0000
0000
0003
0000
,  // measure 12
2000
0000
3001
1000
0000
0000
0010
1000
,  // measure 13
0000
0200
0000
0000
0300
0000
0010
0001
,  // measure 14
0010
1001
0010
1000
,  // measure 15
0001
0110
1000
0100
,  // measure 16
1002
0000
0000
0010
0023
0000
0130
0000
,  // measure 17
1000
0010
0100
0000
0010
1000
0100
1000
,  // measure 18
0000
0100
0001
0100
0000
0001
0010
0001
,  // measure 19
0000
1000
0000
0001
1000
0010
0100
0001
,  // measure 20
2000
0000
0000
0010
3020
0000
0130
0000
,  // measure 21
0001
0010
0100
0000
0010
0001
0100
0001
,  // measure 22
0000
0100
1000
0100
0000
1000
0010
1000
,  // measure 23
0000
1000
0000
0001
0010
0000
0010
0000
,  // measure 24
0100
0000
0100
0000
1000
0100
1000
0000
0010
0000
1000
0000
0001
0000
1000
0000
,  // measure 25
0010
0000
0100
0000
0001
0100
0001
0000
0010
0000
0001
0000
1000
0000
0001
0000
,  // measure 26
0010
0000
0010
0000
0001
0010
0001
0000
1000
0000
0001
0000
0100
0000
0001
0000
,  // measure 27
0100
0000
0010
0000
1000
0010
1000
0000
0001
0000
1000
0000
0100
0000
1000
0000
,  // measure 28
0002
0000
1003
0010
0100
0000
0010
0000
,  // measure 29
1000
0000
0001
0000
0001
0100
0010
1000
,  // measure 30
0100
1000
0100
1000
0001
0010
0001
0010
,  // measure 31
0100
1000
0010
0100
0001
0010
0100
1000
,  // measure 32
0002
0000
0000
1003
0010
0000
0100
0000
,  // measure 33
0001
0000
0000
1000
1000
0100
0010
0001
,  // measure 34
0100
0001
0100
0001
1000
0010
1000
0010
,  // measure 35
0100
0001
0010
0100
1000
0010
0100
0001
,  // measure 36
1000
0000
0010
0100
0000
0001
0000
0011
,  // measure 37
0000
1100
0000
1000
0010
0000
1000
0100
,  // measure 38
1000
0010
0100
0001
0010
0100
1000
0001
,  // measure 39
1000
0100
0001
0100
1000
0010
0001
0010
,  // measure 40
2000
0000
3001
0020
0000
0000
0130
1000
,  // measure 41
0000
0010
0000
0100
0010
0000
0010
0100
,  // measure 42
0001
0101
1000
1010
,  // measure 43
0010
1001
0010
0100
,  // measure 44
0001
0010
0100
0000
1000
0010
0100
0000
,  // measure 45
0001
1000
0100
0000
1000
0001
0100
0010
,  // measure 46
0000
1000
0100
1000
0000
0100
0001
0100
,  // measure 47
0000
1000
0010
0100
0001
0010
0100
1000
,  // measure 48
0010
0100
0001
0000
0010
0100
1000
0000
,  // measure 49
0001
0100
0001
0000
1000
0010
1000
0010
,  // measure 50
0000
1000
0100
1000
0000
0100
0001
0100
,  // measure 51
0000
1000
0010
0000
0100
0000
0110
0000
,  // measure 52
1002
0000
0100
0013
0010
1000
0100
0000
,  // measure 53
0010
0001
0100
0001
0010
0100
1000
0010
,  // measure 54
0000
1000
0100
0001
0000
0100
1000
0100
,  // measure 55
0000
1000
0010
0000
0100
0000
0100
0000
,  // measure 56
1001
0000
0000
0000
0100
0000
0000
0010
0001
0000
0000
0000
1000
0000
0000
0000
,  // measure 57
0110
0000
0000
0000
0001
0000
0000
1000
0010
0000
0000
0000
0100
0000
0000
0000
,  // measure 58
1001
0000
0000
0000
0010
0000
0000
0100
1000
0000
0000
0000
0001
0000
0000
0000
,  // measure 59
0110
0000
0000
0000
1000
0000
0000
0001
0100
0000
0000
0000
0010
0000
0000
0000
,  // measure 60
0010
0000
1000
0000
0010
0000
0000
0100
0001
0000
0100
0000
0001
0000
0000
0000
,  // measure 61
1000
0000
0100
0000
1000
0000
0000
0001
0010
0000
0001
0000
0010
0000
0000
0000
,  // measure 62
0001
0000
0100
0000
0001
0000
0000
1000
0010
0000
1000
0000
0010
0000
0000
0000
,  // measure 63
1000
0000
0100
0000
1000
0000
0000
0001
0010
0000
0001
0000
0010
0000
0000
0000
,  // measure 64
0001
0000
1000
0000
0010
0000
1000
0001
0000
0010
0100
0000
1000
0000
0000
0000
,  // measure 65
0010
0000
0100
0000
0001
0000
0010
0100
0000
1000
0010
0000
0100
0000
0001
0000
,  // measure 66
1000
0000
0000
0000
0001
0000
1000
0010
0000
0100
0001
0000
0010
0000
0000
0000
,  // measure 67
0100
0000
1000
0000
0001
0000
0010
0100
0000
1000
0001
0000
0100
0000
0000
0000
,  // measure 68
0010
1000
0100
0000
0010
0001
0100
0000
,  // measure 69
0010
1000
0100
0010
0100
1000
0001
1000
,  // measure 70
0100
1000
0100
1000
0001
0010
0001
0010
,  // measure 71
0100
1000
0010
1000
0001
0010
0001
0100
,  // measure 72
0010
0010
0010
0010
,  // measure 73
0100
0100
0100
0100
,  // measure 74
2000
0000
3001
0020
0000
0130
1000
0000
,  // measure 75
0001
0000
0001
1000
0010
0100
0001
0010
,  // measure 76
0100
1000
0100
0010
0100
1000
0100
0010
,  // measure 77
0001
0010
0100
0010
0001
0010
0100
0010
,  // measure 78
0002
0000
1003
0200
0000
0310
0001
0000
,  // measure 79
0100
0000
0010
0001
0100
0010
1000
0100
,  // measure 80
0010
0001
0010
0001
1000
0100
1000
0100
,  // measure 81
0000
1000
0010
0100
0000
0001
0010
0000
,  // measure 82
0001
0010
0100
1000
0000
0010
0000
0101
,  // measure 83
0000
1010
0000
1000
0010
0000
1000
0001
,  // measure 84
0010
0100
1000
0100
0010
0001
0010
0100
,  // measure 85
1000
0010
0100
0001
0100
1000
0100
0001
,  // measure 86
0020
0000
0130
0020
0000
0030
0001
0100
,  // measure 87
0000
0001
1000
1000
0000
0000
0001
0100
,  // measure 88
0010
0100
0010
1001
,  // measure 89
0010
1000
0100
0000
0010
0000
0001
0000
,  // measure 90
0100
0010
1000
0000
0010
0100
0001
0000
,  // measure 91
1000
0100
0001
0000
0100
1000
0100
1000
,  // measure 92
0000
0010
0100
0010
0000
0100
0001
0100
,  // measure 93
0000
0001
0010
0000
0100
0010
0001
0100
,  // measure 94
0010
1000
0100
0000
0010
0001
0100
0000
,  // measure 95
0010
1000
0001
0000
1000
0001
0100
0010
,  // measure 96
0000
1000
0100
1000
0000
0100
0001
0100
,  // measure 97
0000
1000
0010
0000
0100
0010
1000
0100
,  // measure 98
0010
0000
0001
0000
0100
0001
0100
0000
0100
0000
0000
0000
0010
0000
0000
0000
,  // measure 99
1000
0010
0100
0000
0001
0010
0100
0010
,  // measure 100
0000
0100
1000
0100
0000
1000
0001
0100
,  // measure 101
0000
0010
1000
0000
0001
0010
0100
1000
,  // measure 102
0010
0000
0100
0000
0001
0100
0001
0000
1000
0000
0000
0000
0010
0000
1000
0000
,  // measure 103
0001
0000
1000
0010
0100
0001
0010
0100
,  // measure 104
0000
1000
0010
0100
0000
0001
1000
0100
,  // measure 105
0000
1000
0010
0100
0001
0010
0100
1000
,  // measure 106
1001
0000
0000
0000
;

//---------------dance-double - ----------------
#NOTES:
     dance-double:
     :
     Easy:
     3:
     0.280610,0.372759,0.145688,0.296399,0.000000,391.000000,362.000000,29.000000,59.000000,0.000000,0.000000,0.280610,0.372759,0.145688,0.296399,0.000000,391.000000,362.000000,29.000000,59.000000,0.000000,0.000000:
// measure 0
00000000
00000000
00000000
00000000
,  // measure 1
00000000
00000000
00000000
00000000
,  // measure 2
00000000
00000000
00000000
00000000
,  // measure 3
00000000
00000000
00000000
00000000
,  // measure 4
20000000
00000000
31000000
00100000
,  // measure 5
00020000
00000000
00031000
00000100
,  // measure 6
00000002
00000003
00002000
00003000
,  // measure 7
00020000
00030000
20000000
30000000
,  // measure 8
00100000
10000000
01000000
10000000
,  // measure 9
00100000
01000000
00020000
00000000
,  // measure 10
00130000
00001000
00010000
00000100
,  // measure 11
00000020
00000000
00000002
00000033
,  // measure 12
00001000
00000010
00000100
00000010
,  // measure 13
00001000
00000200
00000300
00010000
,  // measure 14
00001000
00100000
01000000
10010000
,  // measure 15
00100000
01000000
00010000
00100000
,  // measure 16
10010000
01000000
00100000
00010000
,  // measure 17
01000000
00001000
00010000
00000100
,  // measure 18
00000010
00000001
00000100
00000001
,  // measure 19
00001000
00000100
00010000
00001000
,  // measure 20
00011000
00100000
01000000
00100000
,  // measure 21
00010000
01000000
00001000
00010000
,  // measure 22
00000100
00001000
00000010
00000100
,  // measure 23
00000001
00000100
00000010
00001000
,  // measure 24
00011000
00010000
00100000
00010000
,  // measure 25
00011000
00001000
00000100
00001000
,  // measure 26
00011000
00010000
01000000
00010000
,  // measure 27
00011000
00001000
00000010
00001000
,  // measure 28
00001001
00001000
00000200
00000000
,  // measure 29
00000320
00000000
00000031
00000100
,  // measure 30
00010000
01000000
10000000
01000000
,  // measure 31
00001000
00000100
00000001
00000100
,  // measure 32
00010000
00100000
20000000
30000000
,  // measure 33
02000000
03000000
00100000
00010000
,  // measure 34
00001000
00000100
00000010
00000001
,  // measure 35
00000010
00000100
00001000
00010000
,  // measure 36
00011000
00001000
00000100
00000001
,  // measure 37
00000100
00001000
00010000
01000000
,  // measure 38
10000000
00010000
10000000
01000000
,  // measure 39
00001000
00100000
00010000
00100000
,  // measure 40
10010000
01000000
00100000
01000000
,  // measure 41
10000000
01000000
00100000
00010000
,  // measure 42
00001000
00000100
00000010
00000001
,  // measure 43
00000100
00000100
00000010
00000100
,  // measure 44
00000002
00000000
00000023
00000000
,  // measure 45
00000230
00000000
00001300
00000010
,  // measure 46
00010000
00000100
00100000
00001000
,  // measure 47
00010000
00001000
00100000
01000000
,  // measure 48
20000000
00000000
30200000
00000000
,  // measure 49
20300000
00000000
30010000
00001000
,  // measure 50
00000001
00000010
00000001
00000100
,  // measure 51
00000010
00010000
00001000
00100000
,  // measure 52
10010000
10000000
02000000
00000000
,  // measure 53
03200000
00000000
00310000
01000000
,  // measure 54
10010000
00100000
00101000
00010000
,  // measure 55
00010100
00000100
00001100
00001000
,  // measure 56
00001001
00000010
00000200
00000000
,  // measure 57
00010300
00001000
00200000
00000000
,  // measure 58
01300000
10000000
01000000
00010000
,  // measure 59
00001000
00000100
00000001
00000100
,  // measure 60
00001001
00000100
00000200
00000000
,  // measure 61
00000310
00001000
00000100
00010000
,  // measure 62
00001000
00100000
01000000
01000000
,  // measure 63
10000000
00100000
01000000
01000000
,  // measure 64
20000000
00000000
00000000
30100000
,  // measure 65
02000000
00000000
03010000
00100000
,  // measure 66
00002000
00000000
00023000
00000000
,  // measure 67
00030100
00001000
00002000
00003010
,  // measure 68
00000200
00000301
00000020
00000130
,  // measure 69
00020000
00031000
00200000
02300000
,  // measure 70
23000000
31000000
00010000
01000000
,  // measure 71
10000000
00100000
01000000
00010000
,  // measure 72
00011000
00000000
00001000
00000000
,  // measure 73
00000100
00000000
00000000
00000010
,  // measure 74
00000002
00001003
00000200
00001300
,  // measure 75
00000020
00000000
00001030
00000100
,  // measure 76
00010000
00001000
00100000
00010000
,  // measure 77
00100000
00001000
00010000
00000100
,  // measure 78
00002000
00003100
00000020
00000130
,  // measure 79
00002000
00000000
00003010
00010000
,  // measure 80
00002000
00000000
00103000
00010000
,  // measure 81
00100000
01000000
10000000
00100000
,  // measure 82
20000000
00000000
32000000
00000000
,  // measure 83
13000000
01000000
00100000
00010000
,  // measure 84
00001000
00000100
00000001
00000100
,  // measure 85
00001000
00000010
00001000
00000100
,  // measure 86
00002000
00000000
00003020
00000000
,  // measure 87
00010030
00001000
00100000
00010000
,  // measure 88
00100000
10010000
01000000
10010000
,  // measure 89
01000000
01000000
10010000
01000000
,  // measure 90
20000000
00000000
30020000
00000000
,  // measure 91
02030000
00000000
03001000
00010000
,  // measure 92
00000100
00000010
00000001
00000010
,  // measure 93
00000100
00001000
00000100
00000010
,  // measure 94
00000002
00000000
00000203
00000000
,  // measure 95
00000320
00000000
00001030
00000100
,  // measure 96
00010000
00001000
00100000
00010000
,  // measure 97
01000000
00100000
10010000
01100000
,  // measure 98
10010000
10000000
01000000
00010000
,  // measure 99
00001000
00000100
00000001
00000100
,  // measure 100
00001001
00000001
00000100
00001000
,  // measure 101
00010000
01000000
10000000
01000000
,  // measure 102
20000000
31000000
00020000
01030000
,  // measure 103
20000000
30100000
02000000
03010000
,  // measure 104
00011000
00001100
00000100
00000010
,  // measure 105
00001002
00000103
00002000
00003010
,  // measure 106
00001001
00000000
00000000
00000000
;

//---------------dance-double - ----------------
#NOTES:
     dance-double:
     :
     Medium:
     5:
     0.355966,0.372759,0.246162,0.105498,0.000000,496.000000,447.000000,49.000000,21.000000,0.000000,0.000000,0.355966,0.372759,0.246162,0.105498,0.000000,496.000000,447.000000,49.000000,21.000000,0.000000,0.000000:
// measure 0
00000000
00000000
00000000
00000000
,  // measure 1
00000000
00000000
00000000
00000000
,  // measure 2
00000000
00000000
00000000
00000000
,  // measure 3
00000000
00000000
00000000
00000000
,  // measure 4
20000000
00000000
00000000
31000000
00200000
00000000
00300000
00000000
,  // measure 5
00010000
00000000
00000000
00001000
00000100
00000000
00000010
00000000
,  // measure 6
00000002
00000000
00001003
00010000
,  // measure 7
10000000
00010000
00001000
00000100
,  // measure 8
00001001
00000000
00000010
00000100
00000000
00010000
00000000
00001000
,  // measure 9
00000000
00100000
00000000
02000000
00000000
00000000
03000000
00000000
,  // measure 10
00100000
00000000
00010000
10000000
00000000
00100000
00000000
02000000
,  // measure 11
00000000
00000000
00200000
03300000
,  // measure 12
10000000
00000000
01000000
00200000
00000000
00300000
00010000
01000000
,  // measure 13
00000000
00100000
00000000
00000000
10000000
00000000
00010000
01000000
,  // measure 14
00010000
00100000
00001000
00011000
,  // measure 15
00000100
00000100
00000010
00000001
,  // measure 16
00001001
00001000
00000010
00001000
,  // measure 17
00000100
00010000
00001000
00000000
00100000
01000000
00000000
00100000
,  // measure 18
00000000
00010000
00000000
01000000
00000000
00010000
00000000
00100000
,  // measure 19
00000000
00001000
00010000
00000000
00101000
00000000
00010100
00000000
,  // measure 20
00000100
00000000
00000010
00000001
00000100
00000000
00000010
00000000
,  // measure 21
00010000
00001000
00010000
00000000
00001000
00100000
00000000
00010000
,  // measure 22
00000000
00100000
00000000
01000000
00000000
10000000
00000000
00100000
,  // measure 23
00000000
01000000
00010000
00000000
00100000
00000000
00001000
00000000
,  // measure 24
00011000
00000010
00000001
00000100
,  // measure 25
00011000
01000000
10000000
00100000
,  // measure 26
10010000
00010000
00001000
00000110
,  // measure 27
00001001
00001000
00010000
01100000
,  // measure 28
10010000
00000000
10000000
01000000
00100000
00000000
00010000
00000000
,  // measure 29
00100000
00000000
00001000
00000000
00010000
00001000
00010000
00001000
,  // measure 30
00010000
00000100
00000010
00000001
,  // measure 31
00000100
00000000
00000001
00001000
00000000
00000001
00001000
00000000
,  // measure 32
00000010
00000000
00001000
00000100
00000010
00000000
00000001
00000000
,  // measure 33
00001000
00000000
00010000
00000000
00100000
10000000
01000000
10000000
,  // measure 34
00100000
10010000
00100000
00110000
,  // measure 35
00001000
00011000
00000100
00000110
,  // measure 36
00001001
00000000
00000001
00000010
00000000
00000100
00000000
00000010
,  // measure 37
00000000
00000002
00000000
00000003
00000000
00000000
00001000
00000100
,  // measure 38
00001000
00000010
00000100
00000010
,  // measure 39
00001000
00000100
00010000
00001000
,  // measure 40
00011000
00000000
00001000
00200000
00000000
00300000
01000000
10000000
,  // measure 41
00000000
00200000
00000000
00300000
00000000
00000000
01000000
00010000
,  // measure 42
01000000
00100000
10000000
10010000
,  // measure 43
00100000
00001000
00010000
00000100
,  // measure 44
00001001
00000000
00000001
00000010
00000100
00000000
00000010
00000000
,  // measure 45
00000001
00001000
00000010
00000000
00000100
00000001
00000000
00001000
,  // measure 46
00000000
00010000
00000000
10000000
00000000
00010000
00000000
00100000
,  // measure 47
00000000
01000000
10000000
00000000
00010000
00000000
00001000
00000000
,  // measure 48
00001001
00000000
00001000
00000100
00000010
00000000
00000001
00000000
,  // measure 49
00000100
00000010
00001000
00000000
00000100
00010000
00000000
00001000
,  // measure 50
00000000
00100000
00000000
00010000
00000000
00100000
00000000
01000000
,  // measure 51
00000000
10000000
00010000
00000000
01000000
00000000
01100000
00000000
,  // measure 52
10010000
00100000
00010000
00001000
,  // measure 53
00000110
00001000
00010000
00100000
,  // measure 54
10010000
00000000
10000000
01000000
00100000
00000000
00010000
01000000
,  // measure 55
00100000
00000000
10000000
00000000
00100000
01000000
00010000
00000000
,  // measure 56
10000000
00000000
00010000
00000000
00000000
00001000
00000100
00000000
,  // measure 57
00000010
00000000
00000010
00000000
00000000
00000001
00000100
00000000
,  // measure 58
00000001
00000000
00001000
00000000
00000000
00010000
00100000
00000000
,  // measure 59
01000000
00000000
01000000
00000000
00000000
10000000
01000000
00000000
,  // measure 60
10010000
00000000
01000000
00000000
00000000
10000000
00010000
00000000
,  // measure 61
01100000
00000000
00010000
00000000
00000000
00001000
00000100
00000000
,  // measure 62
00001001
00000000
00000010
00000000
00000000
00000001
00001000
00000000
,  // measure 63
00000110
00000000
00001000
00000000
00000000
00010000
00100000
00000000
,  // measure 64
01000000
00000000
10000000
00000000
00100000
01000000
00100000
00000000
,  // measure 65
01000000
00000000
00001000
00000000
00010000
00001000
00010000
00000000
,  // measure 66
00000100
00000000
00000010
00000000
00000001
00000100
00000001
00000000
,  // measure 67
00000010
00000000
00000100
00000000
00000100
00010000
00000100
00000000
,  // measure 68
00001000
00000000
00000100
00000000
00010000
00001000
00010000
00000000
,  // measure 69
00001000
00000000
00100000
00000000
01000000
10000000
01000000
00000000
,  // measure 70
00100000
10010000
00100000
01000000
,  // measure 71
00100000
00000000
10010000
00000000
01000000
00100000
01000000
00000000
,  // measure 72
10000000
00010000
00000000
00001000
,  // measure 73
00000000
00000001
00000000
00000010
,  // measure 74
00002000
00000000
00003000
00000020
00000000
00000130
00001000
00000000
,  // measure 75
00000100
00000000
00000010
00000000
00000001
00000100
00000001
00000100
,  // measure 76
00000001
00001000
00010000
01100000
,  // measure 77
10000000
00010000
00001000
00000110
,  // measure 78
00002000
00000000
00000000
00003200
00000000
00000000
00000310
00000000
,  // measure 79
00001001
00000000
00000100
00000000
00000010
00000001
00001000
00000001
,  // measure 80
00000010
00010000
00001000
00100000
,  // measure 81
01000000
00000000
10010000
00000000
01000000
01000000
01000000
00000000
,  // measure 82
10010000
00000000
01000000
00100000
00000000
00010000
00000000
00100000
,  // measure 83
00000000
00002000
00000000
00003000
00000000
00000000
00100000
00010000
,  // measure 84
00200000
00000000
00310000
02000000
00000000
00000000
03100000
10000000
,  // measure 85
00010000
00100000
10010000
01000000
,  // measure 86
20000000
00000000
31000000
00200000
00000000
00000000
00310000
01000000
,  // measure 87
00000000
00001000
00000000
00010000
00000000
00000000
00000100
00001000
,  // measure 88
00000010
00000100
00000001
00000110
,  // measure 89
00001000
00010000
00001000
00000110
,  // measure 90
00001002
00000000
00000003
00000100
00000010
00000000
00001000
00000000
,  // measure 91
00001100
00000000
00000010
00000000
00000100
00010000
00000000
00001000
,  // measure 92
00000000
00100000
00000000
00010000
00000000
00100000
00000000
01000000
,  // measure 93
00000000
00100000
00010000
00000000
01000000
00100000
01000000
00100000
,  // measure 94
02000000
00000000
00000000
03100000
10000000
00000000
00010000
00000000
,  // measure 95
01100000
00000000
00010000
00000000
10000000
00010000
00000000
00100000
,  // measure 96
00000000
00001000
00000000
00010000
00000000
00001000
00000000
00100000
,  // measure 97
00000000
00001000
00010000
00000000
00000100
00000000
00000010
00000000
,  // measure 98
00001001
00000000
00000010
00000100
00001000
00000000
00000010
00000000
,  // measure 99
00001001
00000000
00000100
00000010
00000001
00000000
00000100
00000000
,  // measure 100
00001001
00000000
00000100
00000010
00000001
00000000
00000010
00000000
,  // measure 101
00001001
00000110
00001000
00010000
,  // measure 102
10010000
00000000
01000000
00100000
01000000
00000000
10000000
00000000
,  // measure 103
01100000
00000000
00010000
00000000
00001000
00000000
00000001
00001000
,  // measure 104
00000000
00000010
00000000
00000100
00000000
00000010
00000000
00001000
,  // measure 105
00000000
00000100
00000010
00000000
00000001
00000010
00000001
00000100
,  // measure 106
00000010
00000000
00000000
00000000
;

//---------------dance-double - ----------------
#NOTES:
     dance-double:
     :
     Hard:
     8:
     0.470794,0.505888,0.165782,0.115545,0.055261,656.000000,623.000000,33.000000,23.000000,0.000000,0.000000,0.470794,0.505888,0.165782,0.115545,0.055261,656.000000,623.000000,33.000000,23.000000,0.000000,0.000000:
// measure 0
00000000
00000000
00000000
00000000
,  // measure 1
00000000
00000000
00000000
00000000
,  // measure 2
00000000
00000000
00000000
00000000
,  // measure 3
00000000
00000000
00000000
00000000
,  // measure 4
20000000
00000000
00000000
31000000
00100000
00000000
00010000
00000000
,  // measure 5
00002000
00000000
00003000
00000100
00000010
00000001
00000100
00001000
,  // measure 6
00020000
00000000
00000000
00000000
00030000
00100000
10000000
00200000
,  // measure 7
00000000
01300000
00010000
02000000
00000000
03100000
10000000
00000000
,  // measure 8
00100000
00000000
01000000
00010000
00000000
00100000
00000000
00001000
,  // measure 9
00000000
00100000
00000000
01000000
00000000
00100000
01000000
00000000
,  // measure 10
10000000
00000000
00100000
01000000
00000000
00001000
00000000
00020000
,  // measure 11
00000000
00000000
00002000
00033000
,  // measure 12
00000100
00000000
00000010
00000001
00000000
00000000
00000100
00000010
,  // measure 13
00000000
00002000
00000000
00003000
00000000
00000000
00100000
01000000
,  // measure 14
00100000
10010000
01000000
00101000
,  // measure 15
00001000
00011000
00000100
00000010
,  // measure 16
00000001
00000010
00000100
00000000
00010000
00001000
00100000
00000000
,  // measure 17
01000000
10000000
00100000
00000000
10000000
00010000
00100000
00010000
,  // measure 18
00000000
00100000
00001000
00100000
00000000
00001000
00010000
00001000
,  // measure 19
00000000
00100000
01000000
00000000
10000000
00100000
10000000
01000000
,  // measure 20
00100000
00010000
01000000
00000000
00001000
00010000
00000100
00000000
,  // measure 21
00000010
00000001
00000100
00000000
00000010
00000100
00000001
00000100
,  // measure 22
00000000
00000010
00001000
00000010
00000000
00001000
00000100
00001000
,  // measure 23
00000000
00000100
00010000
00000000
00001000
00000000
00100000
00000000
,  // measure 24
01000000
00000000
10000000
00000000
00100000
01000000
00100000
00000000
01000000
00000000
00010000
00000000
00100000
00000000
00001000
00000000
,  // measure 25
00010000
00000000
00000100
00000000
00000010
00000001
00000010
00000000
00000100
00000000
00001000
00000000
00000010
00000000
00000010
00000000
,  // measure 26
00000100
00000000
00000001
00000000
00000010
00000100
00000010
00000000
00000100
00000000
00001000
00000000
00000010
00000000
00010000
00000000
,  // measure 27
00001000
00000000
00100000
00000000
01000000
10000000
01000000
00000000
00100000
00000000
00010000
00000000
01000000
00000000
01000000
00000000
,  // measure 28
00100000
10000000
00100000
10000000
00100000
10000000
00100000
10000000
,  // measure 29
00010000
01000000
00010000
01000000
00010000
00100000
00001000
00010000
,  // measure 30
00000100
00001000
00000100
00001000
00000010
00000100
00000001
00000010
,  // measure 31
00000100
00010000
00001000
00100000
01000000
10000000
00010000
00000000
,  // measure 32
10010000
00000000
01000000
00100000
00010000
00000000
00011000
00000000
,  // measure 33
00000010
00000100
00000001
00001000
00000100
00001000
00000010
00000100
,  // measure 34
00000001
00001000
00000100
00010000
00001000
00100000
01000000
00100000
,  // measure 35
00000000
00010000
00001000
00010000
00000000
00000010
00000100
00000000
,  // measure 36
00000002
00000000
00000013
00000100
00000000
00001100
00000000
00011000
,  // measure 37
00000000
00110000
00000000
00100000
01000000
00000000
10000000
01000000
,  // measure 38
00100000
01000000
10000000
01000000
00100000
01000000
00100000
00010000
,  // measure 39
00100000
00001000
00010000
00000100
00001000
00000010
00000100
00000001
,  // measure 40
00000020
00000000
00000130
00002000
00000000
00000000
00003001
00000010
,  // measure 41
00000000
00000100
00010000
00002000
00000000
00003000
00100000
01000000
,  // measure 42
00100000
00000000
10010000
00000000
01000000
00001000
00010000
00000000
,  // measure 43
00011000
00000100
00001001
00000110
,  // measure 44
00001001
00000000
00000100
00001000
00000010
00000000
00001000
00000000
,  // measure 45
00000100
00010000
00001000
00000000
00100000
01000000
10000000
01000000
,  // measure 46
00000000
00100000
01000000
00100000
00000000
00010000
01000000
00010000
,  // measure 47
00000000
00001000
00100000
00000000
00010000
00100000
00010000
01000000
,  // measure 48
10000000
01000000
00010000
00100000
01000000
00000000
00010000
00000000
,  // measure 49
00011000
00000000
00001000
00000000
00010000
00000010
00000100
00000010
,  // measure 50
00000000
00001000
00000100
00001000
00000000
00000010
00000100
00000010
,  // measure 51
00000000
00010000
00001000
00000000
00100000
00000000
01000000
00000000
,  // measure 52
10000000
01000000
00010000
00001000
00000100
00000001
00000100
00001000
,  // measure 53
00010000
01000000
10000000
00100000
01000000
00010000
01000000
00010000
,  // measure 54
00000000
00100000
00001000
00100000
00000000
00010000
00001000
00010000
,  // measure 55
00000000
00001000
00010000
00000000
00002000
00000000
00013000
00000000
,  // measure 56
00100000
00000000
00000000
00000000
10000000
00000000
00000000
01000000
00100000
00000000
00000000
00000000
00010000
00000000
00000000
00000000
,  // measure 57
01000000
00000000
00000000
00000000
00001000
00000000
00000000
00100000
01000000
00000000
00000000
00000000
00100000
00000000
00000000
00000000
,  // measure 58
00001000
00000000
00000000
00000000
00010000
00000000
00000000
00000100
00000010
00000000
00000000
00000000
00000001
00000000
00000000
00000000
,  // measure 59
00000010
00000000
00000000
00000000
00000100
00000000
00000000
00010000
00001000
00000000
00000000
00000000
00100000
00000000
00000000
00000000
,  // measure 60
10010000
00000000
00000000
00000000
01000000
00000000
00000000
00100000
00010000
00000000
00000000
00000000
00010000
00000000
00000000
00000000
,  // measure 61
00011000
00000000
00000000
00000000
00001000
00000000
00000000
00000100
00000010
00000000
00000000
00000000
00000001
00000000
00000000
00000000
,  // measure 62
00000110
00000000
00000000
00000000
00001000
00000000
00000000
00000010
00000100
00000000
00000000
00000000
00000001
00000000
00000000
00000000
,  // measure 63
00000110
00000000
00000000
00000000
00010000
00000000
00000000
00100000
01000000
00000000
00000000
00000000
10000000
00000000
00000000
00000000
,  // measure 64
01000000
00000000
00100000
00000000
00010000
00000000
00000000
00100000
01000000
00000000
10000000
00000000
00010000
00000000
01000000
00000000
,  // measure 65
00001000
00000000
00010000
00000000
00000100
00000000
00000000
00000010
00000001
00000000
00000010
00000000
00000100
00000000
00001000
00000000
,  // measure 66
00000010
00000000
00010000
00000000
00001000
00000000
00000000
00100000
01000000
00000000
10000000
00000000
00100000
00000000
10000000
00000000
,  // measure 67
00010000
00000000
01000000
00000000
00001000
00000000
00000000
00010000
00000100
00000000
00000010
00000000
00000001
00000000
00000010
00000000
,  // measure 68
00000100
00000000
00010000
00000000
00001000
00000000
00100000
00010000
00100000
00000000
01000000
00000000
10000000
00000000
00100000
00000000
,  // measure 69
01000000
00000000
00001000
00000000
00010000
00000000
00000100
00000010
00000001
00000000
00000010
00000000
00000100
00000000
00000000
00000000
,  // measure 70
00000010
00000001
00000100
00000010
00001000
00000100
00010000
00001000
,  // measure 71
00100000
00010000
00100000
01000000
10000000
00100000
01000000
00010000
,  // measure 72
00100000
00001000
00010000
00000100
,  // measure 73
00001000
00000010
00000000
00000100
,  // measure 74
00000002
00000000
00000013
00000200
00000000
00001300
00000010
00000000
,  // measure 75
00001001
00000000
00000000
00000001
00000001
00000010
00000100
00001000
,  // measure 76
00000010
00000100
00000010
00000100
00000010
00001000
00000010
00001000
,  // measure 77
00000100
00010000
00000100
00010000
00001000
00100000
00001000
00100000
,  // measure 78
00002000
00000000
00103000
00020000
00000000
00000000
00130000
01000000
,  // measure 79
10000000
00000000
00100000
01000000
01000000
00100000
10000000
01000000
,  // measure 80
00010000
01000000
10000000
01000000
00010000
01000000
10000000
00100000
,  // measure 81
01000000
00010000
00100000
00001000
00010000
00000100
00001000
00000010
,  // measure 82
00001001
00000000
00000110
00001000
00000000
00000100
00000000
00010000
,  // measure 83
00000000
00001000
00000000
00100000
01000000
00000000
00100000
00010000
,  // measure 84
02000000
00000000
03100000
20000000
00000000
00000000
30100000
01000000
,  // measure 85
10010000
00000000
00011000
00000000
00001001
00000000
00000110
00001000
,  // measure 86
00000002
00000000
00000013
00000200
00000000
00000000
00010300
00001000
,  // measure 87
00000000
00100000
00000000
01000000
00000000
00000000
10000000
01000000
,  // measure 88
10000000
01100000
10010000
00011000
,  // measure 89
00001001
00000110
00000011
00001100
,  // measure 90
00000010
00000100
00000001
00000010
00000100
00000000
00001000
00000000
,  // measure 91
00000100
00000000
00010000
00000000
00001000
00100000
01000000
00100000
,  // measure 92
00000000
00010000
01000000
00010000
00000000
00100000
01000000
00100000
,  // measure 93
00000000
00010000
01000000
00000000
00001000
00010000
00000100
00000010
,  // measure 94
00000002
00000000
00000000
00000013
00000100
00000000
00001000
00000000
,  // measure 95
00000010
00010000
00001000
00000000
00100000
01000000
10000000
01000000
,  // measure 96
00000000
00100000
01000000
00100000
00000000
00010000
10000000
00010000
,  // measure 97
00000000
10000000
01000000
00000000
00100000
00010000
00100000
01000000
,  // measure 98
10000000
00000000
00100000
00000000
01000000
00100000
01000000
00000000
00010000
00000000
00100000
00000000
00001000
00000000
00010000
00000000
,  // measure 99
00000100
00000000
00001000
00000000
00000010
00000100
00000010
00000000
00001000
00000000
00000100
00000000
00010000
00000000
00001000
00000000
,  // measure 100
00100000
00000000
01000000
00000000
10000000
01000000
10000000
00000000
00100000
00000000
01000000
00000000
00010000
00000000
00100000
00000000
,  // measure 101
00001000
00000000
00010000
00000000
00000100
00001000
00000100
00000000
00000010
00000000
00000001
00000000
00000100
00000000
00000001
00000000
,  // measure 102
00000020
00000000
00000000
00000130
00010000
00000000
00001000
00000000
,  // measure 103
00100000
01000000
10000000
00000000
00010000
10000000
01000000
10000000
,  // measure 104
00100000
10000000
01000000
00010000
00001000
00000100
00000001
00000100
,  // measure 105
00001000
00000010
00000100
00000001
00000010
00000100
00010000
00001000
,  // measure 106
00011000
00000000
00000000
00000000
;
