#VERSION:0.83;
#TITLE:Moon Over The Castle;
#SUBTITLE:;
#ARTIST:Mashino Ando;
#TITLETRANSLIT:;
#SUBTITLETRANSLIT:;
#ARTISTTRANSLIT:;
#GENRE:;
#ORIGIN:;
#CREDIT:;
#BANNER:motcbn.png;
#BACKGROUND:motcbg.png;
#PREVIEWVID:;
#JACKET:;
#CDIMAGE:;
#DISCIMAGE:;
#LYRICSPATH:;
#CDTITLE:;
#MUSIC:GT Moon Over Castle.mp3;
#OFFSET:0.050000;
#SAMPLESTART:73.900002;
#SAMPLELENGTH:12.000000;
#SELECTABLE:YES;
#BPMS:0.000=206.760,
206.000=103.380,
230.000=206.760;
#STOPS:75.500=0.550;
#DELAYS:;
#WARPS:;
#TIMESIGNATURES:0.000=4=4;
#TICKCOUNTS:0.000=4;
#COMBOS:0.000=1;
#SPEEDS:0.000=1.000=0.000=0;
#SCROLLS:0.000=1.000;
#FAKES:;
#LABELS:0.000=Song Start;
#BGCHANGES:;
#KEYSOUNDS:;
#ATTACKS:
;

//---------------dance-single - ----------------
#NOTEDATA:;
#CHARTNAME:;
#STEPSTYPE:dance-single;
#DESCRIPTION:;
#CHARTSTYLE:;
#DIFFICULTY:Easy;
#METER:4;
#RADARVALUES:0.363278,0.438309,0.090175,0.009018,0.000000,282.000000,272.000000,10.000000,1.000000,0.000000,0.000000,0.000000,0.000000,0.000000,0.363278,0.438309,0.090175,0.009018,0.000000,282.000000,272.000000,10.000000,1.000000,0.000000,0.000000,0.000000,0.000000,0.000000;
#CREDIT:;
#NOTES:
// measure 0
0000
0000
0000
0000
,  // measure 1
0000
0000
0000
0000
,  // measure 2
0000
0000
0000
0000
,  // measure 3
0000
0000
0000
0000
,  // measure 4
0000
0000
0000
0000
,  // measure 5
0000
0000
0000
0000
,  // measure 6
0000
0000
0000
0000
,  // measure 7
0000
0000
0000
0000
,  // measure 8
1000
0000
1000
0000
,  // measure 9
0001
0000
0001
0000
,  // measure 10
1000
0000
1000
0000
,  // measure 11
0001
0000
0001
0000
,  // measure 12
0010
0010
1000
0000
,  // measure 13
0100
0001
0100
0001
,  // measure 14
0100
0100
0001
0000
,  // measure 15
0010
1000
0010
1000
,  // measure 16
0010
0010
1000
0000
,  // measure 17
0100
0001
0100
0001
,  // measure 18
0100
0000
0100
0000
0010
0000
0001
1000
,  // measure 19
0000
0000
0010
1000
,  // measure 20
0100
0000
0010
0001
,  // measure 21
0100
0001
0010
0001
,  // measure 22
0100
0000
0010
1000
,  // measure 23
0100
1000
0010
0100
,  // measure 24
0010
0000
0001
1000
,  // measure 25
0010
0100
1000
1000
,  // measure 26
0001
0000
0010
0010
,  // measure 27
0100
0100
0001
1000
,  // measure 28
0010
0000
0100
0001
,  // measure 29
1000
0010
0100
0100
,  // measure 30
1000
0000
0001
0010
,  // measure 31
0001
0010
0100
0100
,  // measure 32
1000
0000
0001
0010
,  // measure 33
0001
0010
0100
0100
,  // measure 34
1000
0000
0001
0010
,  // measure 35
0100
0010
1001
0010
,  // measure 36
0100
0000
1000
0010
,  // measure 37
0001
0010
1000
0100
,  // measure 38
1000
0000
0001
0100
,  // measure 39
0001
0010
0100
0100
,  // measure 40
0100
0000
1000
1000
,  // measure 41
0001
0001
0010
0010
,  // measure 42
0010
0000
0100
0100
,  // measure 43
0001
1000
0010
0010
,  // measure 44
0001
0000
1000
1001
,  // measure 45
0001
1001
0100
0100
,  // measure 46
0100
0000
0001
1001
,  // measure 47
1000
1001
0010
0010
,  // measure 48
0010
0000
0100
0100
,  // measure 49
0100
0000
0001
0001
,  // measure 50
1000
1000
0001
0001
,  // measure 51
1000
1000
1001
0010
,  // measure 52
0100
1000
0001
0010
,  // measure 53
0100
1000
0010
0100
,  // measure 54
0001
1000
0010
0100
,  // measure 55
0001
0010
0100
1000
,  // measure 56
0010
0100
0020
0000
,  // measure 57
0000
0030
0010
0100
,  // measure 58
0000
0000
0001
1000
,  // measure 59
0000
0000
0010
1000
,  // measure 60
0100
0000
0010
0001
,  // measure 61
0100
0000
0010
0100
,  // measure 62
1000
0000
0010
0100
,  // measure 63
0001
0000
0010
0100
,  // measure 64
0010
0000
0001
1000
,  // measure 65
0001
0000
0010
1000
,  // measure 66
0100
0000
1000
0010
,  // measure 67
0001
0000
0100
0001
,  // measure 68
1000
0000
0010
1000
,  // measure 69
0001
0000
1000
0100
,  // measure 70
1000
0100
0001
0100
,  // measure 71
0001
0000
0100
0000
0010
0000
0000
0010
,  // measure 72
0000
0000
0010
0000
0010
0000
0000
0010
,  // measure 73
0000
0010
1001
0100
,  // measure 74
0100
0000
0001
0010
,  // measure 75
0100
0010
0100
0100
,  // measure 76
0100
0000
1001
0010
,  // measure 77
1000
0001
0010
0010
,  // measure 78
0010
0000
0100
0001
,  // measure 79
1000
0100
0010
0010
,  // measure 80
0010
0000
0100
1001
,  // measure 81
0010
1001
1000
0100
,  // measure 82
1000
0100
1000
0100
,  // measure 83
1000
0100
0001
0100
,  // measure 84
0001
0100
0001
0100
,  // measure 85
0001
0100
1000
0100
,  // measure 86
0001
0100
1000
0100
,  // measure 87
0001
0100
1000
0010
,  // measure 88
1000
0000
0100
0010
0000
0000
0000
0000
;

//---------------dance-single - ----------------
#NOTEDATA:;
#CHARTNAME:;
#STEPSTYPE:dance-single;
#DESCRIPTION:;
#CHARTSTYLE:;
#DIFFICULTY:Medium;
#METER:7;
#RADARVALUES:0.471488,0.597694,0.468912,0.009018,0.000000,366.000000,314.000000,52.000000,1.000000,0.000000,0.000000,0.000000,0.000000,0.000000,0.471488,0.597694,0.468912,0.009018,0.000000,366.000000,314.000000,52.000000,1.000000,0.000000,0.000000,0.000000,0.000000,0.000000;
#CREDIT:;
#NOTES:
// measure 0
0000
0000
0000
0000
,  // measure 1
0000
0000
0000
0000
,  // measure 2
0000
0000
0000
0000
,  // measure 3
0000
0000
0000
0000
,  // measure 4
0000
0000
0000
0000
,  // measure 5
0000
0000
0000
0000
,  // measure 6
0000
0000
0000
0000
,  // measure 7
0000
0000
0000
0000
,  // measure 8
0001
0010
0100
1000
,  // measure 9
0001
0010
0100
1000
,  // measure 10
0001
0001
1000
1000
,  // measure 11
0100
0100
0010
0010
,  // measure 12
1001
0100
0001
0100
,  // measure 13
1000
0100
0001
0100
,  // measure 14
1001
1000
0100
0001
,  // measure 15
0100
1000
0010
0001
,  // measure 16
0110
1000
0010
0100
,  // measure 17
0001
0010
1000
0100
,  // measure 18
0110
0000
0100
0000
0001
0000
1000
0001
,  // measure 19
0000
0000
1001
0100
,  // measure 20
0010
0100
0001
1000
,  // measure 21
0010
0001
1001
0100
,  // measure 22
1000
0001
0010
0100
,  // measure 23
0001
0010
0011
0010
,  // measure 24
0100
1100
0100
0010
,  // measure 25
0100
0101
0100
0100
,  // measure 26
0010
1010
0010
0001
,  // measure 27
0100
1001
0110
0010
,  // measure 28
1000
0100
1000
0010
,  // measure 29
0001
0010
1001
0100
,  // measure 30
0001
1000
0010
0001
,  // measure 31
0100
1001
1000
0001
,  // measure 32
0010
0100
1000
0100
,  // measure 33
0010
0001
0010
0100
,  // measure 34
0001
1000
0100
0010
,  // measure 35
1001
0110
1001
0100
,  // measure 36
0010
0001
0110
1001
,  // measure 37
0101
0110
1001
0010
,  // measure 38
1000
0100
0110
1001
,  // measure 39
1010
0110
0010
0001
,  // measure 40
0010
0001
1000
0100
,  // measure 41
1000
0100
0010
0001
,  // measure 42
0100
1000
0100
0001
,  // measure 43
0010
1000
0100
1001
,  // measure 44
0010
1001
1000
0001
,  // measure 45
0010
0000
0100
0000
0001
0000
0000
1000
,  // measure 46
0000
0000
0010
0000
1001
0000
0000
0100
,  // measure 47
0000
0000
0010
0000
1001
0000
0000
1000
,  // measure 48
0000
0000
0001
0000
0010
0000
0000
0100
,  // measure 49
0000
0110
1001
0010
,  // measure 50
0100
0000
1000
0000
0010
0000
0000
0100
,  // measure 51
0000
0010
1001
0100
,  // measure 52
0001
0010
0100
0001
0010
0000
0100
0000
,  // measure 53
1000
0100
0010
1000
0100
0000
0010
0000
,  // measure 54
0001
0100
1000
0000
0100
0001
0010
0000
,  // measure 55
0001
1000
0001
0000
0010
0100
1001
0000
,  // measure 56
0110
0001
0020
0000
,  // measure 57
0000
0030
0110
1001
,  // measure 58
0000
0000
1001
0110
,  // measure 59
0000
0000
0000
0000
0010
0000
0000
1000
,  // measure 60
0000
0000
0100
0000
0001
0000
0000
0010
,  // measure 61
0000
0000
0100
0000
1000
0000
0000
0010
,  // measure 62
0000
0000
0100
0000
0001
0000
0000
1000
,  // measure 63
0000
0000
0010
0000
1000
0000
0000
0001
,  // measure 64
0000
0000
0100
1000
0100
0000
0000
0010
,  // measure 65
0000
0110
1001
0110
,  // measure 66
0000
1001
0110
1001
,  // measure 67
0000
0000
0001
0000
1000
0000
0000
1001
,  // measure 68
0000
0000
0100
0000
1001
0000
0000
0001
,  // measure 69
0000
0000
0010
1000
,  // measure 70
0100
0001
0100
1000
,  // measure 71
0010
0001
0010
1000
,  // measure 72
0100
0000
1001
0000
0010
0000
0000
1001
,  // measure 73
0000
0110
1001
0100
,  // measure 74
0010
0001
0100
1000
,  // measure 75
0010
1000
0100
0100
,  // measure 76
0001
0001
1000
1000
,  // measure 77
0010
0010
1000
0100
,  // measure 78
0001
0010
0001
0100
,  // measure 79
1000
0010
1000
0100
,  // measure 80
0001
0010
0001
0100
,  // measure 81
1000
0000
0110
0000
1000
0001
0100
0000
,  // measure 82
0010
0100
0001
1000
,  // measure 83
0100
0000
0010
0000
0001
1000
0010
0000
,  // measure 84
0100
0010
1000
0001
,  // measure 85
0010
0000
0100
0000
0010
1000
0100
0000
,  // measure 86
0001
0000
0100
0000
0010
1000
0100
0000
,  // measure 87
0001
0000
0100
0000
0001
0010
0100
1000
,  // measure 88
0010
0100
0001
0010
0000
0000
0000
0000
;

//---------------dance-single - ----------------
#NOTEDATA:;
#CHARTNAME:;
#STEPSTYPE:dance-single;
#DESCRIPTION:;
#CHARTSTYLE:;
#DIFFICULTY:Hard;
#METER:9;
#RADARVALUES:0.646686,0.836771,0.387754,0.009018,0.045088,502.000000,459.000000,43.000000,1.000000,0.000000,0.000000,0.000000,0.000000,0.000000,0.646686,0.836771,0.387754,0.009018,0.045088,502.000000,459.000000,43.000000,1.000000,0.000000,0.000000,0.000000,0.000000,0.000000;
#CREDIT:;
#NOTES:
// measure 0
0000
0000
0000
0000
,  // measure 1
0000
0000
0000
0000
,  // measure 2
0000
0000
0000
0000
,  // measure 3
0000
0000
0000
0000
,  // measure 4
0000
0000
0000
0000
,  // measure 5
0000
0000
0000
0000
,  // measure 6
0000
0000
0000
0000
,  // measure 7
0000
0000
0000
0000
,  // measure 8
0010
0001
0100
0001
0010
0001
0100
0001
,  // measure 9
0000
1000
0010
1000
0100
0001
0100
1000
,  // measure 10
0001
1000
0010
0100
0001
0010
0100
1000
,  // measure 11
0000
0010
1000
0100
1000
0001
0100
0010
,  // measure 12
0100
1001
1000
1001
,  // measure 13
0001
0101
0010
0011
,  // measure 14
0010
0001
0100
0000
0010
1000
0100
0000
,  // measure 15
1000
0100
0001
0000
0100
0010
0001
0000
,  // measure 16
0010
1001
0100
1001
,  // measure 17
0100
1100
0010
0011
,  // measure 18
0010
0010
0100
0000
1000
1000
0010
0100
,  // measure 19
0000
0001
0010
0100
1000
0000
0010
0000
,  // measure 20
0100
0001
0010
0000
0100
0000
1000
0000
,  // measure 21
0010
0100
0001
0000
1000
0000
0100
0000
,  // measure 22
0010
0001
0100
0000
0010
0000
1000
0000
,  // measure 23
0100
1000
0001
0000
0010
0000
0001
0000
,  // measure 24
1000
0100
0010
0000
0001
0000
0100
0000
,  // measure 25
0010
1000
0100
0000
1000
0000
0001
0000
,  // measure 26
0100
0001
1000
0000
0010
1000
0001
0000
,  // measure 27
0010
0100
1000
0010
0100
0000
1001
0000
,  // measure 28
0010
0000
0001
1000
0000
0100
1000
0010
,  // measure 29
1000
0000
0100
0001
1000
0000
0010
0000
,  // measure 30
0100
0000
0001
1000
0000
0010
1000
0100
,  // measure 31
1000
0000
0010
0100
0001
0000
0010
0000
,  // measure 32
0100
0000
1000
0001
0000
0010
0100
0010
,  // measure 33
0100
0000
0010
1000
0001
0000
0110
0000
,  // measure 34
1001
0000
1000
0001
0000
1000
0001
1000
,  // measure 35
0010
0000
0100
0001
1000
0000
0001
0000
,  // measure 36
0000
0100
0000
0100
0000
0000
0000
0010
,  // measure 37
0000
0010
0000
0000
1001
0000
1000
0000
,  // measure 38
0000
0110
0000
1001
0000
0000
0000
1100
,  // measure 39
0000
0011
0000
0000
1000
0001
1000
0000
,  // measure 40
0010
0100
0000
0100
0000
0000
1000
0100
,  // measure 41
0000
0010
0000
0000
0010
0100
0010
0000
,  // measure 42
1000
0001
0000
0110
0000
0000
0000
0100
,  // measure 43
0000
1001
0000
0000
0010
1000
0100
1000
,  // measure 44
0010
1000
0100
1000
0000
0001
0010
0001
,  // measure 45
0100
0001
0010
0001
0100
0001
0010
0001
,  // measure 46
0100
0001
0010
0001
0000
1000
0100
0010
,  // measure 47
0100
1000
0010
1000
0010
1000
0100
1000
,  // measure 48
0010
1000
0100
1000
0000
0001
1000
0100
,  // measure 49
1000
0010
1000
0001
0100
0010
1000
0100
,  // measure 50
0010
0100
1000
0001
0010
0000
0000
0110
,  // measure 51
0000
0000
0000
0000
1001
0000
0000
0000
0010
0000
1000
0000
0100
0000
1000
0001
,  // measure 52
0100
0000
0000
0010
0000
0000
1000
0000
0001
0000
1001
0000
0010
0000
1000
0001
,  // measure 53
0100
0000
0000
0010
0000
0000
1000
0000
0001
0000
0010
0000
0100
0000
1000
0001
,  // measure 54
0010
0000
0010
0100
0000
1000
0001
0000
1000
0000
1000
0000
0001
0000
0100
0010
,  // measure 55
0100
0000
0001
0000
0001
1000
0001
0000
0001
0000
0010
0000
0010
0000
0100
1000
,  // measure 56
0010
0010
0020
0000
,  // measure 57
0000
0030
0100
1001
,  // measure 58
0000
0001
0010
0100
1000
0000
0011
0000
,  // measure 59
0000
1000
0010
0100
0001
0000
1000
0100
,  // measure 60
0000
0010
0001
0000
0100
0000
0010
1000
,  // measure 61
0000
0100
0001
0000
0010
0000
1000
0001
,  // measure 62
0000
0010
0100
0000
1001
0000
0100
0000
,  // measure 63
0101
0000
0010
0000
1000
0000
0010
0100
,  // measure 64
0000
0000
0001
0010
0100
0000
1000
0010
,  // measure 65
0100
0001
0010
0100
1000
0000
0110
0000
,  // measure 66
0000
0010
1000
0001
0100
0000
1001
0000
,  // measure 67
0000
0100
0001
1000
0010
0000
0100
0001
,  // measure 68
0000
0010
0100
0000
1000
0000
0100
1000
,  // measure 69
0000
0010
0100
0001
1000
0000
0010
0100
,  // measure 70
0010
0000
0110
0000
1001
0000
0010
1000
,  // measure 71
0100
1000
0100
0000
0100
1000
0001
0010
,  // measure 72
0100
1000
0010
0100
0001
0000
0000
0110
,  // measure 73
0000
1001
0010
0100
,  // measure 74
1000
0000
0001
0000
0100
1000
0010
0000
,  // measure 75
0010
0000
0100
0000
0001
1000
0001
0000
,  // measure 76
0100
0000
0001
0000
0010
0100
0010
0000
,  // measure 77
0001
1000
1001
0100
,  // measure 78
1100
0101
1001
1010
,  // measure 79
0011
0000
0010
0001
1000
0000
0100
0000
,  // measure 80
1001
0110
1100
0101
,  // measure 81
1001
0000
0010
0000
1000
0100
0010
1000
,  // measure 82
0100
0010
1000
0100
0010
1000
0100
0010
,  // measure 83
1000
0100
0010
1000
0100
0001
1000
0100
,  // measure 84
0001
1000
0100
0001
1000
0100
0001
1000
,  // measure 85
0100
0001
1000
0100
0001
0100
0010
1000
,  // measure 86
0010
0100
0001
0010
0100
1000
0010
1000
,  // measure 87
0010
0001
0010
1000
0100
0010
1000
0001
,  // measure 88
0010
0100
0010
1001
0000
0000
0000
0000
;
