#TITLE:Metal Gear Solid Main Theme;
#SUBTITLE:(BIGBEAT Mix);
#ARTIST:ESPACIO BROTHERS;
#TITLETRANSLIT:;
#SUBTITLETRANSLIT:;
#ARTISTTRANSLIT:;
#GENRE:;
#CREDIT:;
#BANNER:mgsthemebbm bn.png;
#BACKGROUND:mgsthemebbm bg.png;
#LYRICSPATH:;
#CDTITLE:;
#MUSIC:mgsthemebbm.mp3;
#OFFSET:-0.130000;
#SAMPLESTART:22.410000;
#SAMPLELENGTH:12.000000;
#SELECTABLE:YES;
#BPMS:0.000000=140.149994
;
#STOPS:
;
#BGCHANGES:;
#KEYSOUNDS:;
#ATTACKS:;

//---------------dance-single - ----------------
#NOTES:
     dance-single:
     :
     Easy:
     5:
     0.315877,0.478609,0.298247,0.000000,0.020569,215.000000,186.000000,29.000000,0.000000,0.000000,0.000000,0.315877,0.478609,0.298247,0.000000,0.020569,215.000000,186.000000,29.000000,0.000000,0.000000,0.000000:
// measure 0
0000
0000
0000
0000
,  // measure 1
0000
0000
0000
0000
,  // measure 2
0000
0000
0000
0000
,  // measure 3
0000
0000
0000
0000
,  // measure 4
0000
0000
0000
0000
,  // measure 5
0000
1000
0001
0100
,  // measure 6
0100
0010
1000
0001
,  // measure 7
0001
1000
0001
0100
,  // measure 8
0100
0010
1001
0000
,  // measure 9
0000
0000
0001
0000
0001
0000
0000
0010
,  // measure 10
0000
0000
0100
0000
0100
0000
0000
1000
,  // measure 11
0000
0000
0010
0000
0010
0000
0000
1001
,  // measure 12
0000
0000
0000
0000
0001
0000
0000
0001
0000
0000
0001
0000
0000
0000
0000
0000
,  // measure 13
0000
1000
0100
0001
,  // measure 14
0100
1000
0001
0100
,  // measure 15
0010
1000
0001
0010
,  // measure 16
0100
0001
0001
0100
,  // measure 17
0010
1001
1000
0100
,  // measure 18
0001
0101
0100
1000
,  // measure 19
0010
1010
0010
0100
,  // measure 20
0110
1001
0010
1000
,  // measure 21
0001
0100
0100
0000
,  // measure 22
0000
0010
0001
1000
,  // measure 23
0110
1001
0100
0010
,  // measure 24
0001
1000
0100
0001
,  // measure 25
0100
1000
0001
0010
,  // measure 26
0110
1001
1000
0001
,  // measure 27
0001
0110
1100
1001
,  // measure 28
0100
0101
0101
0011
,  // measure 29
0011
1001
0010
1000
,  // measure 30
0100
0000
0000
0000
1000
0000
0000
1000
0000
0000
1000
0000
1000
0000
1000
0000
,  // measure 31
0000
0001
0100
1000
,  // measure 32
0100
0000
0100
0000
0100
0100
0000
0000
,  // measure 33
0000
0000
0000
0000
0001
0000
0000
0000
1000
0000
0000
0000
0001
0000
0000
0001
,  // measure 34
0000
0001
0000
0000
0000
0000
0000
0000
,  // measure 35
0000
1000
0010
0100
,  // measure 36
0001
0001
0001
1000
,  // measure 37
1000
0001
0010
0100
,  // measure 38
1000
1000
1000
0001
,  // measure 39
0001
0000
1000
0000
0000
0010
0100
0001
,  // measure 40
0000
0000
1000
0000
0000
0100
0010
0001
,  // measure 41
0000
0000
0100
0000
0000
0001
1000
0010
,  // measure 42
0000
0100
0001
0000
1000
0000
0000
0000
,  // measure 43
0000
0000
1000
0000
0100
0000
1000
0100
,  // measure 44
1000
0000
0001
0000
0100
0000
0001
0100
,  // measure 45
0001
0000
1000
0000
0001
0000
1000
0001
,  // measure 46
1000
0000
0010
0100
0010
0000
1001
0000
,  // measure 47
0000
1000
0100
1100
,  // measure 48
0000
0001
0100
0101
,  // measure 49
0000
0001
1000
1001
,  // measure 50
0000
0010
1001
0000
,  // measure 51
0000
0001
0101
1000
,  // measure 52
1100
0001
0101
1000
,  // measure 53
1100
0000
0000
0000
0010
0000
0000
0010
0000
0000
0100
0000
0100
0000
0100
0000
,  // measure 54
0000
0000
0000
0000
0010
0100
1001
0000
;

//---------------dance-single - ----------------
#NOTES:
     dance-single:
     :
     Medium:
     7:
     0.374645,0.422302,0.143981,0.000000,0.097701,255.000000,241.000000,14.000000,0.000000,0.000000,0.000000,0.374645,0.422302,0.143981,0.000000,0.097701,255.000000,241.000000,14.000000,0.000000,0.000000,0.000000:
// measure 0
0000
0000
0000
0000
,  // measure 1
0000
0000
0000
0000
,  // measure 2
0000
0000
0000
0000
,  // measure 3
0000
0000
0000
0000
,  // measure 4
0000
0000
0000
0000
,  // measure 5
0000
0000
0000
0000
1000
0000
0000
0100
0000
0000
0000
0000
0001
0000
0000
0000
,  // measure 6
0001
0100
1000
0100
,  // measure 7
0100
0000
0000
0000
0001
0000
0000
0100
0000
0000
0000
0000
1000
0000
0000
0000
,  // measure 8
1000
0100
0001
0100
,  // measure 9
0100
0000
0000
0000
1000
0000
0000
0001
0000
0000
1000
0000
0001
0000
1000
0000
,  // measure 10
0000
0000
0000
0000
0010
0000
0000
0100
0000
0000
0010
0000
0100
0000
0010
0000
,  // measure 11
0000
0000
0000
0000
1000
0000
0000
0010
0000
0000
0100
0000
0001
0000
1000
0000
,  // measure 12
0000
0000
0000
0000
0010
0000
0000
0010
0000
0000
1001
0000
0000
0000
0000
0000
,  // measure 13
0010
1000
0100
0000
0000
0001
0000
0100
,  // measure 14
1000
0010
1000
0000
0001
0000
0000
0000
,  // measure 15
0010
0001
0100
0000
0000
1000
0000
0100
,  // measure 16
0001
0010
0001
0000
1000
0000
0000
0000
,  // measure 17
1000
1000
1000
0000
0000
0001
0000
0010
,  // measure 18
0100
0001
1000
0000
0010
0000
0000
0000
,  // measure 19
1000
0000
0001
0000
1000
0000
0000
0000
0000
0000
0010
0000
0100
0000
0000
0100
,  // measure 20
0000
0100
0001
0000
1000
0000
0001
0000
,  // measure 21
0010
0100
1000
0010
,  // measure 22
0100
0000
1001
0000
0000
0100
0000
0010
,  // measure 23
0100
0010
0100
0000
1001
0000
0000
0000
,  // measure 24
0000
0000
0110
0000
0000
1000
0000
0001
,  // measure 25
1000
0001
1000
0000
0110
0000
0000
0000
,  // measure 26
0000
0000
1001
0000
0000
0110
0000
0010
,  // measure 27
0100
0001
1000
0000
1001
0000
0010
0000
,  // measure 28
1000
0000
0001
0000
0100
0000
0000
0000
0000
0000
0010
0000
0100
0000
0000
0001
,  // measure 29
0000
1000
0010
0000
0001
0000
1000
0000
,  // measure 30
0100
0001
1000
0001
,  // measure 31
0010
0000
0001
0000
0100
1000
0000
1000
,  // measure 32
0100
0000
0001
0000
0001
0010
0000
0000
,  // measure 33
0000
0000
0000
0000
0000
0000
0000
0000
0001
1000
0000
0000
1000
0000
0000
1000
,  // measure 34
0000
1000
1000
0000
1000
0000
0001
0000
,  // measure 35
0001
0000
0000
0000
0010
0000
0000
1000
0000
0000
0001
0000
1000
0000
0001
0000
,  // measure 36
0000
0000
0010
0000
0100
0000
0000
0001
0000
0000
1000
0000
0001
0000
1000
0000
,  // measure 37
0000
0000
0100
0000
0010
0000
0000
1000
0000
0000
0001
0000
1000
0000
0001
0000
,  // measure 38
0000
0010
1000
0000
1000
0000
0001
0000
,  // measure 39
0001
0000
0000
0000
0010
0000
0000
1000
0000
0000
0100
0000
1000
0000
0010
0000
,  // measure 40
0000
0000
0100
0000
0010
0000
0000
0001
0000
0000
0100
0000
0001
0000
0010
0000
,  // measure 41
0000
0000
1000
0000
0010
0000
0000
0100
0000
0000
0001
0000
0010
0000
0100
0000
,  // measure 42
0000
1000
1001
0000
1100
0000
1001
0000
,  // measure 43
0101
0000
1000
0010
0100
0000
0001
0010
,  // measure 44
0100
0000
1000
0010
0100
0001
0010
0100
,  // measure 45
1000
0000
0001
0010
0100
0000
1000
0010
,  // measure 46
0100
0000
0001
0010
0100
1000
0010
0000
,  // measure 47
0000
0000
0010
0010
0100
0100
0010
0000
,  // measure 48
0000
1000
0100
0100
0010
0010
0100
0000
,  // measure 49
0000
0000
1000
0010
0100
0001
0010
0100
,  // measure 50
1000
0010
0100
0000
1001
0000
0000
0000
,  // measure 51
0000
0000
0000
0000
0010
0000
0000
1000
0000
0000
0100
0000
1000
0000
0010
0000
,  // measure 52
0000
0000
0010
0000
0100
0000
0000
0001
0000
0000
0010
0000
0001
0000
0100
0000
,  // measure 53
0000
0000
0010
0000
1000
0000
0000
0001
0000
0000
0100
0000
0001
0000
1000
0000
,  // measure 54
0000
0100
0010
0000
0010
0100
1001
0000
;

//---------------dance-single - ----------------
#NOTES:
     dance-single:
     :
     Hard:
     9:
     0.527441,0.563069,0.524503,0.000000,0.277678,359.000000,308.000000,51.000000,0.000000,0.000000,0.000000,0.527441,0.563069,0.524503,0.000000,0.277678,359.000000,308.000000,51.000000,0.000000,0.000000,0.000000:
// measure 0
0000
0000
0000
0000
,  // measure 1
0000
0000
0000
0000
,  // measure 2
0000
0000
0000
0000
,  // measure 3
0000
0000
0000
0000
,  // measure 4
0000
0000
0000
0000
,  // measure 5
0000
0000
0000
0000
1000
0100
0000
0100
0000
0000
0010
0000
0001
0000
0100
0000
,  // measure 6
0000
0001
1001
0000
1100
0000
0011
0001
,  // measure 7
1000
0000
0000
0000
0001
0100
0000
0100
0000
0000
0010
0000
1000
0000
0100
0000
,  // measure 8
0000
1000
1001
0000
0101
0000
1010
1000
,  // measure 9
0001
0000
0000
0000
0001
0000
0000
0010
0000
0000
0100
0000
1000
0000
0010
0000
,  // measure 10
0000
0000
0000
0000
1000
0000
0000
0100
0000
0000
0010
0000
0001
0000
0100
0000
,  // measure 11
0000
0000
0000
0000
0010
0000
0000
1001
0000
0000
0011
0000
0001
0000
1001
0000
,  // measure 12
0000
0000
0000
0000
0011
0000
0000
1100
0000
0000
1001
0000
0000
0000
0000
0000
,  // measure 13
0001
0010
0100
0000
0010
0100
0000
1000
,  // measure 14
0010
0000
0100
0010
0100
0000
0000
0000
1001
0000
0000
0000
0110
0000
0000
0000
,  // measure 15
0100
1000
0010
0000
0100
0010
0000
0001
,  // measure 16
0010
0000
0100
0010
0100
0000
0000
0000
1001
0000
0000
0000
0110
0000
0000
0000
,  // measure 17
0100
0100
1000
0000
1001
0001
0000
0100
,  // measure 18
0001
0000
0010
0100
0010
0000
0000
0000
1001
0000
0000
0000
0110
0000
0000
0000
,  // measure 19
0001
0000
0010
0000
0100
0000
0000
0000
0000
0000
0010
0000
1001
0000
0000
0100
,  // measure 20
0000
1100
0001
0100
0010
1000
0100
1000
,  // measure 21
0001
0000
0100
0000
0001
1000
0000
0000
0000
0001
0000
0000
0000
1000
0000
0000
,  // measure 22
0001
1000
0100
0000
1000
0101
0000
0001
,  // measure 23
0010
0100
0010
0000
1001
0000
0110
0000
,  // measure 24
0010
1000
0100
0000
0001
1100
0000
0100
,  // measure 25
1000
0001
0010
0000
1001
0000
0110
0000
,  // measure 26
0100
0010
0001
0000
1000
0011
0000
1000
,  // measure 27
0010
0100
0001
0000
0110
0000
1001
0000
,  // measure 28
1000
0000
0010
0000
0100
0000
0000
0000
0001
0000
1010
0000
0010
0000
0000
0100
,  // measure 29
0000
1001
0001
0000
1000
0000
1000
0000
,  // measure 30
0001
0000
0000
0000
1000
0100
0000
0100
0000
0000
0011
0000
0001
0000
1001
0000
,  // measure 31
0000
0000
0000
0000
0010
0000
0000
1000
0000
0000
0100
0000
1000
0000
0000
0000
,  // measure 32
1001
0000
0110
0000
1100
0001
0000
0000
,  // measure 33
1000
0000
0010
0000
0100
0000
0000
0000
0001
1000
0000
0000
0010
0000
0000
0001
,  // measure 34
0000
1000
0000
0000
0010
0000
0100
0000
,  // measure 35
0001
0000
0000
0000
1000
0000
0100
0001
0000
0000
0100
0000
1000
0000
0010
0000
,  // measure 36
0000
0000
1000
0001
0100
0000
0001
0010
0000
0000
0001
0000
0100
0000
1000
0000
,  // measure 37
0000
0000
1000
0100
1000
0000
0100
0001
0000
0000
0100
0000
1000
0000
0010
0000
,  // measure 38
0000
0000
1000
0001
0100
0000
0000
0000
1001
0000
0000
0000
1100
0000
0000
0000
,  // measure 39
0011
0000
0001
0000
0001
0000
0100
1000
0000
0000
0100
0000
0001
0000
0010
0000
,  // measure 40
0000
0000
0001
1000
0100
0000
1000
0010
0000
0000
1000
0000
0100
0000
0001
0000
,  // measure 41
0000
0000
0001
0100
0001
0000
0100
1000
0000
0000
0100
0000
0001
0000
0010
0000
,  // measure 42
0000
0000
0001
1000
0100
0000
0000
0000
1001
0000
0000
0000
0101
0000
0000
0000
,  // measure 43
1010
1000
1001
0000
0100
1001
0000
0000
,  // measure 44
0001
0100
0001
0100
0001
0000
0000
0000
0010
0000
1001
0000
0000
0000
1000
0100
,  // measure 45
1000
0100
1000
0100
1000
0000
0000
0000
0010
0000
1001
0000
0000
0000
0110
0000
,  // measure 46
0000
0000
0010
0001
0010
0000
0010
0000
0100
0000
0100
0000
0010
0000
0000
0000
,  // measure 47
0000
0000
0000
0000
1000
0000
0010
1000
0100
0000
1000
0010
1000
0000
0000
0000
,  // measure 48
0000
0000
1000
0000
0001
0000
0010
0001
0100
0000
0001
0010
0001
0000
0000
0000
,  // measure 49
0000
0000
0000
0000
1000
0000
0010
0100
0000
0001
0010
0000
0100
0000
1001
0000
,  // measure 50
0000
0100
0100
0000
1001
0000
0000
0000
,  // measure 51
0000
0000
0000
0000
1000
0000
0100
1000
0000
0100
1000
0000
0001
0000
1000
0000
,  // measure 52
0000
0000
0001
0010
0001
0000
0100
0001
0000
0100
0001
0000
1000
0000
0001
0000
,  // measure 53
0000
0000
1000
0010
1000
0000
0001
1000
0000
0100
1000
0000
0001
0000
1000
0000
,  // measure 54
0000
0000
0010
1000
0001
0000
0000
0000
0010
0000
0100
0000
1001
0000
0000
0000
;

//---------------dance-solo - ----------------
#NOTES:
     dance-solo:
     :
     Easy:
     4:
     0.274739,0.365995,0.236540,0.000000,0.015427,187.000000,164.000000,23.000000,0.000000,0.000000,0.000000,0.274739,0.365995,0.236540,0.000000,0.015427,187.000000,164.000000,23.000000,0.000000,0.000000,0.000000:
// measure 0
000000
000000
000000
000000
,  // measure 1
000000
000000
000000
000000
,  // measure 2
000000
000000
000000
000000
,  // measure 3
000000
000000
000000
000000
,  // measure 4
000000
000000
000000
000000
,  // measure 5
000000
100000
000010
001000
,  // measure 6
000000
100000
100000
000001
,  // measure 7
000001
000001
010000
001000
,  // measure 8
000000
000100
000100
100001
,  // measure 9
000000
100000
000000
000001
,  // measure 10
000000
010000
000000
100001
,  // measure 11
000000
100000
000100
001000
,  // measure 12
000001
000000
000000
000000
000100
000000
000000
000100
000000
000000
000100
000000
000000
000000
000000
000000
,  // measure 13
000000
100000
001000
000001
,  // measure 14
001000
100000
001000
000001
,  // measure 15
001000
100000
000001
100000
,  // measure 16
000001
100000
000010
010000
,  // measure 17
000001
100001
000001
100000
,  // measure 18
001000
000100
100000
000001
,  // measure 19
001000
000100
010010
000100
,  // measure 20
010010
100001
000000
100000
,  // measure 21
000000
000001
000000
100000
,  // measure 22
000000
000100
000000
001000
,  // measure 23
000000
000100
100000
001000
,  // measure 24
001100
010000
000000
000010
,  // measure 25
000000
100100
001000
001001
,  // measure 26
000100
100001
000000
010010
,  // measure 27
000000
000100
100000
001000
,  // measure 28
100000
000000
000000
000000
000100
000000
000000
000000
001000
000000
000000
000000
000001
000000
000000
000001
,  // measure 29
000000
000001
100000
000000
000000
000000
100000
000000
,  // measure 30
000000
000100
000100
100001
,  // measure 31
000000
000100
000100
001000
,  // measure 32
001000
000000
000001
000000
100000
100000
000000
000000
,  // measure 33
000000
000000
000000
000000
000000
000000
000000
000000
010000
000000
000000
000000
000001
000000
000000
001000
,  // measure 34
000000
000100
000000
000000
000000
000000
000000
000000
,  // measure 35
000000
000100
100000
001000
,  // measure 36
000001
001000
100000
000100
,  // measure 37
010010
000100
100000
001000
,  // measure 38
000001
001000
100001
000000
,  // measure 39
000000
000001
010000
001000
,  // measure 40
000010
100000
000100
000001
,  // measure 41
001100
000100
000001
001000
,  // measure 42
000100
010010
000000
000000
,  // measure 43
000000
100000
001000
100000
,  // measure 44
001000
000001
001000
000001
,  // measure 45
001000
100000
001000
100000
,  // measure 46
001000
000001
001000
000001
,  // measure 47
000000
010000
000010
010000
,  // measure 48
000000
100000
000001
100000
,  // measure 49
000000
000100
001000
000100
,  // measure 50
000000
000100
100001
000000
,  // measure 51
000000
100001
001100
000100
,  // measure 52
010010
100000
100000
000001
,  // measure 53
000001
001000
001001
101000
,  // measure 54
001000
000000
000100
000000
000100
001000
100001
000000
;

//---------------dance-solo - ----------------
#NOTES:
     dance-solo:
     :
     Medium:
     7:
     0.359953,0.422302,0.205687,0.000000,0.113128,245.000000,225.000000,20.000000,0.000000,0.000000,0.000000,0.359953,0.422302,0.205687,0.000000,0.113128,245.000000,225.000000,20.000000,0.000000,0.000000,0.000000:
// measure 0
000000
000000
000000
000000
,  // measure 1
000000
000000
000000
000000
,  // measure 2
000000
000000
000000
000000
,  // measure 3
000000
000000
000000
000000
,  // measure 4
000000
000000
000000
000000
,  // measure 5
000000
000000
000000
000000
010000
000000
000000
000010
000000
000000
000000
000000
001000
000000
000000
000000
,  // measure 6
000001
001000
100000
001000
,  // measure 7
100001
000000
000000
000000
000010
000000
000000
010000
000000
000000
000000
000000
001000
000000
000000
000000
,  // measure 8
100000
000000
000000
000000
100000
000000
000001
000000
100000
000000
000000
100000
000000
000000
000000
000000
,  // measure 9
000000
000000
000000
000000
100000
000000
000000
000010
000000
000000
010000
000000
001000
000000
100000
000000
,  // measure 10
000000
000000
000000
000000
000001
000000
000000
000100
000000
000000
001000
000000
010000
000000
000001
000000
,  // measure 11
000000
000000
000000
000000
000100
000000
000000
000100
000000
000000
001000
000000
100000
000000
000001
000000
,  // measure 12
000000
000000
000000
000000
000100
000000
000000
000100
000000
000000
000100
000000
000000
000000
000000
000000
,  // measure 13
000000
000000
000100
000000
100001
000000
000001
000100
,  // measure 14
001000
100000
000010
000000
100001
000000
001000
000000
,  // measure 15
100000
000000
000100
000000
010010
000000
100000
100000
,  // measure 16
100000
000100
010010
001000
,  // measure 17
000100
000000
100001
000000
100000
000000
000001
010000
,  // measure 18
001000
100000
000010
000000
100001
000000
001100
000000
,  // measure 19
100000
000000
000001
000000
100000
000000
000000
000000
000100
000000
000000
000000
000010
000000
000000
100000
,  // measure 20
000000
000001
010000
000000
010010
000000
001000
000000
,  // measure 21
100001
100000
100000
000001
,  // measure 22
000001
100000
000001
000000
000100
000000
000000
000000
,  // measure 23
010010
100001
000000
000000
,  // measure 24
000100
100000
001000
000001
,  // measure 25
001000
100000
000010
010000
,  // measure 26
010010
001000
000000
000000
,  // measure 27
000000
110000
010001
001000
,  // measure 28
001000
000001
000001
100000
,  // measure 29
100000
100001
001000
000100
,  // measure 30
000001
000000
000000
000000
100000
000000
000000
000100
000000
000000
100000
000000
000001
000000
100000
000000
,  // measure 31
000000
000000
100000
000000
000001
100000
000000
100000
,  // measure 32
000001
000000
000100
000000
000100
000100
000000
000000
,  // measure 33
000000
000000
000000
000000
000000
000000
000000
000000
010000
000000
000000
000000
000001
000000
000000
100000
,  // measure 34
000000
000010
010010
000000
100000
000000
000001
000000
,  // measure 35
100000
000000
000000
000000
100000
000000
000000
100000
000000
000000
100000
000000
000001
000000
000000
000001
,  // measure 36
000000
000000
000001
000000
001000
000000
000000
001000
000000
000000
001000
000000
000100
000000
000000
000100
,  // measure 37
000000
000000
000100
000000
000001
000000
000000
001000
000000
000000
100000
000000
001000
000000
000000
000001
,  // measure 38
000000
100000
000100
000000
000100
000000
000100
000000
,  // measure 39
000100
000000
000000
000000
100000
000000
000000
100000
000000
000000
000001
000000
100000
000000
000001
000000
,  // measure 40
000000
000000
000000
000000
000100
000000
000000
000100
000000
000000
001000
000000
000100
000000
001000
000000
,  // measure 41
000000
000000
000000
000000
000001
000000
000000
100000
000000
000000
001000
000000
000100
000000
010010
000000
,  // measure 42
000000
001000
000100
000000
000000
000000
000000
000000
,  // measure 43
000000
000000
000100
100000
000100
000000
001000
000001
,  // measure 44
001000
000000
000100
010000
000001
001000
000100
000000
,  // measure 45
000000
000000
000001
000100
000001
000000
100000
001000
,  // measure 46
100000
000000
000010
000100
001000
100000
000001
000000
,  // measure 47
000000
000000
100000
001000
000001
001000
100000
000000
,  // measure 48
000000
000000
000001
001000
100000
001000
000001
000000
,  // measure 49
000000
000000
010000
000010
000100
000010
010000
000000
,  // measure 50
000000
000100
001000
000000
100001
000000
000000
000000
,  // measure 51
000000
000000
000000
000000
000100
000000
000000
000100
000000
000000
000100
000000
000100
000000
000100
000000
,  // measure 52
000000
000000
000000
000000
001000
000000
000000
001000
000000
000000
001000
000000
001000
000000
001000
000000
,  // measure 53
000000
000000
000001
000000
100000
000000
000000
000010
000000
000000
010000
000000
000001
000000
100000
000000
,  // measure 54
000000
000100
000100
000000
000100
001000
100001
000000
;

//---------------dance-solo - ----------------
#NOTES:
     dance-solo:
     :
     Hard:
     9:
     0.459858,0.563069,0.421659,0.000000,0.226256,313.000000,272.000000,41.000000,0.000000,0.000000,0.000000,0.459858,0.563069,0.421659,0.000000,0.226256,313.000000,272.000000,41.000000,0.000000,0.000000,0.000000:
// measure 0
000000
000000
000000
000000
,  // measure 1
000000
000000
000000
000000
,  // measure 2
000000
000000
000000
000000
,  // measure 3
000000
000000
000000
000000
,  // measure 4
000000
000000
000000
000000
,  // measure 5
000000
000000
000000
000000
000100
000010
000000
000010
000000
000000
001000
000000
000100
000000
110000
000000
,  // measure 6
000000
000000
010000
000010
001000
000000
001000
000000
,  // measure 7
100001
000000
000000
000000
000100
010000
000000
010000
000000
000000
001000
000000
000100
000000
000011
000000
,  // measure 8
000000
000000
000000
000000
000010
000000
010000
000000
000100
000000
000000
001000
000000
000000
000000
000000
,  // measure 9
000000
000000
000000
000000
010000
000000
000000
000010
000000
000000
001000
000000
000100
000000
001000
000000
,  // measure 10
000000
000000
000000
000000
000001
000000
000000
100000
000000
000000
001000
000000
000010
000000
010000
000000
,  // measure 11
000000
000000
000000
000000
100000
000000
000000
100001
000000
000000
001000
000000
000100
000000
010010
000000
,  // measure 12
000000
000000
000000
000000
010010
000000
000000
100001
000000
000000
001100
000000
000000
000000
000000
000000
,  // measure 13
000001
000100
001000
000000
001000
000100
000000
100000
,  // measure 14
000100
000000
010000
000010
010000
000000
000000
000000
001100
000000
000000
000000
000000
000000
000000
000000
,  // measure 15
100000
100000
100001
000000
000100
010010
000000
010000
,  // measure 16
001000
000000
000100
000010
000100
000000
000000
000000
100001
000000
000000
000000
000000
000000
000000
000000
,  // measure 17
000100
000100
001100
000000
000001
100001
000000
010000
,  // measure 18
000010
000000
010000
000010
010000
000000
000000
000000
100001
000000
000000
000000
000000
000000
000000
000000
,  // measure 19
000100
000000
100001
000000
010010
000000
000000
000000
000000
000000
000100
000000
001000
000000
000000
000001
,  // measure 20
000000
010000
000010
000000
000010
000000
010000
000000
,  // measure 21
010000
000000
000000
000000
000100
001000
000000
000000
000000
000100
000000
000000
000000
001000
000000
000000
,  // measure 22
001000
000100
100001
000000
100000
000000
000000
000001
,  // measure 23
010000
001000
100000
000000
100001
000000
000000
000000
,  // measure 24
000100
100000
001000
000000
100001
000000
000000
010000
,  // measure 25
000010
000100
010010
000000
100001
000000
000000
000000
,  // measure 26
000100
000001
100000
000000
100001
000000
000000
100000
,  // measure 27
000001
000001
000100
000000
100001
000000
000000
000000
,  // measure 28
100000
000000
000100
000000
010010
000000
000000
000000
000000
000000
000100
000000
000001
000000
000000
100000
,  // measure 29
000000
000100
001000
000000
000001
000000
100000
000000
,  // measure 30
001000
000000
000000
000000
100000
001000
000000
001000
000000
000000
000100
000000
000010
000000
010000
000000
,  // measure 31
000000
100000
100000
000001
,  // measure 32
000001
000000
010010
000000
100001
001100
000000
000000
,  // measure 33
000000
000000
000000
000000
000000
000000
000000
000000
000100
010000
000000
000000
001000
000000
000000
000100
,  // measure 34
000000
010010
000000
000000
110000
000000
010001
000000
,  // measure 35
010010
000000
000000
000000
100000
000000
000000
000001
000000
000000
010000
000000
000010
000000
010000
000000
,  // measure 36
000000
000000
000100
001000
000100
000000
000000
010000
000000
000000
001000
000000
000100
000000
001000
000000
,  // measure 37
000000
000000
100000
001000
100000
000000
000000
000010
000000
000000
010000
000000
000001
000000
100000
000000
,  // measure 38
000000
000000
000100
000000
100001
000000
000000
000001
001000
000000
000000
001000
000001
000000
000000
000001
,  // measure 39
000100
000000
000000
000000
100000
000000
000000
000001
000000
000000
100000
000000
000001
000000
100000
000000
,  // measure 40
000000
000000
000100
001000
000100
000000
000000
001000
000000
000000
000100
000000
001000
000000
000100
000000
,  // measure 41
000000
000000
000001
100000
000001
000000
000000
100000
000000
000000
000001
000000
100000
000000
000001
000000
,  // measure 42
000000
000000
000100
001000
000100
000000
000000
000000
010010
000000
000000
000000
000000
000000
000000
000000
,  // measure 43
000000
000000
000100
010000
000001
100000
001000
000100
,  // measure 44
000010
010000
001000
100000
000001
000100
010010
000000
,  // measure 45
000000
000000
000100
000100
100000
100000
000001
000001
,  // measure 46
001000
001000
000100
100000
001000
100000
101000
000000
,  // measure 47
000000
000000
100000
000001
001000
000001
001001
000000
,  // measure 48
000000
000000
000001
100000
001000
100000
101000
000000
,  // measure 49
000000
000000
001000
100000
000100
010000
000010
000000
,  // measure 50
001000
001000
000100
000000
010010
000000
000000
000000
,  // measure 51
000000
000000
000000
000000
000100
000000
010000
000100
000000
010000
000100
000000
010000
000000
000010
000000
,  // measure 52
000000
000000
000100
001000
000100
000000
000010
000100
000000
100001
000100
000000
000010
000000
010000
000000
,  // measure 53
000000
000000
000001
100000
000001
000000
001000
000001
000000
100000
001000
000000
000100
000000
000001
000000
,  // measure 54
000000
000000
100000
000100
100000
000000
000000
000000
000100
000000
001000
000000
100001
000000
000000
000000
;

//---------------dance-double - ----------------
#NOTES:
     dance-double:
     :
     Easy:
     4:
     0.307062,0.337841,0.154265,0.000000,0.000000,209.000000,194.000000,15.000000,0.000000,0.000000,0.000000,0.307062,0.337841,0.154265,0.000000,0.000000,209.000000,194.000000,15.000000,0.000000,0.000000,0.000000:
// measure 0
00000000
00000000
00000000
00000000
,  // measure 1
00000000
00000000
00000000
00000000
,  // measure 2
00000000
00000000
00000000
00000000
,  // measure 3
00000000
00000000
00000000
00000000
,  // measure 4
00000000
00000000
00000000
00000000
,  // measure 5
00000000
10000000
01000000
00010000
,  // measure 6
00001000
00000100
00000001
00000100
,  // measure 7
00001000
00010000
01000000
10000000
,  // measure 8
01000000
00010000
00001000
00000001
,  // measure 9
00000000
00000001
00001000
00000001
,  // measure 10
00001000
00010000
10000000
00010000
,  // measure 11
10000000
01000000
10000000
00100000
,  // measure 12
00010000
00001000
00000100
00000001
,  // measure 13
00000000
00001001
00000001
00000100
,  // measure 14
00001000
00011000
00010000
01000000
,  // measure 15
10000000
10010000
10000000
01000000
,  // measure 16
00010000
00011000
00001000
00000100
,  // measure 17
00000001
00001001
00000001
00000100
,  // measure 18
00001000
00011000
00010000
01000000
,  // measure 19
10000000
10010000
10000000
01000000
,  // measure 20
00010000
00011000
00001000
00000100
,  // measure 21
00000001
00001000
00001000
00000001
,  // measure 22
00000001
00001001
00000001
00000010
,  // measure 23
00001000
00000010
00000001
00000100
,  // measure 24
00001000
00010000
10000000
00100000
,  // measure 25
00010000
00100000
10000000
01000000
,  // measure 26
00010000
00001000
00000001
00000010
,  // measure 27
00001000
00000010
00000001
00000100
,  // measure 28
00001000
00010000
10000000
00100000
,  // measure 29
10000000
01000000
00010000
10000000
,  // measure 30
00010000
00001000
00000001
00001000
,  // measure 31
00000010
00001001
00000001
00000100
,  // measure 32
00001000
00000100
00000001
00000001
,  // measure 33
00001000
00000010
00000010
00000100
,  // measure 34
00000100
00000001
00000001
00001000
,  // measure 35
00001000
00010000
01000000
00010000
,  // measure 36
01000000
00100000
10000000
00100000
,  // measure 37
10000000
00001000
01000000
00001000
,  // measure 38
01000000
00000100
00010000
00000100
,  // measure 39
00010000
01000000
10000000
01000000
,  // measure 40
00010000
00000100
00000001
00000100
,  // measure 41
00001000
01000000
10000000
01000000
,  // measure 42
00010000
10000000
10000000
10010000
,  // measure 43
00000000
00100000
10000000
01000000
,  // measure 44
00010000
00001000
00000010
00000001
,  // measure 45
00000100
00010000
00100000
10000000
,  // measure 46
01000000
00001000
00000100
00000100
,  // measure 47
00000000
10010000
00010000
01000000
,  // measure 48
00010000
01010000
10000000
01000000
,  // measure 49
10000000
10000000
01000000
00010000
,  // measure 50
00001000
00000100
00001001
00000000
,  // measure 51
00000000
00010000
01000000
10000000
,  // measure 52
01000000
00010000
00001000
00000100
,  // measure 53
00000001
00000100
00001000
00010000
,  // measure 54
01000000
00000000
10000000
00000000
00100000
01000000
10010000
00000000
;

//---------------dance-double - ----------------
#NOTES:
     dance-double:
     :
     Medium:
     7:
     0.377583,0.422302,0.215972,0.000000,0.097701,257.000000,236.000000,21.000000,0.000000,0.000000,0.000000,0.377583,0.422302,0.215972,0.000000,0.097701,257.000000,236.000000,21.000000,0.000000,0.000000,0.000000:
// measure 0
00000000
00000000
00000000
00000000
,  // measure 1
00000000
00000000
00000000
00000000
,  // measure 2
00000000
00000000
00000000
00000000
,  // measure 3
00000000
00000000
00000000
00000000
,  // measure 4
00000000
00000000
00000000
00000000
,  // measure 5
00000000
00000000
00000000
00000000
00000001
00000000
00000000
00001000
00000000
00000000
00000000
00000000
00010000
00000000
00000000
00000000
,  // measure 6
10000000
10000000
00010000
00001000
,  // measure 7
00000001
00000000
00000000
00000000
00000001
00000000
00000000
00001000
00000000
00000000
00000000
00000000
00010000
00000000
00000000
00000000
,  // measure 8
10000000
00000000
00000000
00000000
00100000
00000000
01000000
00000000
00100000
00000000
00000000
10010000
00000000
00000000
00000000
00000000
,  // measure 9
00000000
00000000
00000000
00000000
10000000
00000000
00000000
01000000
00000000
00000000
00010000
00000000
00001000
00000000
00000100
00000000
,  // measure 10
00000000
00000000
00000000
00000000
00000001
00000000
00000000
00000100
00000000
00000000
00001000
00000000
00010000
00000000
01000000
00000000
,  // measure 11
00000000
00000000
00000000
00000000
01000000
00000000
00000000
01000000
00000000
00000000
00001000
00000000
00010000
00000000
00000100
00000000
,  // measure 12
00000000
00000000
00000000
00000000
00000010
00000000
00000000
00000010
00000000
00000000
00001001
00000000
00000000
00000000
00000000
00000000
,  // measure 13
00000000
00000000
00001001
00000000
00000010
00000000
00000001
00000010
,  // measure 14
00000100
00001000
00010000
00000000
10010000
00000000
11000000
00000000
,  // measure 15
00010000
00100000
01000000
00000000
01000000
00000000
10000000
00100000
,  // measure 16
01000000
00010000
00001000
00000000
00001001
00000000
00000101
00000000
,  // measure 17
00001000
00000010
00000100
00000000
00000100
00000000
00000001
00000010
,  // measure 18
00000100
00001000
00010000
00000000
10010000
00000000
01100000
00000000
,  // measure 19
00100000
00000000
00100000
00000000
01000000
00000000
00000000
00000000
00000000
00000000
00100000
00000000
10000000
00000000
00000000
00010000
,  // measure 20
00000000
00001000
00000001
00000000
00001000
00000000
00000010
00000000
,  // measure 21
00001001
00000001
00001000
00000001
,  // measure 22
00001000
00001001
00000001
00000100
,  // measure 23
00001000
00011000
01000000
10000000
,  // measure 24
01000000
10010000
00011000
00000100
,  // measure 25
00000001
00000100
00001001
00001000
,  // measure 26
00011000
01000000
10000000
11000000
,  // measure 27
01000000
01010000
00011000
00010000
,  // measure 28
10000000
00000000
00100000
00000000
01000000
00000000
00000000
00000000
00000000
00000000
00001000
00000000
00010000
00000000
00000000
00000100
,  // measure 29
00000000
00001000
00000001
00000001
00000001
00000000
00001000
00001000
,  // measure 30
00001000
00000000
00010000
00010000
00010000
00000000
10000000
10000000
,  // measure 31
10000000
00000000
00100000
00000000
10000000
01000000
00000000
10000000
,  // measure 32
00100000
00000000
01000000
00000000
00010000
10000000
00000000
00000000
,  // measure 33
00000000
00000000
00000000
00000000
00000000
00000000
00000000
00000000
00001000
00000000
00000000
00000000
00000010
00000000
00000000
00000001
,  // measure 34
00000000
00001000
00000001
00000000
00000001
00000000
00001000
00000000
,  // measure 35
00001000
00000000
00000000
00000000
00010000
00000000
00000000
00010000
00000000
00000000
00010000
00000000
00010000
00000000
00010000
00000000
,  // measure 36
00000000
00000000
00000000
00000000
00001000
00000000
00000000
00001000
00000000
00000000
00001000
00000000
00001000
00000000
00001000
00000000
,  // measure 37
00000000
00000000
00000000
00000000
00010000
00000000
00000000
00001000
00000000
00000000
00010000
00000000
00001000
00000000
00010000
00000000
,  // measure 38
00000000
00001000
00010000
00000000
00010000
00000000
00001000
00000000
,  // measure 39
00001000
00000000
00000000
00000000
00000001
00000000
00000000
00000001
00000000
00000000
00001000
00000000
00001000
00000000
00001000
00000000
,  // measure 40
00000000
00000000
00000000
00000000
00010000
00000000
00000000
00010000
00000000
00000000
10000000
00000000
10000000
00000000
10000000
00000000
,  // measure 41
00000000
00000000
00000000
00000000
00010000
00000000
00000000
10000000
00000000
00000000
00010000
00000000
00010000
00000000
00010000
00000000
,  // measure 42
00000000
00001000
00010000
00000000
00000000
00000000
00000000
00000000
,  // measure 43
00000000
00000000
10000000
01000000
00010000
00000000
00001000
00000100
,  // measure 44
00000001
00000000
00000100
00001000
00010000
00000000
01000000
10000000
,  // measure 45
01000000
00000000
00010000
00001000
00000100
00000000
00000001
00000100
,  // measure 46
00001000
00000000
00010000
01000000
10000000
01000000
00010000
00000000
,  // measure 47
00000000
00000000
10000000
01000000
00010000
00001000
00000100
00000000
,  // measure 48
00000000
00000000
00000001
00000100
00001000
00010000
01000000
00000000
,  // measure 49
00000000
00000000
10000000
01000000
00010000
00001000
00000001
00000000
,  // measure 50
00000000
00000010
00000100
00000000
00001001
00000000
00000000
00000000
,  // measure 51
00000000
00000000
00000000
00000000
00000001
00000000
00000000
00000100
00000000
00000000
00001000
00000000
00010000
00000000
01000000
00000000
,  // measure 52
00000000
00000000
00000000
00000000
10000000
00000000
00000000
00100000
00000000
00000000
01000000
00000000
00010000
00000000
00100000
00000000
,  // measure 53
00000000
00000000
00000000
00000000
10000000
00000000
00000000
01000000
00000000
00000000
00010000
00000000
00001000
00000000
00000100
00000000
,  // measure 54
00000000
00001000
00000100
00000000
00000010
00000100
00001001
00000000
;

//---------------dance-double - ----------------
#NOTES:
     dance-double:
     :
     Hard:
     8:
     0.440758,0.478609,0.246825,0.010284,0.205687,300.000000,276.000000,24.000000,1.000000,0.000000,0.000000,0.440758,0.478609,0.246825,0.010284,0.205687,300.000000,276.000000,24.000000,1.000000,0.000000,0.000000:
// measure 0
00000000
00000000
00000000
00000000
,  // measure 1
00000000
00000000
00000000
00000000
,  // measure 2
00000000
00000000
00000000
00000000
,  // measure 3
00000000
00000000
00000000
00000000
,  // measure 4
00000000
00000000
00000000
00000000
,  // measure 5
00000000
00000000
00000000
00000000
00010000
00001000
00000000
00001000
00000000
00000000
01000000
00000000
00100000
00000000
10000000
00000000
,  // measure 6
00000000
00000000
00100000
01000000
00010000
00000000
01000000
00001000
,  // measure 7
00010000
00000000
00000000
00000000
00000100
00001000
00000000
00001000
00000000
00000000
00000010
00000000
00000001
00000000
00001000
00000000
,  // measure 8
00000000
00000000
00000001
00001000
00011000
00000000
10010000
00000000
,  // measure 9
00000000
00000000
00000000
00000000
10010000
00000000
00000000
01000000
00000000
00000000
00001000
00000000
00010000
00000000
00000100
00000000
,  // measure 10
00000000
00000000
00000000
00000000
00001001
00000000
00000000
00000010
00000000
00000000
00010000
00000000
00001000
00000000
00100000
00000000
,  // measure 11
00000000
00000000
00000000
00000000
00011000
00000000
00000000
00000010
00000000
00000000
00010000
00000000
00001000
00000000
00100000
00000000
,  // measure 12
00000000
00000000
00000000
00000000
00110000
00000000
00000000
00011000
00000000
00000000
00001100
00000000
00000000
00000000
00000000
00000000
,  // measure 13
00010000
00010000
00001000
00000000
00000100
00000001
00000000
00000010
,  // measure 14
00000001
00000000
00000100
00000010
00000100
00000000
00000000
00000000
00001001
00000000
00000000
00000000
00000001
00000000
00000000
00000000
,  // measure 15
00001000
00001000
00010000
00000000
01000000
10000000
00000000
00100000
,  // measure 16
10000000
00000000
01000000
00100000
01000000
00000000
00000000
00000000
10010000
00000000
00000000
00000000
10000000
00000000
00000000
00000000
,  // measure 17
00100000
10000000
00010000
00000000
00100000
01000000
00000000
10000000
,  // measure 18
00100000
00000000
01000000
00100000
01000000
00000000
00000000
00000000
10010000
00000000
00000000
00000000
01000000
00000000
00000000
00000000
,  // measure 19
00001000
00000000
00010000
00000000
00000100
00000000
00000000
00000000
00000000
00000000
00000010
00000000
00000001
00000000
00000000
00001000
,  // measure 20
00000000
00010000
10000000
00000000
00100000
00000000
10000000
00000000
,  // measure 21
01000000
00000000
00000000
00000000
01000000
10000000
00000000
00000000
00000000
00010000
00000000
00000000
00000000
00001000
00000000
00000000
,  // measure 22
00000001
00000010
00000100
00000000
00010000
00001000
00000000
00100000
,  // measure 23
00010000
10000000
01000000
00000000
10010000
00000000
01100000
00000000
,  // measure 24
10000000
00100000
01000000
00000000
00001000
00010000
00000000
00000010
,  // measure 25
00001000
00000001
00000100
00000000
00001001
00000000
00000110
00000000
,  // measure 26
00000001
00000010
00000100
00000000
00010000
00001000
00000000
00100000
,  // measure 27
00010000
10000000
01000000
00000000
10010000
00000000
01100000
00000000
,  // measure 28
10000000
00000000
00100000
00000000
01000000
00000000
00000000
00000000
00000000
00000000
00001000
00010000
00001000
00000000
00000000
00010000
,  // measure 29
00000000
00001000
00011000
00000000
00001001
00000000
00011000
00000000
,  // measure 30
10010000
00000000
00000000
00000000
01000000
00001000
00000000
00001000
00000000
00000000
00010000
00000000
00000100
00000000
00001000
00000000
,  // measure 31
00000000
00000000
00000010
00000000
00010000
00001000
00000000
01000000
,  // measure 32
00100000
00000000
10000000
00000000
01000000
00001000
00000000
00000000
,  // measure 33
00000000
00000000
00000000
00000000
00000000
00000000
00000000
00000000
00010000
00001000
00000000
00000000
00000100
00000000
00000000
00000010
,  // measure 34
00000000
00010000
00011000
00000000
00010000
00000000
00000100
00000000
,  // measure 35
00001000
00000000
00000000
00000000
00000001
00000000
00000000
00001000
00000000
00000000
00000100
00000000
00010000
00000000
00010000
00000000
,  // measure 36
00000000
00000000
10000000
00010000
10000000
00000000
00000000
00010000
00000000
00000000
01000000
00000000
00001000
00000000
00001000
00000000
,  // measure 37
00000000
00000000
00000001
00001000
00000001
00000000
00000000
00001000
00000000
00000000
00000100
00000000
00010000
00000000
00010000
00000000
,  // measure 38
00000000
00000000
00100000
01000000
00100000
00000000
00000000
00000000
01000000
00000000
00000000
00000000
00001000
00000000
00000000
00000000
,  // measure 39
00010000
00000000
00000000
00000000
10000000
00000000
00000000
00100000
00000000
00000000
10000000
00000000
00100000
00000000
10000000
00000000
,  // measure 40
00000000
00000000
00010000
01000000
00001000
00000000
00000000
00010000
00000000
00000000
00001000
00000000
00010000
00000000
00001000
00000000
,  // measure 41
00000000
00000000
00000100
00000001
00000100
00000000
00000000
00000001
00000000
00000000
00000100
00000000
00000001
00000000
00000100
00000000
,  // measure 42
00000000
00000000
00000010
00010000
00002000
00000000
00000000
00000000
00000000
00000000
00000000
00000000
00000000
00000000
00000000
00000000
,  // measure 43
00003000
00000000
00000010
00000100
00000001
00000010
00000100
00010000
,  // measure 44
00001000
01000000
00010000
10000000
00100000
01000000
00010000
00000000
,  // measure 45
00000000
00000000
00100000
01000000
00001000
00010000
01000000
00100000
,  // measure 46
00001000
00000000
00000100
00001000
00000010
00010000
00001000
00000000
,  // measure 47
00000000
00000000
00000000
00000000
00000100
00000000
00000001
00000000
00000100
00000000
00000001
00000100
00000001
00000000
00000000
00000000
,  // measure 48
00000000
00000000
00001000
00000000
00001000
00000000
00010000
00000000
00001000
00000000
00010000
00001000
00010000
00000000
00000000
00000000
,  // measure 49
00000000
00000000
10000000
01000000
00010000
00001000
00000001
00000000
,  // measure 50
00000000
00000001
00001000
00000000
10010000
00000000
00000000
00000000
,  // measure 51
00000000
00000000
00000000
00000000
10000000
00000000
00000000
01000000
00000000
00000000
00010000
00000000
00001000
00000000
00000100
00000000
,  // measure 52
00000000
00000000
00000010
00000000
00000001
00000000
00000000
00000100
00000000
00000000
00001000
00000000
00010000
00000000
01000000
00000000
,  // measure 53
00000000
00000000
10000000
00010000
10000000
00000000
00000000
01000000
00000000
00000000
00010000
00000000
00001000
00000000
00000100
00000000
,  // measure 54
00000000
00000000
00010000
00001000
01000000
00000000
00000000
00000000
00100000
00000000
01000000
00000000
10010000
00000000
00000000
00000000
;

//---------------dance-couple - ----------------
#NOTES:
     dance-couple:
     :
     Easy:
     7:
     0.273270,0.450455,0.195403,0.000000,0.046280,186.000000,167.000000,19.000000,0.000000,0.000000,0.000000,0.273270,0.450455,0.195403,0.000000,0.046280,186.000000,167.000000,19.000000,0.000000,0.000000,0.000000:
// measure 0
00000000
00000000
00000000
00000000
,  // measure 1
00000000
00000000
00000000
00000000
,  // measure 2
00000000
00000000
00000000
00000000
,  // measure 3
00000000
00000000
00000000
00000000
,  // measure 4
00000000
00000000
00000000
00000000
,  // measure 5
00000000
00000000
00000000
00000000
00100010
00000000
00000000
10001000
00000000
00000000
00000000
00000000
00010001
00000000
00000000
00000000
,  // measure 6
00010001
00000000
10001000
01000100
00010001
00000000
01000100
00000000
,  // measure 7
10001000
00000000
00000000
00000000
01000100
00000000
00000000
00010001
00000000
00000000
00000000
00000000
10001000
00000000
00000000
00000000
,  // measure 8
10001000
00000000
00010001
00100010
10001000
00000000
10011001
00000000
,  // measure 9
00000000
00000000
00000000
00000000
10000000
00000000
00000000
01000000
00000000
00000000
00010000
00000000
00010000
00000000
00010000
00000000
,  // measure 10
00000000
00000000
00000000
00000000
00000001
00000000
00000000
00000100
00000000
00000000
00001000
00000000
00001000
00000000
00001000
00000000
,  // measure 11
00000000
00000000
00000000
00000000
00100010
00000000
00000000
10001000
00000000
00000000
00010001
00000000
01000100
00000000
00100010
00000000
,  // measure 12
00000000
00000000
00000000
00000000
10000001
00000000
00000000
00011000
00000000
00000000
10011001
00000000
00000000
00000000
00000000
00000000
,  // measure 13
00010000
00100000
01000000
00000000
10000000
00100000
00000000
01000000
,  // measure 14
00010000
10000000
00010000
00000000
10010000
00000000
00000000
00000000
,  // measure 15
00000001
00000010
00000100
00000000
00001000
00000010
00000000
00000100
,  // measure 16
00000001
00001000
00000001
00000000
00001001
00000000
00000000
00000000
,  // measure 17
00000000
10000000
00000010
00010000
,  // measure 18
00000100
10000000
00000010
00010000
,  // measure 19
00000100
10000001
01000100
00011000
,  // measure 20
01000100
10001000
01000100
00010001
,  // measure 21
10001000
00010001
00100010
00010001
,  // measure 22
01000100
00000000
10010000
00000000
00100000
00000000
00000000
00000001
,  // measure 23
00000010
00000100
10001000
00000000
10011001
00000000
00000000
00000000
,  // measure 24
10001000
00100010
01000100
00000000
10011001
00000000
00000000
00010000
,  // measure 25
00100000
01000000
10001000
00000000
10011001
00000000
00000000
00000000
,  // measure 26
00000000
00000000
00001001
00000000
00000010
00000000
00000000
00010001
,  // measure 27
10001000
00010001
00100010
00000000
10011001
00000000
00000000
00000000
,  // measure 28
00011000
00000000
10000001
00000000
00011000
00000000
00000000
00000000
00000000
00000000
01000010
00000000
00100100
00000000
00000000
10000001
,  // measure 29
00000000
00011000
10011001
00000000
10000001
00000000
00011000
00000000
,  // measure 30
00011000
01101001
10010110
01101001
,  // measure 31
00000000
00100000
10000000
01000000
,  // measure 32
10000000
00100000
10000000
01000000
,  // measure 33
10000000
00000010
00000001
00000100
,  // measure 34
00000001
00000010
00000001
00000100
,  // measure 35
00000001
00000000
00010000
00100000
01000000
10000000
00100000
01000000
,  // measure 36
00010000
00000000
00001000
00000010
00000100
00000001
00000010
00000100
,  // measure 37
00001000
00000000
00100010
10001000
01000100
00010001
01000100
10001000
,  // measure 38
00100010
11000101
01011100
11000101
,  // measure 39
01011100
00000000
10000000
00000000
00000000
00100000
00100000
00100000
,  // measure 40
00000000
00000000
00000001
00000000
00000000
00000100
00000100
00000100
,  // measure 41
00000000
00000000
10000001
00000000
00000000
10000001
01000100
00011000
,  // measure 42
00000000
10011001
00000000
00000000
,  // measure 43
00000000
00000000
00010000
00100000
01000000
00000000
00001000
00000010
,  // measure 44
00000100
00000000
00010000
00100000
01000000
00000000
00001000
00000010
,  // measure 45
00000100
00000000
00010001
00100010
01000100
00000000
10001000
00100010
,  // measure 46
01000100
00000000
00011000
01000100
00011000
10000001
01000100
00000000
,  // measure 47
00000000
00000000
00100000
10000000
01000000
10000000
00100000
00000000
,  // measure 48
00000000
00000000
00000010
00000001
00000100
00000001
00000010
00000000
,  // measure 49
00000000
10000001
10000001
00011000
,  // measure 50
00011000
00100010
10011001
00000000
,  // measure 51
00000000
00000000
00000000
00000000
00100000
00000000
00000000
10000000
00000000
00000000
00010000
00000000
01000000
00000000
00100000
00000000
,  // measure 52
00000000
00000000
00000000
00000000
00000100
00000000
00000000
00000001
00000000
00000000
00001000
00000000
00000010
00000000
00000100
00000000
,  // measure 53
00000000
00000000
00000000
00000000
00100100
00000000
00000000
10000001
00000000
00000000
00011000
00000000
01000010
00000000
00100100
00000000
,  // measure 54
00000000
00000000
00100010
01000100
00100010
00000000
00000000
00000000
00100010
00000000
01000100
00000000
10011001
00000000
00000000
00000000
;
