#TITLE:Metal Gear Solid 2;
#SUBTITLE:(Mission R);
#ARTIST:L.E.D.;
#TITLETRANSLIT:;
#SUBTITLETRANSLIT:;
#ARTISTTRANSLIT:;
#GENRE:;
#CREDIT:;
#BANNER:mgs2missionr bn2.png;
#BACKGROUND:mgs2missionr bg.png;
#LYRICSPATH:;
#CDTITLE:;
#MUSIC:MGS2 mission R.mp3;
#OFFSET:-0.570000;
#SAMPLESTART:45.362000;
#SAMPLELENGTH:12.000000;
#SELECTABLE:YES;
#BPMS:0.000000=150.000000
;
#STOPS:
;
#BGCHANGES:;
#KEYSOUNDS:;
#ATTACKS:;

//---------------dance-single - ----------------
#NOTES:
     dance-single:
     :
     Easy:
     4:
     0.338623,0.393379,0.231993,0.211820,0.000000,235.000000,212.000000,23.000000,21.000000,0.000000,0.000000,0.338623,0.393379,0.231993,0.211820,0.000000,235.000000,212.000000,23.000000,21.000000,0.000000,0.000000:
0000
0000
0000
0000
,
0000
0000
0000
0000
,
0000
0000
0000
0000
,
0000
0000
0000
0000
,
1000
0100
0001
0100
,
1000
1000
0001
0001
,
1000
0010
0001
0010
,
1000
1000
0001
0001
,
0010
1001
0000
0100
,
0000
1000
0000
0001
,
1000
0110
0000
0001
,
0000
1000
0000
0010
,
0100
1001
0100
1001
,
1000
1000
0010
0100
,
0010
1001
0010
1001
,
0002
1000
2003
0001
,
3001
0110
1000
0110
,
0010
0010
1000
0001
,
1000
0110
0001
0110
,
0100
0001
0010
1000
,
1001
2000
0001
3001
,
0200
0010
0010
0310
,
2000
0100
0100
3100
,
0200
1000
1000
1300
,
0001
0000
0010
0000
0000
0100
0000
0000
,
0010
0000
0000
0001
0000
0000
1000
0000
,
0100
0000
0010
0000
0000
0100
0000
0000
,
1000
1000
0001
0001
,
1001
0000
0010
0000
0000
1000
0000
0000
,
0001
0000
0000
0100
0000
0000
0000
0001
,
1000
0100
1001
0010
,
1000
0100
0001
0010
,
1001
0010
0100
1000
,
0001
0000
0000
1000
0000
0000
0010
0000
,
0100
0000
0000
0100
0001
0000
1000
0000
,
0001
1000
0100
0010
,
1001
2010
3010
0100
,
1001
0012
0103
0010
,
1000
0010
0000
1000
0010
0000
0100
0000
,
0002
1003
0020
0130
,
0001
1000
0100
0100
,
0001
0001
0010
0010
,
0100
0100
0010
0010
,
0001
0010
1000
0100
,
1001
0100
1000
0010
,
0100
0002
0000
0003
0000
1000
0000
0020
,
0000
0030
0000
2000
0000
3000
0000
0000
,
0001
0010
0000
0001
0010
0000
0100
0000
,
1000
1000
0010
0100
,
0001
0001
0010
0100
,
1000
0001
0100
0000
0001
1000
0100
0000
,
0010
0010
0010
0010
,
1001
0000
0020
0000
0030
0200
0000
0300
,
1000
0010
0001
0100
,
1001
0000
0020
0000
0030
0200
0000
0300
,
0001
0010
1000
0100
,
1001
0000
0020
0000
0030
0200
0000
0300
,
1000
0001
1000
0010
,
1001
0000
0020
0000
0030
0200
0000
0300
,
0001
1000
0100
0000
0010
0001
1000
0000
,
0100
0000
0000
0000
;

//---------------dance-single - ----------------
#NOTES:
     dance-single:
     :
     Medium:
     6:
     0.440930,0.484159,0.342946,0.070607,0.000000,306.000000,272.000000,34.000000,7.000000,0.000000,0.000000,0.440930,0.484159,0.342946,0.070607,0.000000,306.000000,272.000000,34.000000,7.000000,0.000000,0.000000:
0000
0000
0000
0000
,
0000
0000
0000
0000
,
0000
0000
0000
0000
,
0000
0000
0000
0000
,
0010
1001
0100
1001
,
0010
0101
0010
1100
,
0001
1100
1000
0101
,
0001
0011
1000
1010
,
0100
0000
1001
0000
0100
0000
0010
0100
,
2000
0000
0010
0000
3100
0000
0001
0010
,
0100
0000
1001
0000
0100
0000
1000
0100
,
0020
0000
0032
0000
0100
0000
0013
0100
,
1000
0000
1001
0000
0010
0000
1000
0001
,
0010
0000
1001
0000
0100
1000
0001
0000
,
1001
0000
1000
0001
0010
0000
0100
0010
,
0001
0000
1000
0100
1000
0000
0001
0100
,
0001
0000
1001
0000
0100
0000
0010
0001
,
0100
0000
0010
1000
0001
0000
0100
0001
,
1000
1001
0001
0011
,
0001
0010
0001
0010
0100
1000
0100
1000
,
0001
0000
0020
0000
0000
0230
0000
0000
,
1000
1000
0301
0100
,
1000
0000
0020
0000
0000
0230
0000
0000
,
0301
1000
0100
0000
1000
0000
0001
0100
,
0001
0000
0010
0000
0000
0100
0000
0000
,
0010
0000
0000
0001
0000
0000
1000
0000
,
0010
0000
1001
0000
0000
0100
0000
0000
,
0010
0000
0010
1000
0001
0000
1001
0000
,
1000
0001
0010
0000
0100
0010
0000
0000
,
0001
0000
0000
1000
0000
0010
0100
0000
,
0001
1000
0000
0100
0010
0001
0000
1000
,
0010
0000
0100
0001
1000
0010
0000
0000
,
1001
0000
0100
1000
0001
0000
0100
0000
,
0010
0000
1000
0001
0000
0001
1000
0000
,
0110
0001
0110
1000
,
0001
0010
0100
0010
0001
1000
0010
0100
,
0001
1001
0100
1001
,
0100
0000
1000
0000
0001
0100
1000
0000
,
1000
0010
0000
0100
0001
0000
1000
0000
,
0001
1000
0100
0000
1000
0001
0100
0000
,
0010
0000
0000
1000
0000
0010
0000
0100
,
0000
0010
0000
1000
0000
0010
0000
0001
,
0000
0010
0000
1000
0000
0010
0000
0001
,
0000
0010
0000
1000
0000
0010
0000
0100
,
0010
0000
1000
0000
0001
0100
0010
0000
,
1001
0000
1001
0000
0100
0010
0000
1001
,
0000
0000
0000
1001
0000
0000
0100
0000
,
0001
1000
0000
0001
0010
0000
0100
0010
,
1001
0000
1000
0100
1000
0010
0100
0000
,
1001
0000
0001
0010
0001
0100
0010
0000
,
1000
0100
0010
0001
0100
0010
1000
0100
,
0001
1000
0100
0001
,
1001
0000
1000
0100
1000
0010
0100
0000
,
0001
0000
1000
0000
0000
0100
0010
0000
,
1001
0000
0001
0100
0001
0010
0100
0000
,
1000
0000
0001
0000
0000
0100
0010
0000
,
1001
0000
1000
0010
1000
0100
0010
0000
,
0001
0000
1000
0000
0000
0010
0100
0000
,
1001
0000
0001
0010
0001
0100
0010
0000
,
1000
0000
0001
0000
0000
0010
0100
0000
,
1001
0000
0000
0000
;

//---------------dance-single - ----------------
#NOTES:
     dance-single:
     :
     Hard:
     9:
     0.602317,0.877538,0.252166,0.191646,0.272339,418.000000,393.000000,25.000000,19.000000,0.000000,0.000000,0.602317,0.877538,0.252166,0.191646,0.272339,418.000000,393.000000,25.000000,19.000000,0.000000,0.000000:
// measure 0
0000
0000
0000
0000
,  // measure 1
0000
0000
0000
0000
,  // measure 2
0000
0000
0000
0000
,  // measure 3
0000
0000
0000
0000
,  // measure 4
1000
0100
0001
0000
0001
0010
1000
0000
,  // measure 5
0100
0010
0001
0100
0010
1000
0001
0000
,  // measure 6
0010
0100
1000
0000
1000
0010
0100
0000
,  // measure 7
0001
1000
0100
0010
0001
1000
1000
0010
,  // measure 8
0001
0000
0000
0010
0000
0000
1000
0000
0001
0000
0000
0010
0000
0000
0100
0000
,  // measure 9
1000
0000
0000
0010
0000
0000
0100
0000
0001
0000
0000
0010
0000
0000
0100
1000
,  // measure 10
0100
0000
0000
0010
0000
0000
0001
0000
1000
0000
0000
0010
0000
0000
0100
0000
,  // measure 11
0001
0000
0000
0001
0000
0000
0010
0000
0100
0000
0000
0000
1000
0100
1000
0100
,  // measure 12
1000
0000
1001
0000
1000
0110
0000
0001
,  // measure 13
0010
0000
0000
0100
0000
0000
0010
0000
0001
0000
0000
1000
0000
0000
0010
1000
,  // measure 14
0010
0000
1010
0000
0010
1100
0000
0001
,  // measure 15
0010
0000
0100
0000
1000
0000
0010
0000
0100
0000
1000
0000
0100
0001
0100
0001
,  // measure 16
0100
0000
1010
0000
1000
0101
0000
0010
,  // measure 17
0100
0000
1000
0000
0100
0000
0010
0000
0001
0000
0000
0000
1000
0001
1000
0001
,  // measure 18
1000
0000
0000
1100
0000
0000
0001
0000
0101
0000
0000
0110
0000
0000
1000
0000
,  // measure 19
0001
0000
0010
0000
0100
0000
1000
0000
0001
1000
0001
1000
0010
0100
0010
0100
,  // measure 20
0002
0000
1003
0000
0100
0020
0001
0000
,  // measure 21
1030
0000
0000
0000
0100
0000
0010
0000
0001
0000
0000
0000
1000
0000
0010
0100
,  // measure 22
0020
0000
0031
0000
0100
2000
0001
0000
,  // measure 23
3010
0000
0000
0000
0001
0000
0010
0000
0100
0000
0000
0000
1000
0000
0001
0100
,  // measure 24
0002
0000
2003
0000
3010
0200
0000
0301
,  // measure 25
0020
0000
0130
2000
0000
3001
0020
0000
,  // measure 26
0130
0000
2000
0000
3010
0200
0000
0300
,  // measure 27
0001
0000
0000
1000
0100
0000
0010
0100
0000
0000
1000
0000
0010
0100
0010
0000
,  // measure 28
1000
0001
0010
0100
1000
0010
0100
0001
,  // measure 29
0110
0000
1000
0110
0000
0001
1000
1000
,  // measure 30
0001
1000
0000
0001
0100
0010
0000
0100
,  // measure 31
0001
1000
0100
1000
0001
0010
0000
0000
,  // measure 32
0001
1000
0010
0100
0001
0010
0100
1000
,  // measure 33
1001
0000
1000
1100
0000
0001
0011
0000
,  // measure 34
1001
0000
1100
0001
0100
0010
0000
1000
,  // measure 35
0001
0010
0001
0100
0010
1000
0001
0010
,  // measure 36
1001
0000
0000
1000
0000
0000
0100
0000
1000
0000
0000
0001
0000
0000
0010
0000
,  // measure 37
0001
0000
0000
0001
0000
0000
0100
0000
0001
0000
0000
1000
0000
0000
0010
0000
,  // measure 38
0100
1001
0000
0010
1001
0000
0100
0010
,  // measure 39
0001
1000
0100
1000
0001
0010
0001
1000
,  // measure 40
0010
0000
0000
1000
0100
0010
0001
0100
,  // measure 41
0010
1000
0100
0010
0001
0100
0010
1000
,  // measure 42
0100
0010
0001
0100
0010
1000
0100
0010
,  // measure 43
0001
0100
0010
0100
0001
1000
0001
0100
,  // measure 44
1001
0000
1000
0000
0001
0100
0010
0100
,  // measure 45
0001
2000
0000
0001
0000
3010
0000
1001
,  // measure 46
0000
0000
0100
0110
0000
0000
1001
0000
,  // measure 47
0001
0011
0000
0001
0011
0000
0100
1000
,  // measure 48
0001
0000
1000
0000
0100
1000
0100
0000
0010
0000
0001
0000
0100
0001
0100
0000
,  // measure 49
0010
1000
0001
0000
0010
0001
0010
0000
0001
1000
0100
0000
1000
0010
1000
0000
,  // measure 50
0001
1000
0001
1000
0001
0100
0001
0100
0001
1000
0100
1000
0001
0100
0010
1000
,  // measure 51
0001
0000
0000
0010
0100
0000
1000
0001
0000
0000
1000
0000
0001
0100
0001
0000
,  // measure 52
1000
0100
0020
0000
0031
0100
0000
0010
,  // measure 53
1000
0000
0001
0000
1000
0000
0000
0000
0010
0000
0100
0000
0001
0000
1000
0001
,  // measure 54
1000
0010
0200
0001
0300
1000
0000
0100
,  // measure 55
0010
0000
0100
0000
1000
0000
0000
0000
0010
0000
0100
0000
0001
0100
0001
0100
,  // measure 56
0001
0000
0020
0000
0130
2000
0000
3010
,  // measure 57
0100
0000
0001
0000
0100
0000
0000
0000
0010
0000
1000
0000
0001
0000
1000
0100
,  // measure 58
1000
0000
0020
0100
0030
0002
0000
0013
,  // measure 59
0100
0000
1000
0000
0001
0000
0010
0000
0001
0000
1000
0000
0010
0000
0100
0001
,  // measure 60
0100
0000
0000
0000
;
