#TITLE:MaxX Xstacy;
#SUBTITLE:;
#ARTIST:Dave Phaneuf;
#TITLETRANSLIT:;
#SUBTITLETRANSLIT:;
#ARTISTTRANSLIT:;
#GENRE:;
#CREDIT:;
#BANNER:MaxX Xstacy Bn.png;
#BACKGROUND:MaxX Xstacy bg.png;
#LYRICSPATH:;
#CDTITLE:;
#MUSIC:MaxX Xstacy.mp3;
#OFFSET:-3.250000;
#SAMPLESTART:53.799999;
#SAMPLELENGTH:12.000000;
#SELECTABLE:YES;
#BPMS:0.000000=300.000000
,240.000000=249.999985
,240.500000=190.000000
,241.000000=165.000000
,241.500000=140.000000
,242.000000=100.000000
,242.500000=60.000000
,243.000000=300.000000
,244.000000=315.000000
;
#STOPS:243.000000=0.975000
;
#BGCHANGES:;
#KEYSOUNDS:;
#ATTACKS:;

//---------------dance-single - ----------------
#NOTES:
     dance-single:
     :
     Easy:
     6:
     0.527905,0.604219,0.280087,0.415613,0.000000,409.000000,378.000000,31.000000,46.000000,0.000000,0.000000,0.527905,0.604219,0.280087,0.415613,0.000000,409.000000,378.000000,31.000000,46.000000,0.000000,0.000000:
// measure 0
0000
0000
0000
0000
,  // measure 1
0000
0000
0000
0000
,  // measure 2
0000
0000
0000
0000
,  // measure 3
0000
0000
0000
0000
,  // measure 4
2000
3000
0200
0300
,  // measure 5
0010
0001
0010
0000
,  // measure 6
0002
0003
0020
0030
,  // measure 7
0100
1000
0100
0000
,  // measure 8
0020
0030
0200
0300
,  // measure 9
1000
0001
1000
0000
,  // measure 10
0020
0030
0200
0300
,  // measure 11
0001
1000
0001
0000
,  // measure 12
1000
0100
1000
0000
,  // measure 13
0010
0000
0100
0000
,  // measure 14
0001
0010
0001
0000
,  // measure 15
0010
0000
0100
0000
,  // measure 16
1000
0100
1000
0000
,  // measure 17
0010
0000
0100
0001
,  // measure 18
0010
0000
0100
1000
,  // measure 19
0001
1000
0001
0010
,  // measure 20
0200
0300
1000
0000
,  // measure 21
0002
0003
0010
0000
,  // measure 22
0100
1000
0200
0300
,  // measure 23
1000
0001
0100
0010
,  // measure 24
2000
3000
0001
0000
,  // measure 25
0020
0030
0001
0000
,  // measure 26
0010
0100
2000
3000
,  // measure 27
0010
0100
0001
0100
,  // measure 28
0001
0010
0200
0300
,  // measure 29
2000
3000
0001
0000
,  // measure 30
1000
0100
0020
0030
,  // measure 31
0100
1000
0100
0010
,  // measure 32
0200
0300
1000
0000
,  // measure 33
0001
0100
2000
3000
,  // measure 34
0100
0001
0020
0030
,  // measure 35
0100
1000
0010
0100
,  // measure 36
0101
0000
0010
0000
,  // measure 37
1100
0000
0010
0000
,  // measure 38
1000
0010
0200
0300
,  // measure 39
0001
0100
0001
0010
,  // measure 40
0100
0000
1010
0000
,  // measure 41
0100
0000
0011
0000
,  // measure 42
1000
0001
0020
0030
,  // measure 43
0001
1000
0100
1000
,  // measure 44
1100
0000
0011
0000
,  // measure 45
0101
0000
1010
0000
,  // measure 46
1000
0100
0001
0000
,  // measure 47
0001
0100
1000
0010
,  // measure 48
0001
0000
1001
0000
,  // measure 49
0100
0000
0110
0000
,  // measure 50
0001
1000
0020
0030
,  // measure 51
0001
0010
1000
0100
,  // measure 52
1001
0000
0100
0000
,  // measure 53
1000
0100
2000
3000
,  // measure 54
1001
0000
0010
0000
,  // measure 55
0001
0010
0002
1003
,  // measure 56
1001
0000
0010
0000
,  // measure 57
0010
0100
2000
3000
,  // measure 58
0001
0100
0001
0100
,  // measure 59
0010
1000
0010
1000
,  // measure 60
2002
0000
0000
3003
,  // measure 61
1000
0000
1100
0000
,  // measure 62
0001
0000
0101
0000
,  // measure 63
0001
0010
0200
0300
,  // measure 64
1000
0010
0200
0301
,  // measure 65
1000
0000
1010
0000
,  // measure 66
0001
0000
0011
0000
,  // measure 67
0001
0100
0020
0030
,  // measure 68
1000
0001
0200
0300
,  // measure 69
0001
0100
0001
0100
,  // measure 70
0001
0100
0001
0000
,  // measure 71
1000
0100
1000
0100
,  // measure 72
1000
0100
1000
0000
,  // measure 73
0100
1000
0001
0100
,  // measure 74
0001
1000
0100
0000
,  // measure 75
1000
0010
0100
0010
,  // measure 76
1000
0001
0010
0100
,  // measure 77
1000
0000
1000
0000
,  // measure 78
0001
0000
0001
0000
,  // measure 79
0010
0100
1000
0000
,  // measure 80
1000
0100
1000
0010
,  // measure 81
0100
0000
0100
0000
,  // measure 82
0010
0000
0010
0000
,  // measure 83
1000
0001
0010
0000
,  // measure 84
0100
1000
0010
1000
,  // measure 85
0200
0300
0010
0000
,  // measure 86
0200
0300
1000
0000
,  // measure 87
0001
1000
0200
0300
,  // measure 88
1000
0100
1000
0010
,  // measure 89
0100
0001
0020
0030
,  // measure 90
0100
1000
0020
0030
,  // measure 91
0100
0001
1000
0100
,  // measure 92
1000
0010
0100
0001
,  // measure 93
1000
0000
0000
0001
0000
0000
0010
0000
,  // measure 94
0100
1000
0200
0300
,  // measure 95
0010
0001
0020
0030
,  // measure 96
0100
1000
0100
0010
,  // measure 97
0010
0000
0000
0100
0000
0000
0010
0000
,  // measure 98
0001
1000
0001
0010
,  // measure 99
0010
0000
0000
0100
0000
0000
1000
0000
,  // measure 100
0010
0100
0100
0010
,  // measure 101
2000
0000
0000
3100
0000
0000
0010
0000
,  // measure 102
0001
1000
0002
0003
,  // measure 103
0010
0100
2000
3000
,  // measure 104
0010
0100
0001
0010
,  // measure 105
0020
0000
0000
0130
0000
0000
1000
0000
,  // measure 106
0001
1001
0000
1001
,  // measure 107
0020
0000
0000
0130
0000
0000
1000
0000
,  // measure 108
0001
1000
0100
1000
,  // measure 109
1001
0000
0000
0010
,  // measure 110
0100
0000
0000
1000
,  // measure 111
0001
0000
0110
0000
,  // measure 112
0011
0000
0000
1100
0000
0000
0000
0000
,  // measure 113
1001
0000
0100
0000
,  // measure 114
1001
0000
0010
0000
,  // measure 115
0001
0010
0100
0010
,  // measure 116
0001
0000
0000
0010
0000
0000
0100
0000
,  // measure 117
1000
0000
0000
0100
0000
0000
1000
0000
,  // measure 118
0001
0000
0000
0100
0000
0000
0001
0000
,  // measure 119
1000
0000
0000
0100
0000
0000
1000
0000
,  // measure 120
0001
0000
0000
0110
0000
0000
0000
0000
,  // measure 121
1000
0000
0000
0100
0000
0000
0010
0000
,  // measure 122
0011
0000
0000
0001
0000
0000
1000
0000
,  // measure 123
1010
0000
0000
0100
0000
0000
0010
0000
,  // measure 124
0011
0000
0000
0100
0000
0000
1000
0000
,  // measure 125
0001
0100
1000
0000
,  // measure 126
1000
0100
0001
0000
,  // measure 127
0010
0100
1000
0000
,  // measure 128
0010
0100
0001
0000
,  // measure 129
1000
0100
1000
0010
,  // measure 130
0100
0001
0010
0001
,  // measure 131
1000
0100
0010
0100
,  // measure 132
1000
0000
0000
0010
0000
0000
0100
0000
,  // measure 133
2002
0000
0000
3003
;

//---------------dance-single - ----------------
#NOTES:
     dance-single:
     :
     Medium:
     8:
     0.662140,0.845907,0.533068,0.415613,0.000000,513.000000,454.000000,59.000000,46.000000,0.000000,0.000000,0.662140,0.845907,0.533068,0.415613,0.000000,513.000000,454.000000,59.000000,46.000000,0.000000,0.000000:
// measure 0
0000
0000
0000
0000
,  // measure 1
0000
0000
0000
0000
,  // measure 2
0000
0000
0000
0000
,  // measure 3
0000
0000
0000
0000
,  // measure 4
0020
0000
0000
0230
0000
0000
1300
0000
,  // measure 5
0010
0100
0001
0100
,  // measure 6
0002
0000
0000
0023
0000
0000
0130
0000
,  // measure 7
1000
0001
0010
0001
,  // measure 8
0020
0000
0000
0230
0000
0000
1300
0000
,  // measure 9
0010
0100
0010
1000
,  // measure 10
2000
0000
0000
3002
0000
0000
0013
0000
,  // measure 11
0100
1000
0000
1000
,  // measure 12
1010
0000
0000
0101
0000
0000
0001
0000
,  // measure 13
0010
0100
0010
0001
,  // measure 14
1001
0000
0000
1010
0000
0000
0100
0000
,  // measure 15
0001
0100
0010
1000
,  // measure 16
1100
0000
0000
0110
0000
0000
0010
0000
,  // measure 17
0100
0101
0000
0001
,  // measure 18
0101
0000
0000
1010
0000
0000
1000
0000
,  // measure 19
0001
0100
0010
1000
0001
0100
0010
1000
,  // measure 20
0001
1000
0200
0000
,  // measure 21
1300
0001
0200
0000
,  // measure 22
0301
0010
0100
1000
,  // measure 23
0001
1000
0100
0010
,  // measure 24
0001
1000
0020
0000
,  // measure 25
1030
0001
0002
0000
,  // measure 26
0013
0001
1000
0100
,  // measure 27
2200
3300
0022
0033
,  // measure 28
1000
0010
2000
3000
,  // measure 29
0001
0010
0002
0003
,  // measure 30
1000
0100
0010
0001
,  // measure 31
1000
0100
0010
0001
,  // measure 32
1000
0010
0200
0300
,  // measure 33
0001
0010
0200
0300
,  // measure 34
1000
0100
0001
0100
,  // measure 35
1000
0001
0010
0100
,  // measure 36
1000
0000
0001
0000
0000
0010
0000
0000
,  // measure 37
0001
0000
1000
0000
0000
0100
0000
0000
,  // measure 38
0001
0100
1000
0010
,  // measure 39
1000
0100
1000
0010
,  // measure 40
0100
0000
0002
0000
0000
1003
0000
0000
,  // measure 41
0100
0000
2000
0000
0000
3001
0000
0000
,  // measure 42
0100
0000
0020
0000
0000
1030
0000
0000
,  // measure 43
0100
1000
0010
1000
,  // measure 44
1010
0000
0000
0101
0000
0000
1000
0000
,  // measure 45
0100
0001
0100
1000
,  // measure 46
1010
0000
0000
0101
0000
0000
1000
0000
,  // measure 47
0001
0010
0001
0010
,  // measure 48
0011
0000
0000
1100
0000
0000
0001
0000
,  // measure 49
0010
0011
0000
1001
,  // measure 50
0011
0000
0000
1100
0000
0000
1000
0000
,  // measure 51
0001
0100
0010
1000
0001
0100
0010
1000
,  // measure 52
0001
0000
1000
0000
0000
0100
0000
0000
,  // measure 53
1000
0000
0000
0010
0000
0000
0100
0000
,  // measure 54
0001
0000
0010
0000
0000
0100
0000
0000
,  // measure 55
1000
0000
0000
0100
0000
0000
0010
0000
,  // measure 56
0011
0000
0000
1100
0000
0000
0000
0000
,  // measure 57
0100
0000
0000
1000
0000
0000
0010
0000
,  // measure 58
1000
0010
1000
0010
,  // measure 59
0100
0001
0100
0001
,  // measure 60
2002
0000
0000
3003
,  // measure 61
1000
0000
0000
0001
0000
0000
1000
0000
,  // measure 62
0001
1000
0100
1000
,  // measure 63
0001
0100
0010
1000
,  // measure 64
0001
0010
0001
1001
,  // measure 65
0010
0000
0000
1000
0000
0000
0100
0000
,  // measure 66
0010
0001
0010
0001
,  // measure 67
0001
0000
0000
1000
0000
0000
0100
0000
,  // measure 68
1000
0010
0100
0001
,  // measure 69
1000
0100
1000
0100
,  // measure 70
1000
0001
1000
0001
,  // measure 71
0010
0001
0010
0001
,  // measure 72
0100
0010
0100
0010
,  // measure 73
1000
0100
1000
0100
,  // measure 74
1000
0001
1000
0100
,  // measure 75
1000
0010
1000
0010
,  // measure 76
0100
0001
0100
0001
,  // measure 77
1000
0000
0010
0000
0000
0100
0000
0000
,  // measure 78
0001
0000
0010
0000
0000
0100
0000
0000
,  // measure 79
1000
0000
0001
0000
0000
0010
0000
0000
,  // measure 80
0001
1000
0001
0010
,  // measure 81
0100
0000
1000
0000
0000
0001
0000
0000
,  // measure 82
1000
0000
0100
0000
0000
0010
0000
0000
,  // measure 83
0001
0000
0100
0000
0000
0001
0000
0000
,  // measure 84
1000
0100
0010
0100
,  // measure 85
1000
0000
0001
0000
0000
0002
0000
0003
,  // measure 86
0010
0000
0100
0000
0000
0200
0000
0300
,  // measure 87
1000
0000
0010
0000
0000
0020
0000
0030
,  // measure 88
0100
0001
1000
0010
,  // measure 89
1000
0000
0001
0000
0000
0020
0000
0030
,  // measure 90
0001
0000
1000
0000
0000
0020
0000
0030
,  // measure 91
1000
0000
0100
0000
0000
0020
0000
0030
,  // measure 92
0100
1000
0010
1000
,  // measure 93
1010
0000
0000
0101
0000
0000
0001
0000
,  // measure 94
0010
0100
1000
0100
,  // measure 95
0001
0100
1000
0010
,  // measure 96
0100
0010
1000
1010
,  // measure 97
1100
0000
0000
0011
0000
0000
0001
0000
,  // measure 98
1000
0010
0100
0110
,  // measure 99
1010
0000
0000
1001
0000
0000
1000
0000
,  // measure 100
0100
0001
0010
1000
,  // measure 101
1010
0000
0000
0101
0000
0000
1000
0000
,  // measure 102
0100
0010
0100
1000
,  // measure 103
0001
0010
0100
0010
,  // measure 104
0001
1000
0100
1100
,  // measure 105
1001
0000
0000
0101
0000
0000
1000
0000
,  // measure 106
0001
0000
0011
0000
0000
0000
0001
1000
,  // measure 107
0001
0000
0000
0110
0000
0000
1000
0000
,  // measure 108
0001
0010
0001
1000
,  // measure 109
0001
0001
0010
0002
,  // measure 110
1003
1000
0100
2000
,  // measure 111
3001
0001
0010
0200
,  // measure 112
1300
0000
0000
2002
0000
3003
0000
0000
,  // measure 113
1000
0100
1000
0020
,  // measure 114
0130
0001
0100
0020
,  // measure 115
1030
0001
0100
0020
,  // measure 116
1030
0000
0000
0100
0000
0000
1000
0000
,  // measure 117
1001
0000
0000
0101
0000
0000
0001
0000
,  // measure 118
1001
0000
0000
1100
0000
0000
1000
0000
,  // measure 119
1001
0000
0000
0110
0000
0000
0001
0000
,  // measure 120
1001
0000
0000
0220
0000
0330
0000
0000
,  // measure 121
1010
0000
0000
0101
0000
0000
0011
0000
,  // measure 122
1001
0000
0000
1100
0000
0000
0101
0000
,  // measure 123
1001
0000
0000
0110
0000
0000
0001
1000
,  // measure 124
0001
0000
0000
0010
0000
0000
0100
0000
,  // measure 125
2000
3100
0010
0001
,  // measure 126
1000
0100
1000
0001
,  // measure 127
0200
0301
0010
0100
,  // measure 128
1000
0100
0010
0100
,  // measure 129
2000
3001
0100
0010
,  // measure 130
0100
0001
0010
0100
,  // measure 131
1000
0010
0100
0000
0001
0010
0100
0000
,  // measure 132
1000
0000
0000
0100
0000
0000
0110
0000
,  // measure 133
2002
0000
0000
3003
;

//---------------dance-single - ----------------
#NOTES:
     dance-single:
     :
     Hard:
     10:
     0.777015,1.027173,0.325262,0.460788,0.000000,602.000000,566.000000,36.000000,51.000000,0.000000,0.000000,0.777015,1.027173,0.325262,0.460788,0.000000,602.000000,566.000000,36.000000,51.000000,0.000000,0.000000:
// measure 0
0000
0000
0000
0000
,  // measure 1
0000
0000
0000
0000
,  // measure 2
0000
0000
0000
0000
,  // measure 3
0000
0000
0000
0000
,  // measure 4
2000
0000
0000
3200
0000
0000
0310
0000
,  // measure 5
0100
1000
0010
0100
,  // measure 6
0002
0000
0000
0023
0000
0000
0130
0000
,  // measure 7
0010
0001
0100
0010
,  // measure 8
2000
0000
0000
3002
0000
0000
0013
0000
,  // measure 9
0100
1000
0010
1010
,  // measure 10
2000
0000
0000
3200
0000
0000
0310
0000
,  // measure 11
0001
0011
0000
1100
,  // measure 12
0001
0010
0001
0100
,  // measure 13
0010
0000
1000
0000
0001
0000
0010
0001
,  // measure 14
0010
0100
1000
0010
,  // measure 15
1000
0000
0010
0000
1000
0100
1000
0000
,  // measure 16
0001
0100
0010
0100
,  // measure 17
0001
1000
0100
1000
,  // measure 18
1010
0000
0000
0011
0000
0000
1000
0000
,  // measure 19
0001
0100
0010
1000
0001
0100
0010
1000
,  // measure 20
0001
0010
0001
1000
,  // measure 21
0010
0100
0001
1000
,  // measure 22
0001
0000
0010
0000
0000
0100
0000
0100
,  // measure 23
1000
0100
1000
0010
,  // measure 24
0100
0001
1000
0010
,  // measure 25
0100
0001
0010
0100
,  // measure 26
1000
0000
0001
0000
0000
0010
0000
0010
,  // measure 27
0100
1000
0010
0100
,  // measure 28
0001
1000
0100
0010
,  // measure 29
0100
1000
0010
0100
,  // measure 30
0001
0000
0010
0000
0000
0100
0000
0010
,  // measure 31
0001
1000
0001
0010
,  // measure 32
0100
1000
0010
1000
,  // measure 33
0100
0010
0001
0010
,  // measure 34
0100
0000
0100
0000
0000
0010
0000
0001
,  // measure 35
1000
0100
0010
0100
,  // measure 36
1000
0000
0002
0000
0000
0013
0000
0100
,  // measure 37
1000
0000
0002
0000
0000
0013
0000
0100
,  // measure 38
1000
0000
0200
0000
0000
0310
0000
0001
,  // measure 39
1000
0100
1000
0010
,  // measure 40
1000
0000
0020
0000
0000
0130
0000
0001
,  // measure 41
0010
0000
0200
0000
0000
1300
0000
0001
,  // measure 42
0010
0000
0002
0000
0000
0013
0000
0100
,  // measure 43
1000
0001
0010
0100
,  // measure 44
2000
0000
0000
3020
0000
0130
0000
0001
,  // measure 45
1000
0000
0200
0000
0000
0310
0001
1000
,  // measure 46
0020
0000
0000
0230
0000
0301
0000
1000
,  // measure 47
0100
1000
0010
1010
,  // measure 48
1000
0100
1000
0200
0000
0310
0001
0010
,  // measure 49
0001
1001
0000
0110
,  // measure 50
0001
0010
0001
0010
0100
1000
0100
1000
,  // measure 51
0001
0100
0010
1000
0001
0010
0100
1000
,  // measure 52
0002
1003
0100
0010
,  // measure 53
1001
0000
0000
1100
0000
0000
0101
0000
,  // measure 54
2000
3001
0010
0100
,  // measure 55
1001
0000
0000
0101
0000
0000
1100
0000
,  // measure 56
0001
0000
0010
0100
0000
1000
0010
0000
,  // measure 57
0100
0001
0000
0100
0010
0000
1000
0000
,  // measure 58
0001
0010
0001
0000
1000
0100
1000
0000
,  // measure 59
0001
0010
0100
1000
0001
0100
0010
1000
,  // measure 60
2002
0000
0000
3003
,  // measure 61
1000
0100
0010
0001
,  // measure 62
1000
0001
0010
0100
,  // measure 63
1000
0010
0100
0001
,  // measure 64
0010
0001
0000
0010
0000
0100
0000
1000
,  // measure 65
0010
0000
0100
0000
0001
0100
0001
0000
,  // measure 66
1000
0010
1000
0100
,  // measure 67
0010
0000
0001
0000
0010
0001
0010
0000
,  // measure 68
0100
1000
0100
0010
,  // measure 69
0001
1000
0001
1000
0001
0000
0010
0001
,  // measure 70
0010
0000
0100
0010
0100
0010
0000
0001
,  // measure 71
1000
0001
0000
0010
0100
0000
1000
0100
,  // measure 72
1000
0100
0000
0010
0001
0010
0001
0000
,  // measure 73
1000
0100
1000
0010
0000
0100
0001
0100
,  // measure 74
0001
1000
0000
0100
0000
0010
0001
1000
,  // measure 75
0001
0000
0010
0100
0000
1000
0001
1000
,  // measure 76
0100
0010
0001
1000
0010
0100
0001
1000
,  // measure 77
0001
0000
2000
0000
0000
3100
0000
0100
,  // measure 78
1000
0000
0002
0000
0000
0013
0000
0010
,  // measure 79
0001
0000
2000
0000
0000
3010
0000
0100
,  // measure 80
0001
0100
0001
0010
,  // measure 81
0100
0000
2000
0000
0000
3100
0000
0100
,  // measure 82
0010
0000
0002
0000
0000
0103
0000
0100
,  // measure 83
0010
0000
2000
0000
0000
3100
0000
0010
,  // measure 84
0001
0100
0010
0100
,  // measure 85
0001
0000
1000
0000
0000
1000
0000
0100
,  // measure 86
1000
0000
0001
0000
0000
0001
0000
0010
,  // measure 87
0001
0000
1000
0000
0000
0001
0000
0100
,  // measure 88
0010
0100
0010
1000
,  // measure 89
0001
0000
0011
0000
0000
0010
0000
0100
,  // measure 90
1000
0000
1100
0000
0000
0100
0000
0010
,  // measure 91
0001
0000
0011
0000
0000
0010
0000
0100
,  // measure 92
0010
0001
1000
0100
,  // measure 93
0020
0000
0000
0230
0000
0000
1300
0000
,  // measure 94
0001
0010
0001
1000
,  // measure 95
0001
0010
0001
0000
1000
0100
1000
0000
,  // measure 96
0001
0010
0001
0000
1000
0100
1000
0000
,  // measure 97
2000
0000
0000
3002
0000
0000
0013
0000
,  // measure 98
0100
0010
0001
1000
,  // measure 99
0020
0000
0000
0230
0000
0000
0301
0000
,  // measure 100
0010
0100
1000
0000
0001
0100
0010
0000
,  // measure 101
2000
0000
0000
3200
0000
0000
0310
0000
,  // measure 102
0001
1000
0010
0100
,  // measure 103
0001
0100
0001
0000
1000
0010
1000
0000
,  // measure 104
0001
0100
0001
0000
1000
0010
1000
0000
,  // measure 105
2000
0000
0000
3200
0000
0000
0310
0000
,  // measure 106
0001
0110
0000
1001
,  // measure 107
0020
0000
0000
0230
0000
0000
1300
0000
,  // measure 108
0001
0010
0001
1000
0100
1000
0001
0100
,  // measure 109
0010
0000
0000
1010
0000
0000
0001
0000
,  // measure 110
0010
0000
0000
1100
0000
0000
1000
0000
,  // measure 111
0010
0000
0000
0101
0000
0000
0001
0000
,  // measure 112
1001
0000
0000
0022
0000
0000
0033
0000
,  // measure 113
1000
0000
0010
0100
0000
0000
1001
0000
,  // measure 114
0001
0000
0010
0100
0000
0000
1001
0000
,  // measure 115
1000
0000
0010
0100
0000
0000
1001
0000
,  // measure 116
1001
0000
0000
0011
0000
0000
0110
0000
,  // measure 117
0010
0000
0001
1000
0000
0010
1000
0000
,  // measure 118
0001
0000
0010
0001
0000
1000
0001
0000
,  // measure 119
0010
0000
0100
1000
0000
0001
1000
0000
,  // measure 120
1001
0000
0000
0022
0000
0000
0033
0000
,  // measure 121
1000
0000
0010
0100
0000
0010
1000
0000
,  // measure 122
0001
0000
0010
0100
0000
0010
0001
0000
,  // measure 123
1000
0000
0100
0010
0000
0010
0001
1000
,  // measure 124
0020
0000
0000
2030
0000
0000
3200
0000
,  // measure 125
0310
0001
1000
0001
,  // measure 126
0010
0100
1000
0001
,  // measure 127
1000
0100
0010
0100
,  // measure 128
1000
0010
0100
0001
,  // measure 129
1000
0010
1000
0000
0001
0100
0001
0000
,  // measure 130
1000
0100
1000
0000
0001
0010
0001
0000
,  // measure 131
1000
0010
0100
0001
1000
0010
0100
0001
,  // measure 132
0010
0000
0000
0110
0000
0000
1100
0000
,  // measure 133
2002
0000
0000
3003
;
