#TITLE:MaxX Extermintion;
#SUBTITLE:;
#ARTIST:Z (Mixed By DJ Slash);
#TITLETRANSLIT:;
#SUBTITLETRANSLIT:;
#ARTISTTRANSLIT:;
#GENRE:;
#CREDIT:;
#BANNER:Maxex bn.png;
#BACKGROUND:Maxex bg.png;
#LYRICSPATH:;
#CDTITLE:;
#MUSIC:Maxex.mp3;
#OFFSET:-0.100000;
#SAMPLESTART:28.654999;
#SAMPLELENGTH:12.000000;
#SELECTABLE:YES;
#BPMS:0.000000=344.299988
,164.000000=321.500000
,196.000000=344.299988
,228.000000=172.149994
,244.000000=344.299988
,276.000000=160.750000
,284.000000=120.000000
,284.500000=110.000000
,285.000000=100.000000
,286.000000=200.000000
,287.000000=367.000000
;
#STOPS:286.000000=1.580000
;
#BGCHANGES:;
#KEYSOUNDS:;
#ATTACKS:;

//---------------dance-single - ----------------
#NOTES:
     dance-single:
     :
     Easy:
     7:
     0.536575,0.779516,0.616661,0.044848,0.067272,335.000000,280.000000,55.000000,4.000000,0.000000,0.000000,0.536575,0.779516,0.616661,0.044848,0.067272,335.000000,280.000000,55.000000,4.000000,0.000000,0.000000:
// measure 0
0000
0000
0000
0000
,  // measure 1
0000
0000
0000
0000
,  // measure 2
0000
0000
0000
0000
,  // measure 3
0000
0000
0000
0000
,  // measure 4
0000
0000
0000
0000
,  // measure 5
0000
0000
0000
0000
,  // measure 6
0000
0000
0000
0000
,  // measure 7
0000
0000
0000
0000
,  // measure 8
0000
0000
0000
0000
,  // measure 9
0010
0000
1001
0000
,  // measure 10
0100
0000
1001
0000
,  // measure 11
1000
0000
0110
0000
,  // measure 12
0001
0000
0110
0000
,  // measure 13
1000
0000
0101
0000
,  // measure 14
0001
0000
1100
0000
,  // measure 15
1001
0000
0110
0000
,  // measure 16
0001
0001
1000
1000
,  // measure 17
0010
0000
1001
0000
,  // measure 18
0100
0000
1001
0000
,  // measure 19
0010
0000
0110
0000
,  // measure 20
1001
0000
0000
0000
,  // measure 21
1000
0000
0101
0000
,  // measure 22
0001
0000
1100
0000
,  // measure 23
1000
0000
0101
0000
,  // measure 24
1001
0000
0000
0000
,  // measure 25
0010
0000
1010
0000
,  // measure 26
0010
0000
1010
0000
,  // measure 27
0100
0000
0101
0000
,  // measure 28
0001
0100
0001
0010
,  // measure 29
0100
0000
0011
0000
,  // measure 30
0100
0000
0011
0000
,  // measure 31
0010
0000
1100
0000
,  // measure 32
0100
1000
0010
1000
,  // measure 33
0100
0000
1001
0000
,  // measure 34
0100
0000
1001
0000
,  // measure 35
0100
0000
1001
0000
,  // measure 36
0010
1000
0010
0001
,  // measure 37
0010
0000
1001
0000
,  // measure 38
0010
0000
1001
0000
,  // measure 39
0010
0000
1001
0000
,  // measure 40
0100
0001
0010
0001
,  // measure 41
0100
0000
0000
0010
0000
0000
0100
0000
,  // measure 42
0000
0010
0000
0000
0100
0000
0010
0000
,  // measure 43
0001
0000
0000
1000
0000
0000
0001
0000
,  // measure 44
0000
1000
0000
0000
0001
0000
1000
0000
,  // measure 45
0010
0000
0000
0100
0000
0000
0010
0000
,  // measure 46
0000
0100
0000
0000
0010
0000
0100
0000
,  // measure 47
1000
0000
0000
0001
0000
0000
1000
0000
,  // measure 48
0000
0001
0000
0000
1000
0000
0001
0000
,  // measure 49
0010
0000
1001
0000
,  // measure 50
0100
0000
1001
0000
,  // measure 51
1000
1000
1000
0000
,  // measure 52
0001
0001
0001
0000
,  // measure 53
0100
0000
1001
0000
,  // measure 54
0010
0000
1001
0000
,  // measure 55
0001
0001
0001
0000
,  // measure 56
1000
1000
1000
0000
,  // measure 57
0000
0000
0010
0000
0000
0010
0000
0000
0010
0000
0000
0010
0000
0000
0010
0000
,  // measure 58
0000
0000
0001
0000
0000
0001
0000
0000
0001
0000
0000
0001
0000
0000
0001
0000
,  // measure 59
0000
0000
1000
0000
0000
1000
0000
0000
1000
0000
0000
1000
0000
0000
1000
0000
,  // measure 60
0000
0000
0100
0000
0000
0100
0000
0000
0100
0000
0000
0100
0000
0000
0100
0000
,  // measure 61
0100
1000
0010
0000
,  // measure 62
0010
1000
0100
0000
,  // measure 63
0100
1000
0010
0000
,  // measure 64
0010
1000
0100
0000
,  // measure 65
0010
0001
0100
0000
,  // measure 66
0100
0001
0010
0000
,  // measure 67
0010
0001
0100
0000
,  // measure 68
0100
0001
0010
0000
,  // measure 69
0000
0000
1000
0000
0000
0001
0000
0000
1000
0000
0000
0001
0000
0000
1000
0000
,  // measure 70
0000
0000
0010
0000
0000
0100
0000
0000
0010
0000
0000
0100
0000
0000
0010
0000
,  // measure 71
2002
0000
3003
0100
,  // measure 72
0000
1100
0000
0100
,  // measure 73
0000
1100
0000
0010
,  // measure 74
0000
0011
0000
0010
,  // measure 75
0000
0011
0000
0001
,  // measure 76
0000
0101
0000
0001
,  // measure 77
0000
0101
0000
1000
,  // measure 78
0000
1010
0000
1000
,  // measure 79
0000
1010
0000
0010
,  // measure 80
0000
0110
0000
0100
,  // measure 81
0000
0110
0000
0100
,  // measure 82
0000
1001
0000
1000
,  // measure 83
0000
1001
0000
0001
,  // measure 84
0000
0010
0000
1001
,  // measure 85
0000
0100
0000
1001
,  // measure 86
0000
0010
1000
0100
,  // measure 87
0001
0100
1000
0001
,  // measure 88
0000
1000
0000
0000
0001
0000
0010
0000
,  // measure 89
0000
0100
0000
0000
0010
0000
0001
0000
,  // measure 90
0000
1000
0000
0000
0001
0000
1000
0000
,  // measure 91
1001
0000
0000
1000
,  // measure 92
0000
0001
0000
0000
1000
0000
0100
0000
,  // measure 93
0000
0010
0000
0000
0100
0000
1000
0000
,  // measure 94
0000
0001
0000
0000
1000
0000
1000
0000
,  // measure 95
0010
1000
0010
1000
,  // measure 96
0000
0001
0000
0000
1000
0000
0001
0000
,  // measure 97
0000
1000
0000
0000
0001
0000
0010
0000
,  // measure 98
0000
0010
0000
0000
0010
0000
0010
0000
,  // measure 99
0100
0001
0001
1000
,  // measure 100
0000
0010
0000
0000
0100
0000
0001
0000
,  // measure 101
0000
0010
0000
0000
0100
0000
1000
0000
,  // measure 102
0000
0010
0000
0000
0100
0000
0001
0000
,  // measure 103
1000
0010
0010
0100
,  // measure 104
0000
1001
0000
0100
,  // measure 105
0000
1001
0000
0010
,  // measure 106
1000
0100
0000
0010
,  // measure 107
1000
0100
0000
0001
,  // measure 108
0000
1000
0000
0001
,  // measure 109
0000
1000
0000
1001
,  // measure 110
0000
0110
0000
1000
,  // measure 111
0000
0001
0000
0010
,  // measure 112
0000
0110
0000
1001
,  // measure 113
0000
0100
0100
2002
,  // measure 114
0000
0000
0000
0000
,  // measure 115
0000
0000
0000
0000
0000
0000
0000
3003
;

//---------------dance-single - ----------------
#NOTES:
     dance-single:
     :
     Medium:
     9:
     0.661509,0.779516,0.280300,0.044848,0.067272,413.000000,388.000000,25.000000,4.000000,0.000000,0.000000,0.661509,0.779516,0.280300,0.044848,0.067272,413.000000,388.000000,25.000000,4.000000,0.000000,0.000000:
// measure 0
0000
0000
0000
0000
,  // measure 1
0000
0000
0000
0000
,  // measure 2
0000
0000
0000
0000
,  // measure 3
0000
0000
0000
0000
,  // measure 4
0000
0000
0000
0000
,  // measure 5
0000
0000
0000
0000
,  // measure 6
0000
0000
0000
0000
,  // measure 7
0000
0000
0000
0000
,  // measure 8
0000
0000
0000
0000
,  // measure 9
0010
0000
0000
0100
0000
0000
0001
0000
,  // measure 10
0010
0000
0000
0100
0000
0000
1000
0000
,  // measure 11
0010
0000
0000
0100
0000
0000
0001
0000
,  // measure 12
0010
0000
0000
0100
0000
0000
1000
0000
,  // measure 13
0010
0000
0000
0100
0000
0000
0001
0000
,  // measure 14
0010
0000
0000
0100
0000
0000
1000
0000
,  // measure 15
0010
0000
0000
0001
0000
0000
0100
0000
,  // measure 16
1000
0001
1000
0001
,  // measure 17
0010
0001
0100
0000
,  // measure 18
0010
1000
0100
0000
,  // measure 19
0010
0001
0100
0010
,  // measure 20
1000
0000
0010
0010
,  // measure 21
0100
0001
0010
0000
,  // measure 22
0100
1000
0010
0000
,  // measure 23
0100
0001
0010
0100
,  // measure 24
1000
0000
0100
0100
,  // measure 25
1000
0010
0100
0001
,  // measure 26
1000
0010
0100
0001
,  // measure 27
0001
0010
0100
1000
,  // measure 28
0001
0010
0100
1000
,  // measure 29
0001
0100
0010
1000
,  // measure 30
0001
0100
0010
1000
,  // measure 31
1000
0100
0010
0001
,  // measure 32
1000
0100
0010
0001
,  // measure 33
0100
1000
0100
1000
,  // measure 34
0100
0001
0100
0001
,  // measure 35
0100
0010
0001
1000
,  // measure 36
0010
0000
0100
0000
0001
1000
0001
0000
,  // measure 37
1000
0010
1000
0010
,  // measure 38
1000
0100
1000
0100
,  // measure 39
1000
0001
0010
0100
,  // measure 40
1000
0000
0001
0000
0100
0010
0100
0000
,  // measure 41
0001
0100
0000
0000
1000
0000
1000
0000
,  // measure 42
0100
0100
0001
0001
,  // measure 43
1000
0100
0000
0000
0001
0000
0001
0000
,  // measure 44
0100
0100
1000
1000
,  // measure 45
1000
0010
0000
0000
0001
0000
0001
0000
,  // measure 46
0010
0010
1000
1000
,  // measure 47
1001
0000
0000
0110
,  // measure 48
0000
0000
1001
0000
,  // measure 49
0010
1000
0001
0100
,  // measure 50
0010
0100
0010
0000
1000
0000
0100
0000
,  // measure 51
0001
0010
0100
1000
,  // measure 52
0010
0100
0010
0000
1000
0000
0100
0000
,  // measure 53
0010
0100
0001
0010
,  // measure 54
0100
1000
0100
0000
1000
0000
0010
0000
,  // measure 55
0100
0001
1000
0010
,  // measure 56
0100
0001
0100
0000
0001
0000
1000
0000
,  // measure 57
0000
0000
0001
0000
0000
0010
0000
0000
0100
0000
0000
1000
0000
0000
0010
0000
,  // measure 58
0000
0000
0100
0000
0000
0001
0000
0000
1000
0000
0000
0010
0000
0000
0100
0000
,  // measure 59
0000
0000
0001
0000
0000
0100
0000
0000
0010
0000
0000
1000
0000
0000
0100
0000
,  // measure 60
0000
0000
0010
0000
0000
1000
0000
0000
0001
0000
0000
0100
0000
0000
0010
0000
,  // measure 61
0100
0100
0001
1000
,  // measure 62
0000
0010
0100
0001
,  // measure 63
1000
1000
0001
0001
,  // measure 64
1000
1000
1001
0000
,  // measure 65
0010
0010
1000
0001
,  // measure 66
0000
0100
0010
1000
,  // measure 67
0001
0001
1000
1000
,  // measure 68
0001
0001
1001
0000
,  // measure 69
0000
0000
0100
0000
0000
0001
0000
0000
0100
0000
0000
1000
0000
0000
0100
0000
,  // measure 70
0000
0000
0010
0000
0000
1000
0000
0000
0010
0000
0000
0001
0000
0000
0010
0000
,  // measure 71
2002
0000
3003
0010
,  // measure 72
0010
0010
0000
0100
,  // measure 73
0100
0100
0000
0010
,  // measure 74
0010
0100
0100
0010
,  // measure 75
0010
0000
0100
0010
0100
0000
0001
0000
,  // measure 76
0001
0001
0000
1000
,  // measure 77
1000
1000
0000
0001
,  // measure 78
0001
1000
1000
0001
,  // measure 79
0001
0000
1000
0001
1000
0000
0010
0000
,  // measure 80
0100
0001
0000
0010
,  // measure 81
0100
1000
0000
0010
,  // measure 82
0100
0001
0010
0100
,  // measure 83
1000
0000
0010
0100
0010
0000
0100
0000
,  // measure 84
0010
1000
0000
0100
,  // measure 85
0010
0001
0000
0100
,  // measure 86
0010
1000
0100
0010
,  // measure 87
0001
0000
0100
0010
0100
0000
1001
0000
,  // measure 88
0000
0110
0000
0000
0010
0000
1001
0000
,  // measure 89
0000
0110
0000
0000
0100
0000
1001
0000
,  // measure 90
0000
0110
0000
0000
1000
0000
0001
0000
,  // measure 91
1001
0000
0000
1100
,  // measure 92
0000
0011
0000
0000
0100
0000
1010
0000
,  // measure 93
0000
0101
0000
0000
0010
0000
0110
0000
,  // measure 94
0000
1001
0000
0000
0010
0000
1000
0000
,  // measure 95
0001
1000
0001
0010
,  // measure 96
0000
1001
0000
0000
0100
0000
0010
0000
,  // measure 97
0000
1001
0000
0000
0100
0000
0010
0000
,  // measure 98
0000
1000
0000
0000
0001
0000
0100
0000
,  // measure 99
0010
1001
1001
1000
,  // measure 100
0000
0001
0000
0000
0010
0000
0100
0000
,  // measure 101
0000
1000
0000
0000
0010
0000
0100
0000
,  // measure 102
0000
0001
0000
0000
1000
0000
0001
0000
,  // measure 103
1001
0100
0100
1000
,  // measure 104
0100
0001
0100
1000
,  // measure 105
0100
0001
0100
1000
,  // measure 106
0010
0001
0010
1000
,  // measure 107
0010
0001
0010
1000
,  // measure 108
0100
0001
0100
1000
,  // measure 109
0010
0001
0010
1000
,  // measure 110
0000
0001
0000
0000
1000
0000
0001
0000
,  // measure 111
0000
1000
0000
0000
0001
0000
1000
0000
,  // measure 112
0000
0001
1000
0000
0000
0001
1000
0000
,  // measure 113
0000
0001
1000
0000
0010
0000
2002
0000
,  // measure 114
0000
0000
0000
0000
,  // measure 115
0000
0000
0000
0000
0000
0000
0000
3003
;

//---------------dance-single - ----------------
#NOTES:
     dance-single:
     :
     Hard:
     11:
     1.134016,1.429112,0.852113,0.044848,0.067272,708.000000,632.000000,76.000000,4.000000,0.000000,0.000000,1.134016,1.429112,0.852113,0.044848,0.067272,708.000000,632.000000,76.000000,4.000000,0.000000,0.000000:
// measure 0
0000
0000
0000
0000
,  // measure 1
0000
0000
0000
0000
,  // measure 2
0000
0000
0000
0000
,  // measure 3
0000
0000
0000
0000
,  // measure 4
0000
0000
0000
0000
,  // measure 5
0000
0000
0000
0000
,  // measure 6
0000
0000
0000
0000
,  // measure 7
0000
0000
0000
0000
,  // measure 8
0000
0000
0000
0000
,  // measure 9
0010
1000
0100
0000
0010
0001
0100
0000
,  // measure 10
0010
1000
0100
0010
1001
0000
0110
0000
,  // measure 11
0001
0010
0100
0000
1000
0010
0100
0000
,  // measure 12
0001
0010
0100
1000
0010
0100
0001
0000
,  // measure 13
1000
0010
0000
0100
0000
0001
0010
0100
,  // measure 14
1000
0010
0000
0100
0000
0001
0010
0100
,  // measure 15
1000
0001
0000
0010
0000
0100
0010
0100
,  // measure 16
0001
1000
0001
1000
0010
1000
0010
0000
,  // measure 17
0001
0010
0100
1000
0000
1001
0000
0001
,  // measure 18
1000
0010
0100
0001
0000
1001
0000
1000
,  // measure 19
0100
0001
0100
1000
0000
1001
0000
0010
,  // measure 20
1000
0100
0000
0010
0000
0001
0000
0100
,  // measure 21
1000
0010
0100
0001
0000
0110
0000
1000
,  // measure 22
0010
0100
0001
0010
0000
1001
0000
0100
,  // measure 23
0010
0001
1000
0010
0000
1001
0000
0001
,  // measure 24
1000
0010
0000
0100
0000
0001
1000
0100
,  // measure 25
0010
0001
0100
0001
0000
1000
0010
1000
,  // measure 26
0100
0010
0001
0100
0000
0010
1000
0100
,  // measure 27
0010
0001
0100
0001
0000
0110
0000
0100
,  // measure 28
1100
1001
0101
1001
,  // measure 29
1000
0010
0100
0001
0000
0010
0000
0100
,  // measure 30
1000
0010
0100
0001
0000
0010
0000
0100
,  // measure 31
1000
0010
0100
0001
0000
0010
0000
0100
,  // measure 32
1000
0100
0001
0100
1000
0010
1000
0100
,  // measure 33
0001
1000
0001
0100
0000
1010
0000
0010
,  // measure 34
1000
0010
0100
0001
0000
1001
0000
1000
,  // measure 35
0010
0100
0001
0010
0000
1001
0000
0100
,  // measure 36
0101
0110
1100
1001
,  // measure 37
0100
0000
0010
1001
0000
1000
0000
0110
,  // measure 38
0001
0000
0010
1001
0000
0110
0000
1001
,  // measure 39
0001
0000
0010
0100
0000
0011
0000
0001
,  // measure 40
0100
0010
1000
0100
0010
0001
0100
0010
,  // measure 41
1000
0001
0000
0100
0010
0000
1000
0001
,  // measure 42
0000
0100
0010
0000
1000
0000
1000
0000
,  // measure 43
0001
0010
0000
0100
1000
0000
0001
0010
,  // measure 44
0000
0100
1000
0000
0001
0000
0001
0000
,  // measure 45
1000
0010
0000
0100
0001
0000
0010
0100
,  // measure 46
0000
1000
0010
0000
0100
0000
0100
0000
,  // measure 47
0001
0010
0000
0100
1000
0000
0010
0100
,  // measure 48
0000
0001
1000
0000
0010
1000
0001
0010
,  // measure 49
0100
0001
0100
0000
0010
1000
0010
0000
,  // measure 50
0100
0010
1000
0100
0010
0001
0100
0000
,  // measure 51
0001
0010
0001
0000
1000
0100
1000
0000
,  // measure 52
0001
0100
0010
1000
0100
0010
0001
0000
,  // measure 53
1100
1000
0001
0000
0101
0001
1000
0000
,  // measure 54
1000
0001
0010
0100
1000
0001
0010
0000
,  // measure 55
1010
1000
0001
0000
0011
0001
1000
0000
,  // measure 56
0001
1000
0100
0010
0001
1000
0100
1000
,  // measure 57
0000
0000
0100
0000
0000
0110
0000
0000
1000
0000
0000
0001
0000
0000
1001
0000
,  // measure 58
0000
0000
0100
0000
0000
0110
0000
0000
0001
0000
0000
1000
0000
0000
1001
0000
,  // measure 59
0000
0000
0010
0000
0000
0110
0000
0000
1000
0000
0000
0001
0000
0000
1001
0000
,  // measure 60
0000
0000
0010
0000
0000
0110
0000
0000
0001
0000
0000
1000
0000
0000
1001
0000
,  // measure 61
0110
0000
1001
0000
0010
1000
0100
0000
,  // measure 62
0010
0001
0100
0010
0000
1000
0100
1000
,  // measure 63
0100
0000
1001
0000
0010
0001
0100
0000
,  // measure 64
0010
1000
0100
0010
0000
0001
0100
0001
,  // measure 65
1000
0010
0100
0000
0001
0010
0100
0000
,  // measure 66
1000
0010
0100
0001
0000
0010
0100
1000
,  // measure 67
0010
0100
0001
0000
0010
0100
1000
0000
,  // measure 68
0010
0100
0001
0010
0100
1000
0010
0100
,  // measure 69
0000
0000
1001
0000
0000
1100
0000
0000
0101
0000
0000
0110
0000
0000
1001
0000
,  // measure 70
0000
0000
1001
0000
0000
0011
0000
0000
1010
0000
0000
0110
0000
0000
1001
0000
,  // measure 71
2002
0000
0000
0000
3003
0000
0010
1000
,  // measure 72
0001
0000
0100
0001
1000
0000
0010
1000
,  // measure 73
0001
0000
0100
0001
1000
0000
0010
1000
,  // measure 74
0001
0100
0010
1000
0001
0100
0010
1000
,  // measure 75
0001
0100
0010
0100
0000
0100
0010
1000
,  // measure 76
0100
0000
0010
0001
0100
0000
0010
1000
,  // measure 77
0100
0000
0010
0001
0100
0000
0010
1000
,  // measure 78
0100
0010
0001
0100
0010
1000
0100
0010
,  // measure 79
0001
0100
0000
1000
0100
0000
0010
1000
,  // measure 80
0100
0001
0100
1000
0010
0000
0010
0001
,  // measure 81
0100
1000
0100
0001
0010
0000
0010
1000
,  // measure 82
0100
0001
0100
1000
0010
0001
0010
1000
,  // measure 83
0100
0001
0100
1000
0010
0000
0001
0010
,  // measure 84
0100
1000
0001
0010
0100
0000
1000
0010
,  // measure 85
0100
0001
1000
0010
0100
0000
0001
0010
,  // measure 86
0100
1000
0010
0100
0001
0010
0100
1000
,  // measure 87
0010
0100
0001
0010
1001
0000
0001
0010
,  // measure 88
0100
1000
0000
1000
0010
0100
0001
0010
,  // measure 89
0100
1000
0000
0010
0100
0001
1000
0100
,  // measure 90
0010
0001
0000
0010
0100
1000
0010
0100
,  // measure 91
1001
0000
0000
0000
0000
0000
1000
0010
,  // measure 92
0100
0001
0000
0001
0010
0100
1000
0010
,  // measure 93
0100
0001
0000
0001
0010
0100
1000
0010
,  // measure 94
0100
0001
0000
0000
0110
0000
1001
0000
,  // measure 95
0110
0000
1001
0000
0110
0000
1000
0010
,  // measure 96
0100
0001
0000
0000
1001
0000
0001
0010
,  // measure 97
0100
1000
0000
0000
1001
0000
0010
1000
,  // measure 98
0000
0001
0010
0000
0100
0000
1001
0000
,  // measure 99
1001
0000
0110
0000
0110
0000
1000
0010
,  // measure 100
1000
0100
0000
0000
1001
0000
0001
0010
,  // measure 101
0001
0100
0000
0000
1001
0000
0110
0000
,  // measure 102
0000
1000
0100
0000
0110
0000
1001
0000
,  // measure 103
1001
0000
0110
0000
0110
0000
1000
0100
,  // measure 104
0001
0000
0100
1000
0010
0000
1000
0100
,  // measure 105
0001
0100
1000
0010
1000
0000
0001
0100
,  // measure 106
1000
0000
0100
0001
0010
0000
0001
0100
,  // measure 107
1000
0100
0001
0010
0001
0000
0010
1000
,  // measure 108
0001
1000
0100
0010
0001
0000
1000
0100
,  // measure 109
1000
0010
0100
0001
0010
0100
1000
0000
,  // measure 110
0010
0001
0110
0000
1000
0010
0100
0000
,  // measure 111
0001
1000
1001
0000
1000
0010
0100
0000
,  // measure 112
0001
0010
0100
0000
1000
0010
0100
0001
,  // measure 113
0010
0100
1000
0001
1000
0100
2002
0000
,  // measure 114
0000
0000
0000
0000
,  // measure 115
0000
0000
0000
0000
0000
0000
0000
3003
;
