#TITLE:MaXX 430;
#SUBTITLE:(Face Reality Mix);
#ARTIST:Dj Slash;
#TITLETRANSLIT:;
#SUBTITLETRANSLIT:;
#ARTISTTRANSLIT:;
#GENRE:;
#CREDIT:;
#BANNER:MaXX ~430~ (Face Reality Mix) - bn.png;
#BACKGROUND:MaXX ~430~ (Face Reality Mix) - bg.png;
#LYRICSPATH:;
#CDTITLE:;
#MUSIC:DJ Slash - MaXX ~430~ (Face Reality Mix).mp3;
#OFFSET:-0.045000;
#SAMPLESTART:49.150002;
#SAMPLELENGTH:12.000000;
#SELECTABLE:YES;
#BPMS:0.000000=430.000000
,288.000000=215.000000
,320.000000=430.000000
,384.000000=215.000000
,392.000000=430.000000
;
#STOPS:
;
#BGCHANGES:;
#KEYSOUNDS:;
#ATTACKS:;

//---------------dance-single - ----------------
#NOTES:
     dance-single:
     :
     Easy:
     7:
     0.520033,0.713952,0.461740,0.150334,0.000000,339.000000,296.000000,43.000000,14.000000,0.000000,0.000000,0.520033,0.713952,0.461740,0.150334,0.000000,339.000000,296.000000,43.000000,14.000000,0.000000,0.000000:
0000
0000
0000
0000
,
0000
0000
0000
0000
,
0000
0000
0000
0000
,
0000
0000
0000
0000
,
0010
0000
0010
0000
,
0010
0000
0010
0000
,
0010
0000
0010
0000
,
0010
0000
0010
0000
,
0100
0000
0100
0000
,
0100
0000
0100
0000
,
1000
0000
0001
0000
,
1000
0000
0001
0000
,
0010
0000
0010
0000
,
0001
0000
0001
0000
,
0100
0000
0100
0000
,
1000
0000
1000
0000
,
0100
0000
0100
0000
,
0001
0000
0001
0000
,
0010
0000
0010
0000
,
0100
0000
0100
0000
,
2002
0000
0000
0000
,
0000
0000
0000
0000
,
0000
0000
0000
0000
,
0000
0000
0000
3003
,
1000
0000
1000
0000
,
0100
0000
0010
0000
,
0001
0000
0001
0000
,
0100
0000
0010
0000
,
1000
0000
1000
0000
,
0100
0000
0010
0000
,
0001
0000
0001
0000
,
0100
0000
0010
0000
,
1000
0000
0100
0000
,
1000
0000
0001
0000
,
0100
0000
0001
0000
,
1000
0000
0100
0000
,
1000
0000
0010
0000
,
0100
0000
0001
0000
,
1000
0000
1000
0000
,
0001
0000
0001
0000
,
1000
0000
1100
0000
,
0100
0000
1100
0000
,
0001
0000
0101
0000
,
0100
0000
0101
0000
,
1000
0000
1010
0000
,
0010
0000
1010
0000
,
0001
0000
0011
0000
,
0010
0000
0011
0000
,
1000
0000
1001
0000
,
0001
0000
1001
0000
,
1000
0000
1001
0000
,
0001
0000
1000
0100
,
1000
0000
1001
0000
,
0001
0000
1001
0000
,
1000
0000
1001
0000
,
0001
1000
0001
1000
,
0001
0000
0011
0000
,
0010
0000
0011
0000
,
1000
0000
1001
0000
,
0001
0000
1000
0100
,
1000
0000
1100
0000
,
0100
0000
1100
0000
,
0001
0000
1001
0000
,
1000
0000
0001
0100
,
0001
0000
0101
0000
,
0100
0000
0101
0000
,
1000
0000
1001
0000
,
0001
0000
1000
0100
,
1000
0000
1010
0000
,
0010
0000
1010
0000
,
0001
0000
1001
0000
,
0001
0010
0100
1000
,
0002
0000
0100
0003
,
2000
0000
0100
3000
,
0002
0000
0100
0003
,
2000
0000
0100
3000
,
0001
0001
1000
1000
,
0100
0100
0010
0001
,
1000
1000
0001
0001
,
0100
0100
0010
1000
,
0001
0000
0001
0000
,
0100
0000
0100
0000
,
0001
0000
0001
0000
,
1000
0000
0100
0000
,
1000
0000
1000
0000
,
0100
0000
0100
0000
,
1000
0000
1000
0000
,
0001
0000
0010
0000
,
0001
0100
0001
0000
,
1000
0000
0100
0000
,
1000
0010
1000
0000
,
0001
0000
0010
0000
,
0100
1000
0001
0000
,
0100
0000
0010
0000
,
0100
0001
1000
0000
,
0100
0000
0010
0000
,
1002
0003
2000
3000
,
0200
0300
0000
1000
,
0001
0000
0100
0000
,
0000
0000
0010
0000
,
0000
0000
0100
0000
,
0000
0000
0010
0000
,
0100
0000
0001
0000
,
0000
0000
1000
0000
,
0000
0000
0001
0000
,
0000
0000
1000
0000
,
0100
0000
0010
0000
,
0000
0000
0001
0000
,
0000
0000
0100
0000
,
0000
0000
1000
0000
,
0100
0000
0001
0000
,
0000
0000
1000
0000
,
0000
0000
0100
0000
,
1000
0000
0001
0100
,
0001
0000
1100
0000
,
1000
0000
0101
0000
,
0001
0000
1010
0000
,
1000
0000
0011
0000
,
0010
0000
1001
0000
,
1000
0000
0110
0000
,
0010
0000
1001
0000
,
0001
0000
0110
0000
,
1001
0000
1100
0000
,
0010
0000
1001
0000
,
0100
0000
1010
0000
,
0100
0000
0001
1000
,
0010
0000
0101
0000
,
0010
0000
1001
0000
,
0100
0000
0011
0000
,
0100
1000
0001
1000
,
0100
0020
0000
0030
,
0001
1000
0000
1000
,
0000
1000
0000
1000
,
0000
1000
0000
1000
,
0001
0020
0000
0030
,
0001
0100
0000
0100
,
0000
0100
0000
0100
,
0000
0100
0000
0100
,
0001
2000
0000
3000
,
0001
0010
0000
0010
,
0000
0010
0000
0010
,
0000
0010
0000
0010
,
0001
2000
0000
3000
,
0100
0001
0000
0001
,
0000
0001
0000
0001
,
0000
0001
0100
1000
,
0020
0000
0000
0000
,
0000
0000
0000
0030
;

//---------------dance-single - ----------------
#NOTES:
     dance-single:
     :
     Medium:
     9:
     0.670367,1.189920,0.730193,0.128858,0.000000,437.000000,369.000000,68.000000,12.000000,0.000000,0.000000,0.670367,1.189920,0.730193,0.128858,0.000000,437.000000,369.000000,68.000000,12.000000,0.000000,0.000000:
0000
0000
0000
0000
,
0000
0000
0000
0000
,
0000
0000
0000
0000
,
0000
0000
0000
0000
,
1000
0000
1000
0000
,
1000
0000
1000
0000
,
0001
0000
0001
0000
,
0001
0000
0001
0000
,
0010
0000
0010
0000
,
0010
0000
0010
0000
,
0100
0000
0100
0000
,
0100
1000
0001
0100
,
0010
0000
1010
0000
,
0010
0000
1010
0000
,
0001
0000
0101
0000
,
0001
0000
0101
0000
,
0010
0000
1010
0000
,
0010
0000
1010
0000
,
0001
0000
0101
0000
,
0001
0000
0101
0000
,
1001
0000
1000
0001
,
0000
0000
1000
0001
,
0000
0000
1000
0001
,
0100
0010
0100
0000
,
0001
0000
1000
0000
,
0001
0100
0010
0100
,
0001
0000
1000
0000
,
0001
0010
0100
0010
,
0001
0000
1000
0000
,
0001
0010
0100
1000
,
0001
0000
1000
0000
,
0001
0100
0010
1000
,
0001
0000
0100
0000
,
0010
0100
0001
1000
,
0001
0000
0100
0000
,
0010
1000
0001
0100
,
0001
0000
0010
0000
,
0100
0010
0001
1000
,
0001
0000
0010
0000
,
0100
1000
0001
0010
,
0100
0000
1001
0000
,
0100
0000
0101
0000
,
1000
0000
1100
0000
,
0100
0000
0010
0001
,
1000
0000
1001
0000
,
1000
0000
1010
0000
,
0100
0000
1100
0000
,
1000
0000
0001
0100
,
0010
0000
1001
0000
,
0010
0000
0011
0000
,
0100
0000
1100
0000
,
0010
0000
0001
0010
,
0100
0000
1001
0000
,
0001
0000
0101
0000
,
1000
0000
1100
0000
,
0010
0001
1000
0001
,
0010
0001
1000
0000
,
0100
1000
0001
0000
,
0100
0001
1000
0000
,
0010
1000
0001
1000
,
0001
0100
1000
0000
,
1000
0100
0001
0000
,
0001
0100
1000
0000
,
1000
0100
0001
1000
,
0001
0010
0100
0000
,
1000
0010
0100
0000
,
0001
0100
0010
0000
,
1000
0100
0010
0001
,
1000
0100
0001
0000
,
0001
0100
1000
0000
,
1000
0100
0001
0000
,
0001
0100
1000
0001
,
2000
0100
0100
3100
,
0002
0100
0100
0103
,
2000
0100
0100
3100
,
0002
0100
0100
0103
,
0010
1010
0001
0101
,
0010
0000
0110
0000
0001
1000
0001
1000
,
0001
0011
1000
1100
,
0010
0000
0110
0000
0001
1000
0001
1000
,
0100
0000
1100
0000
,
0010
0000
0011
0000
,
0100
0000
0110
0000
,
1000
0001
1000
0001
,
0010
0000
0011
0000
,
0100
0000
1100
0000
,
0010
0000
0110
0000
,
0001
1000
0001
1000
,
0001
0000
0110
0000
,
1000
0000
0110
0000
,
0001
0000
1001
0000
,
0010
0100
0010
0100
,
1000
0000
0110
0000
,
0001
0000
0110
0000
,
1000
0000
1001
0000
,
0010
0100
0010
0100
,
2000
0000
3002
0000
,
0203
0000
0000
0301
,
1000
0000
0100
0000
,
0000
0000
0100
0000
,
0000
0000
0010
0000
,
0000
0000
0010
0001
,
1000
0000
0010
0000
,
0000
0000
0010
0000
,
0000
0000
0100
0000
,
0000
0000
0100
0001
,
1000
0000
0110
0000
,
0000
0000
0011
0000
,
0000
0000
0110
0000
,
0000
0000
1000
0001
,
1000
0000
0110
0000
,
0000
0000
1010
0000
,
0000
0000
0110
0000
,
0001
1000
0001
1000
,
0001
0000
1100
0000
,
0010
0000
0101
0000
,
0010
0000
1001
0000
,
0100
0000
0010
0001
,
1000
0000
0101
0000
,
0010
0000
1100
0000
,
0010
0000
1001
0000
,
0100
0000
1001
0000
,
1000
0001
0100
0000
,
0001
1000
0100
0000
,
1000
0001
0010
0000
,
0001
1000
0010
0100
,
0010
1000
0100
0000
,
0010
0001
0100
0000
,
0001
0010
0100
1000
,
0001
0010
0100
1000
,
0001
0200
0000
0300
,
0010
1000
0000
1010
,
0000
0101
0000
1010
,
0000
0101
0000
0001
,
1000
0020
0000
0030
,
0100
0001
0000
0101
,
0000
1010
0000
0101
,
0000
1010
0000
1000
,
0001
0020
0000
0030
,
0100
1000
0000
1100
,
0000
0011
0000
1100
,
0000
0011
0000
0001
,
1000
0200
0000
0300
,
0010
0001
0000
0011
,
0000
1100
0000
0011
,
0000
1100
1000
0100
,
0020
0000
0000
0000
,
0000
0000
0000
0030
;

//---------------dance-single - ----------------
#NOTES:
     dance-single:
     :
     Hard:
     10:
     0.872857,1.110592,0.558383,0.107381,0.000000,569.000000,517.000000,52.000000,10.000000,0.000000,0.000000,0.872857,1.110592,0.558383,0.107381,0.000000,569.000000,517.000000,52.000000,10.000000,0.000000,0.000000:
// measure 0
0000
0000
0000
0000
,  // measure 1
0000
0000
0000
0000
,  // measure 2
0000
0000
0000
0000
,  // measure 3
0000
0000
0000
0000
,  // measure 4
0010
0100
0000
0001
,  // measure 5
0000
0001
0000
1000
,  // measure 6
0000
1000
0000
0100
,  // measure 7
0000
0100
0000
0010
,  // measure 8
0000
0010
0000
0001
,  // measure 9
0000
1000
0000
0100
,  // measure 10
0000
1000
0000
0001
,  // measure 11
0000
0000
0100
0000
0010
1000
0010
1000
,  // measure 12
0001
0100
0001
0100
,  // measure 13
0001
1000
0001
1000
,  // measure 14
0100
1000
0100
1000
,  // measure 15
0001
0100
0001
0100
,  // measure 16
0010
1000
0010
1000
,  // measure 17
0001
1000
0001
1000
,  // measure 18
0001
0010
0001
0010
,  // measure 19
0001
1000
0001
1000
,  // measure 20
0110
0000
1000
0110
,  // measure 21
0000
0000
0001
0110
,  // measure 22
0000
0000
1000
0110
,  // measure 23
0001
1000
0110
0000
,  // measure 24
1001
0001
0010
0001
,  // measure 25
0100
0000
0010
0000
1000
0010
1000
0000
,  // measure 26
0001
1000
0010
1000
,  // measure 27
0100
0000
0010
0000
0001
0010
0001
0000
,  // measure 28
1000
0001
0100
0001
,  // measure 29
0010
0000
0100
0000
1000
0100
1000
0000
,  // measure 30
0001
1000
0100
1000
,  // measure 31
0010
0000
0100
0000
0001
0100
0001
0000
,  // measure 32
1001
1000
0100
1000
,  // measure 33
0001
0000
0100
0000
0010
0100
0010
0000
,  // measure 34
1000
0001
0100
0001
,  // measure 35
1000
0000
0100
0000
0010
0100
0010
0000
,  // measure 36
0001
1000
0010
1000
,  // measure 37
0001
0000
0010
0000
0100
0010
0100
0000
,  // measure 38
1000
0001
0010
0001
,  // measure 39
1000
0000
0010
0000
0100
0010
0100
0000
,  // measure 40
0001
0000
1001
0000
,  // measure 41
0100
0001
0101
0000
,  // measure 42
1000
0100
1100
0000
,  // measure 43
0001
0010
0110
0100
,  // measure 44
1000
0000
1001
0000
,  // measure 45
0010
1000
1010
0000
,  // measure 46
0010
0001
0011
0000
,  // measure 47
1000
0010
0110
0100
,  // measure 48
0001
0000
1000
0100
,  // measure 49
0001
0000
0100
0010
,  // measure 50
0001
0000
1000
0001
,  // measure 51
0100
0000
0110
0010
,  // measure 52
1000
0000
0001
0100
,  // measure 53
1000
0000
0100
0010
,  // measure 54
1000
0000
0001
1000
,  // measure 55
0100
0000
1000
0000
0010
0100
0010
0100
,  // measure 56
0001
1000
0100
1000
,  // measure 57
0001
1000
0100
1000
,  // measure 58
0010
0100
0001
0100
,  // measure 59
0010
1000
1001
1001
,  // measure 60
1000
0001
0100
0001
,  // measure 61
1000
0001
0100
0001
,  // measure 62
0010
0100
1000
0100
,  // measure 63
0010
0001
1001
1001
,  // measure 64
1000
0100
1000
0010
,  // measure 65
1000
0100
1000
0010
,  // measure 66
1000
0001
1000
0001
,  // measure 67
0010
0100
0110
0110
,  // measure 68
0010
0001
1000
0001
,  // measure 69
0100
0001
1000
0001
,  // measure 70
0010
0100
1000
0001
,  // measure 71
1000
0000
0010
0000
0100
0001
0100
0001
,  // measure 72
2000
0001
0100
3001
,  // measure 73
0002
0000
1000
0000
0103
0000
0010
0100
,  // measure 74
0010
1000
0001
0001
,  // measure 75
0010
0100
0100
0010
,  // measure 76
0001
0100
0001
0000
1000
0100
1000
0000
,  // measure 77
0100
0010
0100
0000
0010
0001
1000
0001
,  // measure 78
1000
0100
1000
0000
0001
0100
0001
0000
,  // measure 79
0010
0100
0010
0000
0001
1000
0001
0100
,  // measure 80
0010
1000
0010
0000
,  // measure 81
0100
0001
0100
0000
,  // measure 82
0010
1000
0010
0000
,  // measure 83
0100
0001
1000
0001
,  // measure 84
0100
0010
0100
0000
,  // measure 85
0001
1000
0001
0000
,  // measure 86
0010
0100
0010
0000
,  // measure 87
0001
1000
0001
1000
,  // measure 88
0001
0100
0101
0000
,  // measure 89
1000
0100
1100
0000
,  // measure 90
0010
0100
0110
0000
,  // measure 91
1000
0001
1000
0001
,  // measure 92
1000
0100
1100
0000
,  // measure 93
0001
0100
0101
0000
,  // measure 94
0010
0100
0110
0000
,  // measure 95
0100
0000
1000
0001
1000
0000
0100
0000
,  // measure 96
2001
0000
0020
3000
,  // measure 97
0200
0030
0000
0301
,  // measure 98
1000
0100
1000
0000
,  // measure 99
1000
0100
1000
0000
,  // measure 100
1000
0100
1000
0000
,  // measure 101
1000
0100
1000
1000
,  // measure 102
0001
0100
0001
0000
,  // measure 103
0001
0100
0001
0000
,  // measure 104
0001
0100
0001
0000
,  // measure 105
0001
0100
0001
0001
,  // measure 106
1000
0100
0010
0000
,  // measure 107
0001
0100
0010
0000
,  // measure 108
1000
0100
0010
0000
,  // measure 109
0001
1000
0001
1000
,  // measure 110
0001
0100
0010
0000
,  // measure 111
1000
0100
0010
0000
,  // measure 112
0001
0100
0010
0000
,  // measure 113
1000
0001
1000
0001
,  // measure 114
1001
1000
0001
0100
,  // measure 115
0010
0000
0100
0000
0001
1000
0001
0000
,  // measure 116
1000
0001
1000
0100
,  // measure 117
0010
0000
0100
0000
1000
0001
1000
0000
,  // measure 118
0010
0100
0010
1000
,  // measure 119
0001
0000
1000
0000
0100
0010
0100
0000
,  // measure 120
0010
0100
0010
0001
,  // measure 121
1000
0000
0001
0000
0010
0100
0010
0000
,  // measure 122
0001
0010
0100
1000
,  // measure 123
0100
0000
0010
0000
0001
1000
0001
0000
,  // measure 124
1000
0010
0100
0001
,  // measure 125
0100
0000
0010
0000
1000
0001
1000
0001
,  // measure 126
1000
0100
0010
0001
,  // measure 127
0010
0000
0100
0000
1000
0001
1000
0000
,  // measure 128
0001
0100
0010
1000
,  // measure 129
0010
0000
0100
0000
0001
1000
0001
1000
,  // measure 130
0010
0200
0000
0300
,  // measure 131
0010
0101
0000
1010
,  // measure 132
0000
0101
0000
1010
,  // measure 133
0000
1001
0000
1001
,  // measure 134
0010
0200
0000
0300
,  // measure 135
0010
1100
0000
0011
,  // measure 136
0000
1100
0000
0011
,  // measure 137
0000
1001
0000
1001
,  // measure 138
0010
0200
0000
0300
,  // measure 139
0001
0110
0000
1100
,  // measure 140
0000
1010
0000
0101
,  // measure 141
0000
0110
0000
1001
,  // measure 142
0010
0200
0000
0300
,  // measure 143
1000
0110
0000
0101
,  // measure 144
0000
0011
0000
1100
,  // measure 145
0000
0000
1000
0000
0001
0100
0001
0100
,  // measure 146
0020
0000
0000
0000
,  // measure 147
0000
0000
0000
0030
;
