#TITLE:MGS2 Main Theme;
#SUBTITLE:;
#ARTIST:Harry Gregson-Williams;
#TITLETRANSLIT:;
#SUBTITLETRANSLIT:;
#ARTISTTRANSLIT:;
#GENRE:;
#CREDIT:;
#BANNER:mgs2tbn.png;
#BACKGROUND:mgs2tbg.png;
#LYRICSPATH:;
#CDTITLE:;
#MUSIC:mgs2t.mp3;
#OFFSET:1.240000;
#SAMPLESTART:12.212000;
#SAMPLELENGTH:12.000000;
#LASTBEATHINT:0.552400;
#SELECTABLE:YES;
#BPMS:0.000000=138.100006
,148.000000=141.000000
,156.000000=147.000000
,164.000000=130.000000
,165.000000=115.000000
,166.000000=100.000000
,167.000000=95.000000
,168.000000=53.000000
,170.000000=105.000000
;
#STOPS:
;
#BGCHANGES:0.000=mgs2.avi=1.000=1=0=0=StretchNoLoop==CrossFade==,
99999=-nosongbg-=1.000=0=0=0 // don't automatically add -songbackground-
;
#KEYSOUNDS:;
#ATTACKS:;

//---------------dance-single - ----------------
#NOTES:
     dance-single:
     :
     Easy:
     4:
     0.299305,0.398868,0.287991,0.007200,0.000000,291.000000,251.000000,40.000000,1.000000,0.000000,0.000000,0.299305,0.398868,0.287991,0.007200,0.000000,291.000000,251.000000,40.000000,1.000000,0.000000,0.000000:
0000
0000
0000
0000
,
0000
0000
0000
0000
,
0000
0000
0000
0000
,
0000
0000
0000
0000
,
0000
0000
0000
0000
,
0000
0000
0000
0000
,
1000
1000
0001
0001
,
1000
1100
0101
1001
,
0010
1000
0100
1000
,
0001
0100
0001
0100
,
1000
0010
1000
0100
,
0001
0010
0100
0010
,
0100
0001
0100
1000
,
0100
0010
0100
0010
,
0100
0100
0001
0001
,
1000
0010
1000
0001
,
1000
0010
0100
0001
,
1001
1000
0001
1100
,
0010
0100
0010
0000
,
1001
0001
0100
0101
,
0100
0010
0100
0000
,
1001
0100
0001
0100
,
1100
1000
0001
0101
,
0100
0100
0010
0110
,
1001
1000
0001
0010
,
1100
1100
0101
0101
,
1001
0010
0000
0010
,
1001
0010
0000
0010
,
1000
1000
0001
0001
,
0010
0001
0100
0010
,
1000
1000
0001
0001
,
0100
0001
0010
0100
,
1000
0010
0100
0001
,
0010
0100
1000
1001
,
0001
0010
0100
1000
,
0010
0100
0001
1001
,
0010
0000
0010
0000
,
0010
1001
1100
1001
,
0100
0100
1001
0110
,
1001
0010
1001
1100
,
0101
0101
0100
0010
,
0002
0000
0000
0000
,
1003
0001
1000
1000
,
0001
0001
1000
1000
,
0001
0001
0010
0001
,
0100
0001
1000
0100
,
1000
0010
0100
0100
,
1000
0001
0010
0010
,
0001
1000
0100
0100
,
0001
0010
0001
0001
,
0010
0010
0100
0100
,
1000
1000
1001
1000
,
0001
0010
1001
0100
,
1000
0100
1001
0010
,
0001
0010
1001
0010
,
0100
0110
1001
1000
,
0001
0010
1001
0001
,
1000
0100
1001
0100
,
0100
0001
1000
1000
,
0001
0001
0010
0011
,
0010
0100
1001
1000
,
0001
0000
0001
0100
0001
0000
1000
0000
,
0100
0000
1000
0000
0001
0000
1000
0100
,
1000
0001
0100
0001
,
1000
0100
1000
0010
,
1000
0000
0001
0010
0001
0000
1000
0000
,
0001
0000
1000
0010
1000
0000
0001
0000
,
1000
0000
0001
0000
1000
0010
1000
0000
,
0001
0000
1000
0000
0001
0010
0001
0000
,
1000
0001
0000
0000
;

//---------------dance-single - ----------------
#NOTES:
     dance-single:
     :
     Medium:
     6:
     0.335304,0.448727,0.100797,0.007200,0.035999,326.000000,312.000000,14.000000,1.000000,0.000000,0.000000,0.335304,0.448727,0.100797,0.007200,0.035999,326.000000,312.000000,14.000000,1.000000,0.000000,0.000000:
0000
0000
0000
0000
,
0000
0000
0000
0000
,
0000
0000
0000
0000
,
0000
0000
0000
0000
,
0000
0000
0000
0000
,
0000
0000
0000
0000
,
1000
0000
0001
0000
1000
0000
1000
0000
0000
1000
0000
0000
,
0010
0000
1000
0000
0100
0000
0010
0001
,
0100
0000
0000
0000
0000
1000
0010
0100
,
0001
0000
1000
0000
0000
0000
0010
1000
,
0100
0000
0000
0000
0000
0001
0010
0100
,
1000
0000
0001
0000
0000
0000
0001
1000
,
0010
0000
0000
0000
0000
1000
0001
0100
,
0010
0000
0100
0000
0000
0000
0001
1000
,
0100
0000
0000
0000
0000
0000
0000
0000
0000
0010
0000
0000
0001
0000
0000
0000
1000
0000
0000
0000
0100
0000
0000
0000
,
0010
0000
1000
0000
0001
1000
0001
0000
,
0100
0000
0010
0000
1000
0000
0100
1000
,
0100
0000
0000
0000
0000
0001
0100
0001
,
0010
0000
1001
0000
0000
0000
0010
0001
,
0010
0000
0000
0000
0000
1000
0010
1000
,
0100
0000
1001
0000
0000
0000
1000
0010
,
0100
0000
0000
0000
0000
0001
0010
0100
,
1000
0000
0110
0000
0000
0000
0100
1000
,
0010
0000
0000
0000
0000
0000
0000
0000
0000
0010
0000
0000
0100
0000
0000
0000
0001
0000
0000
0000
1000
0000
0000
0000
,
0100
0000
0100
0000
0001
0001
0001
0000
,
1000
0000
1000
0000
0010
0010
0010
0000
,
0010
0000
0100
0000
0010
1000
0100
0000
,
0010
0001
0100
0000
0010
1000
0100
0000
,
1001
1000
0100
0010
,
0001
0000
0000
1000
0100
0000
0010
0000
,
1001
0001
0010
0100
,
0001
0000
0000
0001
0010
0000
0100
0000
,
1001
0010
1000
0100
,
0010
0001
0100
0000
0010
1000
0100
0000
,
1001
0010
0001
0100
,
0010
1000
0100
0000
0010
0001
0100
0000
,
0010
0010
0010
0010
,
1001
1000
0001
0110
,
1001
0000
0000
0001
0000
0000
1000
0000
1000
0000
1000
0000
,
1001
0001
1000
0110
,
1001
0000
0000
1000
0000
0000
0001
0000
0001
0000
0001
0000
,
2000
0000
0000
0000
,
3001
0000
1000
0000
0001
0000
1000
0100
,
1000
0000
0100
0000
1000
0000
0001
0100
,
0001
0000
0100
0000
0001
0000
0010
0001
,
0010
0000
0001
0000
1000
0000
0010
1000
,
0010
0000
1000
0000
0010
0000
0100
0001
,
0010
0000
0100
0000
0100
1000
0010
0000
,
0100
0000
0010
0001
0100
0000
0010
0000
,
0100
0000
0010
1000
0100
0000
0010
0000
,
0100
0010
1000
1000
,
0001
0001
0010
0000
,
0000
0100
1000
0100
0001
0000
0100
0000
,
0000
0000
1000
0001
0010
0000
0000
0000
,
0000
0001
0010
0100
1000
0000
0001
0000
,
0000
0000
1000
0010
0100
0000
0000
0000
,
0000
0001
0010
0100
1000
0000
0001
0000
,
0000
0000
1000
0010
0100
0000
0000
0001
,
0010
0000
0100
1000
0001
0000
0001
0000
,
1000
1000
0010
0010
,
0100
0000
0100
0000
1000
0100
0001
0100
,
1000
0100
0001
0100
1000
0010
1000
0100
,
1000
0010
1000
0100
0001
1000
0001
0100
,
0001
1000
0001
0100
0001
1000
0001
0010
,
0001
1000
0001
0010
1000
0100
1000
0001
,
1000
0100
1000
0001
1000
0100
0010
0001
,
1000
0100
0010
0001
0100
0001
0010
0001
,
0100
0001
0010
0001
0100
0001
1000
0010
,
0100
0001
1000
0010
0001
0001
1000
1000
,
0001
1000
1001
0000
0000
0000
0000
0000
;

//---------------dance-single - ----------------
#NOTES:
     dance-single:
     :
     Hard:
     9:
     0.518385,0.722949,0.237593,0.007200,0.280792,504.000000,471.000000,33.000000,1.000000,0.000000,0.000000,0.518385,0.722949,0.237593,0.007200,0.280792,504.000000,471.000000,33.000000,1.000000,0.000000,0.000000:
// measure 0
0000
0000
0000
0000
,  // measure 1
0000
0000
0000
0000
,  // measure 2
0000
0000
0000
0000
,  // measure 3
0000
0000
0000
0000
,  // measure 4
0000
0000
0000
0000
,  // measure 5
0000
0000
0000
0000
,  // measure 6
0010
0000
1000
0000
0100
0000
0001
0000
0000
0100
0000
0000
,  // measure 7
1000
0001
0100
0000
0010
1000
0100
1000
,  // measure 8
0001
0000
0100
0010
1000
0100
0001
0100
,  // measure 9
0010
0000
1001
0000
0001
0000
0010
0100
,  // measure 10
1000
0000
0010
0100
0001
0010
0100
1000
,  // measure 11
0010
0000
1001
0000
0101
0000
0001
1000
,  // measure 12
0100
0000
0010
0100
1000
0010
1000
0100
,  // measure 13
0001
0100
1000
0010
1000
0100
1000
0001
,  // measure 14
0010
0000
0000
0000
0000
0000
0010
0000
0000
1000
0000
0000
0100
0000
0000
0000
0010
0000
0000
0000
0001
0000
0000
0000
,  // measure 15
0001
0001
0101
0001
,  // measure 16
1000
0000
1000
0000
1100
0000
1000
0010
,  // measure 17
0100
0000
0001
1000
0000
0001
0010
0100
,  // measure 18
1000
0000
1001
0000
0110
0000
0001
0010
,  // measure 19
0100
0000
1000
0001
0000
1000
0100
0010
,  // measure 20
0001
0000
1001
0000
0110
0000
0010
0010
,  // measure 21
1001
0000
1000
0100
0000
0001
0100
1000
,  // measure 22
0100
0000
1001
0000
1100
0000
0010
1000
,  // measure 23
0001
0000
0000
0000
0000
0000
0000
0000
0000
0010
0000
0000
0100
0000
0000
0000
0101
0000
0000
0000
1000
0000
0000
0000
,  // measure 24
1001
1000
0001
0001
,  // measure 25
0001
0010
0100
1000
0001
0010
0100
0000
,  // measure 26
0010
0100
0010
0000
1100
0000
0011
0000
,  // measure 27
0010
0001
0100
0010
1000
0000
1001
0000
,  // measure 28
0010
1000
0010
0000
0100
0001
0100
0000
,  // measure 29
1000
0000
0010
0000
1000
0000
0010
1000
0010
0000
1000
0000
0010
0000
0000
0000
,  // measure 30
1000
0100
1000
0000
0001
0010
0001
0000
,  // measure 31
1000
0000
0100
0000
1000
0000
0100
1000
0100
0000
1000
0000
0100
0000
0000
0000
,  // measure 32
0010
0001
0100
0000
0010
1000
0100
0000
,  // measure 33
0010
0000
0001
0000
0100
0000
0001
1000
0010
0000
0100
0000
0100
0000
0000
0000
,  // measure 34
0100
1000
0010
0000
0100
0001
0010
0000
,  // measure 35
0100
0000
1000
0000
0010
0000
1000
0001
0100
0000
0010
0000
0010
0000
0000
0000
,  // measure 36
1000
1000
0010
0010
0100
0100
0001
0001
,  // measure 37
0010
0100
0000
1000
0010
0000
0100
0001
,  // measure 38
0000
0000
0000
0010
0000
0000
0100
0000
0000
0000
0000
0000
0010
0000
0000
0000
0100
0000
0000
0000
1001
0000
0000
0000
,  // measure 39
0000
0010
0000
0010
1000
0000
1000
0100
,  // measure 40
0000
0000
0000
0100
0000
0000
0001
0000
0000
0000
0000
0000
1001
0000
0000
0000
0110
0000
0000
0000
1001
0000
0000
0000
,  // measure 41
0002
0000
0000
0000
,  // measure 42
1003
0000
0000
0000
0001
0000
0000
0000
0010
0000
0000
0000
1000
0010
1000
0010
,  // measure 43
1000
0000
0000
0000
0000
0000
0100
0000
0001
0000
0000
0000
0100
0001
0100
0001
,  // measure 44
0100
0000
0001
0000
0000
0000
1000
0000
0010
0000
0000
0000
0100
0010
0100
0010
,  // measure 45
0100
0000
0000
0000
0000
0000
0001
0000
0100
0000
0000
0000
0001
1000
0001
1000
,  // measure 46
0001
0000
1000
0000
0000
0000
0010
0000
0010
0000
0000
0000
1000
0010
0100
0001
,  // measure 47
0010
0000
0000
0000
0000
0000
0100
0000
0001
0000
0000
0000
1000
0010
0100
0001
,  // measure 48
0010
0000
0010
0000
0000
0000
0100
0000
1001
0000
0000
0000
1000
0010
0100
0010
,  // measure 49
1000
0000
0000
0000
0000
0000
0100
0000
1100
0000
0000
0000
1000
0001
0100
0010
,  // measure 50
1000
0000
1000
0000
0000
0000
0001
0000
0010
0000
0000
0000
0100
0010
0001
0010
,  // measure 51
0100
1000
0001
0000
1001
1000
0010
0100
,  // measure 52
0010
1000
0010
0100
1001
1000
0010
0100
,  // measure 53
0010
1000
0010
0100
0110
0001
0010
0100
,  // measure 54
0010
0001
0010
0100
0110
0001
0010
0100
,  // measure 55
0010
0001
0010
0100
1001
1000
0010
0001
,  // measure 56
0010
1000
0010
0001
1001
1000
0100
0001
,  // measure 57
0100
1000
0100
0001
0011
0001
0010
0100
,  // measure 58
0011
0001
0010
0100
1001
0100
0010
0100
,  // measure 59
1001
0000
0100
0000
0010
0000
0100
0000
0010
1000
0100
1000
0001
0010
0100
1000
,  // measure 60
0010
1000
0001
0100
0010
1000
0100
0010
0100
0000
0001
0100
0001
0000
1000
0000
,  // measure 61
0100
1000
0100
0000
1000
0001
1000
0001
1000
0000
0001
0010
0001
0000
1000
0000
,  // measure 62
0010
1000
0001
0000
0001
1000
0001
1000
0010
0000
1000
0100
1000
0000
0010
0000
,  // measure 63
1000
0100
1000
0000
0010
1000
0010
1000
0010
0000
0100
0001
0100
0000
0001
0000
,  // measure 64
0100
0001
0100
0000
0001
1000
0001
1000
0001
0000
0010
0100
1000
0000
0001
0000
,  // measure 65
0010
0100
1000
0000
0010
0100
0010
0100
0001
0000
0100
0010
1000
0000
0001
0000
,  // measure 66
0100
0010
1000
0000
0100
0010
0100
0010
1000
0000
0010
0100
0001
0000
0010
0000
,  // measure 67
0100
1000
0001
0000
0010
0100
1000
0010
0100
0001
0010
0000
0100
1000
0010
0000
,  // measure 68
0100
0001
0010
0000
0100
1000
0010
0000
0010
1000
0010
1000
0010
0100
0010
0100
,  // measure 69
0001
0100
0001
0100
0010
0000
0000
0000
0000
0000
0000
0000
0000
0000
0000
0000
;
