#TITLE:M;
#SUBTITLE:;
#ARTIST:浜崎あゆみ;
#TITLETRANSLIT:;
#SUBTITLETRANSLIT:;
#ARTISTTRANSLIT:Ayumi Hamasaki;
#GENRE:;
#CREDIT:;
#BANNER:M bn2.png;
#BACKGROUND:M bg.png;
#LYRICSPATH:;
#CDTITLE:;
#MUSIC:M.mp3;
#OFFSET:-0.055000;
#SAMPLESTART:55.379997;
#SAMPLELENGTH:12.000000;
#SELECTABLE:YES;
#BPMS:0.000000=103.000000
;
#STOPS:
;
#BGCHANGES:;
#KEYSOUNDS:;
#ATTACKS:;

//---------------dance-single - ----------------
#NOTES:
     dance-single:
     :
     Easy:
     2:
     0.195826,0.258725,0.059599,0.110684,0.000000,161.000000,154.000000,7.000000,13.000000,0.000000,0.000000,0.195826,0.258725,0.059599,0.110684,0.000000,161.000000,154.000000,7.000000,13.000000,0.000000,0.000000:
// measure 0
0000
0000
0000
0000
,  // measure 1
0000
0000
0000
0000
,  // measure 2
0000
0000
0000
0000
,  // measure 3
0000
0000
0000
0000
,  // measure 4
1001
0000
0100
0000
,  // measure 5
0010
0000
0001
0000
,  // measure 6
1000
0000
1000
0000
,  // measure 7
0001
0000
0010
0000
,  // measure 8
0100
0100
0000
0000
1000
0000
0000
0000
,  // measure 9
0010
0000
1000
0000
,  // measure 10
0001
0001
0000
0000
0010
0000
0000
0000
,  // measure 11
0100
0000
1000
0001
,  // measure 12
0010
0010
0000
0000
0100
0000
0000
0000
,  // measure 13
1000
0000
0010
0000
,  // measure 14
0100
0100
0000
0000
0001
0000
0000
0000
,  // measure 15
1000
1000
0000
0000
0001
0000
1000
0000
,  // measure 16
1001
0001
0100
0010
,  // measure 17
2000
0000
3001
0100
,  // measure 18
0010
1000
0100
0010
,  // measure 19
0002
0000
0203
0310
,  // measure 20
1000
0001
0100
0010
,  // measure 21
2000
3001
0020
0031
,  // measure 22
2000
3100
0010
0001
,  // measure 23
0020
0130
1001
0010
,  // measure 24
1001
1000
0100
0010
,  // measure 25
0001
0100
0010
0010
,  // measure 26
1000
0001
0100
0100
,  // measure 27
0010
1000
0001
0010
,  // measure 28
1001
0001
0100
0100
,  // measure 29
0010
1000
0001
0001
,  // measure 30
0010
0010
0100
0100
,  // measure 31
1000
0001
0020
0200
,  // measure 32
0000
0000
0000
0000
0330
0000
1000
0001
,  // measure 33
1000
0001
0010
0010
,  // measure 34
0100
0000
1000
1000
1000
0000
0001
0000
,  // measure 35
0010
0010
0001
1000
,  // measure 36
1000
0000
0100
0100
0100
0000
0010
0000
,  // measure 37
1001
0001
0010
0010
,  // measure 38
0100
0000
1000
1000
0100
0000
1000
0001
,  // measure 39
0010
0010
0001
1000
,  // measure 40
1000
0000
0010
0010
0200
0000
0301
0000
,  // measure 41
1001
0000
1000
0001
,  // measure 42
0200
0000
0320
0000
,  // measure 43
1030
1000
0001
0010
,  // measure 44
0001
0001
0001
0000
1000
1000
1000
0000
,  // measure 45
0100
0100
0100
0000
0010
0010
0010
0000
,  // measure 46
0200
0000
0000
0300
;

//---------------dance-single - ----------------
#NOTES:
     dance-single:
     :
     Medium:
     5:
     0.287050,0.338333,0.051085,0.238397,0.000000,236.000000,230.000000,6.000000,28.000000,0.000000,0.000000,0.287050,0.338333,0.051085,0.238397,0.000000,236.000000,230.000000,6.000000,28.000000,0.000000,0.000000:
// measure 0
0000
0000
0000
0000
,  // measure 1
0000
0000
0000
0000
,  // measure 2
0000
0000
0000
0000
,  // measure 3
0000
0000
0000
0000
,  // measure 4
1001
1000
0001
0100
,  // measure 5
0010
0010
1000
1000
,  // measure 6
0002
1003
2000
3001
,  // measure 7
0020
0130
0200
0310
,  // measure 8
1001
1000
0002
0000
2003
0000
0000
0000
,  // measure 9
3020
0000
0030
1000
0000
1000
0001
0000
,  // measure 10
1000
1000
0001
0020
0000
0230
0000
2300
,  // measure 11
3002
0000
0000
1003
0010
0100
0001
1000
,  // measure 12
0100
0100
0020
0000
0032
0000
0000
0000
,  // measure 13
2003
0000
3000
0010
0000
0100
0001
0000
,  // measure 14
2000
0000
3010
0010
0000
0100
0000
0001
,  // measure 15
1000
1000
0000
0000
0001
0000
0001
0000
,  // measure 16
1001
0000
1000
0000
0001
0100
0010
0010
,  // measure 17
2000
0000
0000
0000
3001
0000
0100
0010
,  // measure 18
1000
1000
0001
0001
0010
0100
0010
0001
,  // measure 19
1000
0000
1000
0000
0100
0000
0100
0010
,  // measure 20
0001
0001
1000
1000
0100
0100
0010
0100
,  // measure 21
2000
0000
3002
0000
0203
0000
0310
1000
,  // measure 22
0002
0000
1003
1000
0020
0000
0130
0100
,  // measure 23
0002
0000
1003
0000
1001
0000
0010
0100
,  // measure 24
1000
0001
0100
0100
,  // measure 25
0010
1000
1000
0001
0010
0000
0010
0000
,  // measure 26
0100
1000
0001
0100
,  // measure 27
0010
1000
0001
1000
0010
0000
0100
0000
,  // measure 28
0001
0001
0100
0001
,  // measure 29
0010
0100
0100
1000
0001
0000
1000
0100
,  // measure 30
1000
0000
0001
0000
0001
0000
1000
0100
,  // measure 31
0010
0001
1000
0010
0000
0200
0000
0000
,  // measure 32
0010
0000
0001
0000
1300
0000
0001
0100
,  // measure 33
0010
0000
1000
1000
0010
0010
0100
0001
,  // measure 34
0010
0010
0100
0100
1000
0000
0001
0100
,  // measure 35
0001
0000
0001
0001
0010
0010
0100
1000
,  // measure 36
0010
0010
0100
0100
0001
0000
1000
0100
,  // measure 37
1001
0000
1000
0001
0010
0100
0010
0001
,  // measure 38
1000
0100
0100
0010
0001
0000
1000
0001
,  // measure 39
0010
0000
0100
1000
0001
1000
0001
0001
,  // measure 40
1000
0100
0100
0100
0020
0000
0130
0000
,  // measure 41
1001
1000
0100
0010
,  // measure 42
0200
1300
0002
0103
,  // measure 43
0010
0010
1000
0002
,  // measure 44
0013
0100
0010
0100
1000
0001
1000
0001
,  // measure 45
0100
0010
0100
0010
1000
0001
1000
0001
,  // measure 46
0200
0000
0000
0300
;

//---------------dance-single - ----------------
#NOTES:
     dance-single:
     :
     Hard:
     8:
     0.420844,0.656763,0.255426,0.119199,0.161770,346.000000,316.000000,30.000000,14.000000,0.000000,0.000000,0.420844,0.656763,0.255426,0.119199,0.161770,346.000000,316.000000,30.000000,14.000000,0.000000,0.000000:
// measure 0
0000
0000
0000
0000
,  // measure 1
0000
0000
0000
0000
,  // measure 2
0000
0000
0000
0000
,  // measure 3
0000
0000
0000
0000
,  // measure 4
1001
0000
0010
0100
1000
0000
0001
1000
,  // measure 5
0100
0000
0100
0010
1001
0000
0001
1000
,  // measure 6
0100
0001
0100
0000
1000
0010
0100
0000
,  // measure 7
0010
0100
0001
0100
0001
1000
0010
0000
,  // measure 8
0100
0000
0100
0000
0002
0000
0000
0000
2003
0000
0000
0000
0000
0000
3001
0100
,  // measure 9
0002
0000
0000
0000
0003
0000
2000
0000
0000
0000
3001
0000
0100
0010
0100
0000
,  // measure 10
0001
0000
1000
2000
0000
3002
0000
0103
,  // measure 11
0010
0000
0000
0000
0000
0000
0100
0000
0010
0000
1000
0000
0100
0010
0100
0000
,  // measure 12
1001
0000
1000
0000
0002
0000
0000
0000
0203
0000
0000
0000
0300
0000
0010
1000
,  // measure 13
0002
0000
0000
0000
0003
0000
2000
0000
0000
0000
3010
0000
0100
0001
0100
0000
,  // measure 14
0010
0000
1000
0000
0001
0000
0002
0000
0000
0000
2003
0000
0000
0000
3010
0100
,  // measure 15
0010
1000
1000
0000
0001
1000
0001
0100
,  // measure 16
1001
0000
0001
1000
0010
0100
0010
1000
,  // measure 17
0001
0001
1000
0010
0100
0100
1001
0100
,  // measure 18
0010
0001
1000
1000
0010
0100
0010
1000
,  // measure 19
0110
0000
0001
0000
0001
0000
1000
0001
,  // measure 20
1001
0010
1000
0001
0100
0100
0010
1000
,  // measure 21
0011
0010
1100
0000
1001
0000
0001
0100
,  // measure 22
1001
0000
1000
0000
0001
0000
0100
0010
1000
0000
1000
0000
0001
0000
1000
0100
,  // measure 23
0020
0031
0100
0010
1001
0000
0001
0010
,  // measure 24
1001
0000
0000
0000
1000
0000
0010
0100
0001
0000
1000
0000
1000
0000
0001
0000
,  // measure 25
0010
0000
0100
0000
0100
0000
0010
0001
0000
0000
0000
0000
1000
0000
0100
0000
,  // measure 26
1001
0000
0000
0000
0001
0000
0010
0100
1000
0000
0001
0000
0001
0000
1000
0000
,  // measure 27
0010
0000
0100
0000
0100
0000
0001
1000
0000
0000
0000
0000
0001
0000
0010
0000
,  // measure 28
1001
0000
0000
0000
1000
0000
0001
0010
0100
0000
0010
0000
0001
0000
1000
0000
,  // measure 29
1000
0000
0100
0000
0100
0000
1000
0001
0000
0000
0000
0000
0001
0000
0100
0000
,  // measure 30
1001
0000
0010
0000
0100
0000
1000
0001
0100
0000
0010
0000
1000
0000
0100
0000
,  // measure 31
0010
0001
1000
0011
0000
1100
0000
0001
,  // measure 32
1000
0100
1000
0000
0001
0100
0001
0000
0010
0000
0010
0000
1001
0000
1100
0000
,  // measure 33
1001
0000
0000
0000
0001
0000
1000
0001
0010
0000
0100
0000
0010
0000
0001
0000
,  // measure 34
1000
0010
0100
0001
1000
0000
1001
0101
,  // measure 35
1001
0000
0000
0000
1000
0000
0001
1000
0010
0000
0100
0000
0010
0000
1000
0000
,  // measure 36
0001
0010
0100
1000
0001
0000
1001
0011
,  // measure 37
1001
0000
0000
0000
1000
0000
0001
0100
0010
0000
1000
0000
0001
0000
0001
0000
,  // measure 38
0010
0000
0010
0000
0100
0000
1000
0001
0000
0000
0000
0000
1000
0000
0001
0000
,  // measure 39
0010
0000
0100
0000
0010
0000
0001
1000
0001
0000
0010
0000
0010
0000
0100
0000
,  // measure 40
1000
1000
0001
0001
0110
1000
0001
0100
,  // measure 41
1001
0000
1000
0001
0100
0010
1000
0000
,  // measure 42
0001
0001
0010
0001
,  // measure 43
1001
0000
0100
0010
1000
0001
0010
0100
,  // measure 44
1000
0100
1000
0100
1000
0001
1000
0001
0100
0001
0100
0001
0100
0010
0100
0010
,  // measure 45
1000
0010
1000
0010
0100
0010
0100
0010
0100
0001
0100
0001
1000
0001
1000
0001
,  // measure 46
0200
0000
0000
0300
;
