#TITLE:M;
#SUBTITLE:(Sweet Heart Mix);
#ARTIST:浜崎あゆみ;
#TITLETRANSLIT:;
#SUBTITLETRANSLIT:;
#ARTISTTRANSLIT:Ayumi Hamasaki;
#GENRE:;
#CREDIT:;
#BANNER:M Sweet Heart Mix Bn.png;
#BACKGROUND:M Sweet Heart Mix Bg.png;
#LYRICSPATH:;
#CDTITLE:;
#MUSIC:M (Sweet Heart Mix).mp3;
#OFFSET:-0.035000;
#SAMPLESTART:60.424999;
#SAMPLELENGTH:12.000000;
#SELECTABLE:YES;
#BPMS:0.000000=126.019989
;
#STOPS:
;
#BGCHANGES:;
#KEYSOUNDS:;
#ATTACKS:;

//---------------dance-single - ----------------
#NOTES:
     dance-single:
     :
     Easy:
     2:
     0.229432,0.337239,0.146002,0.041715,0.000000,154.000000,140.000000,14.000000,4.000000,0.000000,0.000000,0.229432,0.337239,0.146002,0.041715,0.000000,154.000000,140.000000,14.000000,4.000000,0.000000,0.000000:
// measure 0
0000
0000
0000
0000
,  // measure 1
0000
0000
0000
0000
,  // measure 2
0000
0000
0000
0000
,  // measure 3
0000
0000
0000
0000
,  // measure 4
1000
1000
0001
0001
,  // measure 5
1000
1000
0001
0001
,  // measure 6
0100
0100
0010
0010
,  // measure 7
0100
0100
0010
0010
,  // measure 8
1000
0000
1000
0000
,  // measure 9
0100
0000
0001
0000
,  // measure 10
0010
0000
0010
0000
,  // measure 11
0001
0000
0100
0000
,  // measure 12
1000
0000
0010
0000
,  // measure 13
0100
0000
0001
0000
,  // measure 14
0100
0000
0010
0000
,  // measure 15
1000
0000
0100
0100
,  // measure 16
1001
0010
0000
0010
,  // measure 17
0000
0001
0000
1000
,  // measure 18
0000
0100
0000
0100
,  // measure 19
0000
1000
0000
0001
,  // measure 20
0010
0010
0001
0100
,  // measure 21
0001
0001
0010
0100
,  // measure 22
1000
1000
0010
1000
,  // measure 23
1001
0000
0000
0000
,  // measure 24
1001
0010
0000
0001
,  // measure 25
0100
0010
0000
0010
,  // measure 26
1000
1000
0001
0001
,  // measure 27
0010
0100
0000
0100
,  // measure 28
1000
1000
0001
0001
,  // measure 29
1001
1001
1001
0000
,  // measure 30
0010
0000
0100
0000
,  // measure 31
0020
0000
0030
0010
,  // measure 32
1001
0000
0100
0000
,  // measure 33
0010
1000
0001
1000
,  // measure 34
1001
0000
0100
0000
,  // measure 35
1001
1001
1001
1001
,  // measure 36
1001
0000
0100
0000
,  // measure 37
0010
0001
1000
0001
,  // measure 38
0010
0010
0100
0100
,  // measure 39
1000
0001
0020
0030
,  // measure 40
0200
0300
1000
0001
,  // measure 41
1001
0001
0100
0100
,  // measure 42
0001
0001
1000
1000
,  // measure 43
0100
0100
1000
1000
,  // measure 44
0001
0001
0100
0100
,  // measure 45
0001
0100
1000
0100
,  // measure 46
0001
0100
1000
0100
,  // measure 47
0001
0010
1000
0010
,  // measure 48
0001
0010
1000
0010
,  // measure 49
0200
0000
0000
0300
;

//---------------dance-single - ----------------
#NOTES:
     dance-single:
     :
     Medium:
     6:
     0.396292,0.415063,0.312862,0.052144,0.026072,266.000000,236.000000,30.000000,5.000000,0.000000,0.000000,0.396292,0.415063,0.312862,0.052144,0.026072,266.000000,236.000000,30.000000,5.000000,0.000000,0.000000:
// measure 0
0000
0000
0000
0000
,  // measure 1
0000
0000
0000
0000
,  // measure 2
0000
0000
0000
0000
,  // measure 3
0000
0000
0000
0000
,  // measure 4
1001
0000
0001
0100
1000
0000
0100
0000
,  // measure 5
0001
0000
1000
0100
0001
0000
0100
0000
,  // measure 6
1000
0000
0001
0100
1000
0000
0100
0000
,  // measure 7
0001
0000
1000
0100
0001
0000
0001
1000
,  // measure 8
0010
0100
0000
0100
0000
0100
0000
0100
,  // measure 9
0000
1000
0000
1000
0000
1000
0000
1000
,  // measure 10
0010
0100
0000
0100
0000
0100
0000
0100
,  // measure 11
0000
0001
1000
0001
0000
0001
1000
0001
,  // measure 12
0010
0100
0000
1000
0000
0010
0000
1000
,  // measure 13
0000
0001
0000
0100
0000
0001
0000
0010
,  // measure 14
0100
1000
0000
0001
0000
0100
0000
0001
,  // measure 15
0000
0010
0000
0100
0000
0010
0001
1000
,  // measure 16
1001
0000
0110
0000
1000
0000
0101
0001
,  // measure 17
1000
0000
0101
0000
1000
0100
0001
0100
,  // measure 18
1000
0000
0110
0010
0000
0010
0000
0100
,  // measure 19
0000
0000
0000
0100
0001
1000
0100
1000
,  // measure 20
0001
0000
1010
0010
1000
0000
0110
0100
,  // measure 21
0000
0000
1001
0001
0000
0010
0100
0100
,  // measure 22
1000
0000
1010
0010
0000
0010
0000
0100
,  // measure 23
0001
0000
0000
0001
0000
0000
1000
0000
0000
0000
0100
0000
0010
0000
0001
0000
,  // measure 24
1000
0000
1001
0000
0001
0100
0001
0010
,  // measure 25
0000
1001
0100
1001
,  // measure 26
0010
0001
0100
0000
0010
1000
0100
0010
,  // measure 27
0000
1001
0100
1001
,  // measure 28
0001
0010
0001
0000
1000
0100
1000
0001
,  // measure 29
0010
0000
0110
0000
1001
0000
0010
0001
,  // measure 30
1000
0010
1000
0100
1000
0010
0100
0001
,  // measure 31
0020
0000
0000
0000
0030
0000
0001
1000
,  // measure 32
1001
0000
1000
0010
0100
0000
0001
0010
,  // measure 33
0100
0000
0010
0000
0011
0000
1000
0001
,  // measure 34
1001
0000
0001
0100
1000
0000
0010
0000
,  // measure 35
1001
1100
0110
0011
,  // measure 36
1001
0000
0001
0010
0100
0000
1000
0010
,  // measure 37
0100
0000
0010
0000
1010
0000
0010
0100
,  // measure 38
0110
0000
0010
1000
0100
0000
0010
0001
,  // measure 39
1000
0100
1000
0010
0200
0000
0300
0000
,  // measure 40
0020
0230
0301
1001
,  // measure 41
1001
0000
1000
0010
0001
0000
0010
0000
,  // measure 42
1000
0000
0001
0010
1000
0000
0010
0000
,  // measure 43
0001
0000
1000
0010
0001
0000
0010
0000
,  // measure 44
1000
0000
0001
0010
1000
0000
0010
0000
,  // measure 45
1001
0000
0000
0000
1000
0000
0100
0000
1000
0000
0000
0001
0000
0000
0001
0000
,  // measure 46
1000
0000
0000
0000
0001
0000
0100
0000
0001
0000
0000
1000
0000
0000
1000
0000
,  // measure 47
0001
0000
0000
0000
1000
0000
0010
0000
1000
0000
0000
0001
0000
0000
0001
0000
,  // measure 48
1000
0000
0000
0000
0001
0000
0010
0000
0001
0000
0000
1000
0000
0000
1000
0000
,  // measure 49
0020
0000
0000
0030
;

//---------------dance-single - ----------------
#NOTES:
     dance-single:
     :
     Hard:
     8:
     0.546763,0.596653,0.438006,0.041715,0.172074,367.000000,325.000000,42.000000,4.000000,0.000000,0.000000,0.546763,0.596653,0.438006,0.041715,0.172074,367.000000,325.000000,42.000000,4.000000,0.000000,0.000000:
// measure 0
0000
0000
0000
0000
,  // measure 1
0000
0000
0000
0000
,  // measure 2
0000
0000
0000
0000
,  // measure 3
0000
0000
0000
0000
,  // measure 4
1001
0000
0000
0000
0001
0000
1000
0000
0010
0000
0000
0010
0100
0000
0001
0000
,  // measure 5
0000
0000
1000
0000
0001
0000
1000
0000
0100
0000
0000
0100
0010
0000
0100
0000
,  // measure 6
1000
0000
0001
0000
0100
0000
0001
0000
1000
0000
0000
1000
0010
0000
0100
0000
,  // measure 7
0001
0000
1000
0000
0100
0000
1000
0000
0010
0000
0000
0000
1000
0001
0100
0001
,  // measure 8
1000
0000
0001
0100
1000
0000
0100
0001
,  // measure 9
0000
0000
1000
0000
0000
0000
0010
0000
0100
0000
0001
0000
0010
0100
0010
0000
,  // measure 10
0001
1000
0010
0010
0000
0100
0000
0100
,  // measure 11
0000
0000
0001
0000
0100
0000
0010
0000
1000
0000
0100
0000
0010
0100
0010
0000
,  // measure 12
1000
0100
0001
0000
0001
0100
1000
0010
,  // measure 13
0000
0000
0100
0000
0000
0000
0010
0000
0000
0000
0100
0000
0001
1000
0001
0000
,  // measure 14
0010
0000
0100
1000
0000
1000
0000
0010
,  // measure 15
1000
0001
0100
0010
0100
0001
0010
0100
,  // measure 16
1001
0000
1100
1000
0001
0000
0100
0010
,  // measure 17
1000
0000
0000
0000
0001
0000
0100
0000
1000
0000
0100
0000
0001
1000
0001
0000
,  // measure 18
0010
0000
0101
0001
0000
1000
1010
0100
,  // measure 19
0001
0000
0000
0000
1000
0000
0100
0000
0001
0000
0100
0000
1000
0001
1000
0000
,  // measure 20
0010
0100
0110
0000
0001
0100
1000
0100
,  // measure 21
0000
0001
1000
0100
0001
0100
0110
0110
,  // measure 22
1000
0001
0011
1000
0000
0001
1000
0100
,  // measure 23
1001
0000
0000
0011
0000
0000
0110
0000
0000
0000
1100
0000
0010
0000
0100
0000
,  // measure 24
1001
0000
1000
0100
0001
0100
1000
0010
,  // measure 25
0000
0100
0101
0000
1000
0000
1100
0001
,  // measure 26
1000
0010
0100
0010
1000
0100
0010
0001
,  // measure 27
0000
1000
1100
0000
0010
0000
0101
1000
,  // measure 28
0010
0010
0100
0100
0001
0001
0010
0100
,  // measure 29
1001
0000
0000
0000
0011
0000
0000
0000
0110
0000
0000
0000
0010
0000
0100
1000
,  // measure 30
0001
0000
0100
0000
0010
0000
0100
0001
1000
0000
0100
0000
0010
0000
0001
0000
,  // measure 31
2000
0000
0000
0000
0000
0000
3010
0100
,  // measure 32
1001
0000
0000
0000
1000
0000
0001
0100
0001
0000
0010
0000
0100
0000
1000
0000
,  // measure 33
0001
0000
0100
0000
0001
0000
1000
0010
0000
0000
0000
0000
0010
0000
0100
0000
,  // measure 34
0110
0000
0000
0000
0010
0000
1000
0100
1000
0000
0010
0000
0100
0000
0001
0000
,  // measure 35
1001
1000
1100
0100
0110
0010
0011
0001
,  // measure 36
1001
0000
0000
0000
1000
0000
0100
0010
0001
0000
0010
0000
0100
0000
1000
0000
,  // measure 37
1000
0000
0100
0000
0100
0000
0010
0001
0000
0000
0000
0000
0001
0000
0100
0000
,  // measure 38
1001
0000
1000
0000
0001
0000
0010
0100
1000
0000
0001
0000
0100
0000
0010
0000
,  // measure 39
0100
0001
0001
1000
0220
0000
0330
0000
,  // measure 40
1000
0010
1000
0010
0100
0001
0100
0001
0010
0000
0000
0000
0110
0000
0000
0000
,  // measure 41
1001
0000
0001
0000
0010
0000
0001
0000
1000
0000
0000
1000
0010
0000
0100
0000
,  // measure 42
0001
0000
1000
0000
0100
0000
1000
0000
0001
0000
0000
0001
0010
0000
0100
0000
,  // measure 43
1000
0000
0001
0000
0100
0000
0001
0000
1000
0000
0000
1000
0100
0000
0010
0000
,  // measure 44
0001
0000
1000
0000
0010
0000
1000
0000
0001
0000
0000
0001
0100
0000
0010
0000
,  // measure 45
1000
0000
0001
0000
0100
0000
0010
0000
1010
0000
0000
0110
0000
0000
1010
0000
,  // measure 46
0001
0000
1000
0000
0100
0000
0010
0000
0011
0000
0000
0110
0000
0000
0011
0000
,  // measure 47
1000
0000
0001
0000
1000
0000
0100
0000
0110
0000
0000
1001
0000
0000
0110
0000
,  // measure 48
1000
0000
0001
0000
0100
0000
0001
0000
1001
0000
1000
0001
0010
0001
0010
0100
,  // measure 49
2000
0000
0000
3000
;
