#TITLE:Luv To Me;
#SUBTITLE:(Super Euro Version);
#ARTIST:DJ KAZU feat. tiger YAMATO;
#TITLETRANSLIT:;
#SUBTITLETRANSLIT:;
#ARTISTTRANSLIT:;
#GENRE:;
#CREDIT:;
#BANNER:luve bn.png;
#BACKGROUND:luve bg.png;
#LYRICSPATH:;
#CDTITLE:;
#MUSIC:luve.mp3;
#OFFSET:-0.090000;
#SAMPLESTART:61.589996;
#SAMPLELENGTH:12.000000;
#SELECTABLE:YES;
#BPMS:0.000000=159.949997
;
#STOPS:
;
#BGCHANGES:;
#KEYSOUNDS:;
#ATTACKS:;

//---------------dance-single - ----------------
#NOTES:
     dance-single:
     :
     Easy:
     5:
     0.417646,0.570087,0.535979,0.000000,0.009745,300.000000,245.000000,55.000000,0.000000,0.000000,0.000000,0.417646,0.570087,0.535979,0.000000,0.009745,300.000000,245.000000,55.000000,0.000000,0.000000,0.000000:
// measure 0
0000
0000
0000
0000
,  // measure 1
0000
0000
0000
0000
,  // measure 2
0000
0000
0000
0000
,  // measure 3
0000
0000
0000
0000
0000
0000
0000
0010
,  // measure 4
0010
0010
0010
0010
,  // measure 5
0100
0100
0100
0100
,  // measure 6
0010
0010
0010
0010
,  // measure 7
1001
0000
0000
0000
,  // measure 8
0001
0010
0100
1000
,  // measure 9
0010
0100
0001
0000
,  // measure 10
1000
0010
0100
0001
,  // measure 11
0010
0100
1000
0000
,  // measure 12
0001
0010
0100
1000
,  // measure 13
0010
0100
0001
1000
,  // measure 14
0010
0100
0001
0010
,  // measure 15
1001
0000
0000
0000
,  // measure 16
0010
1000
0100
1000
,  // measure 17
0010
1001
0001
0100
,  // measure 18
0010
1001
0100
1001
,  // measure 19
1000
0001
0010
1001
,  // measure 20
1000
0001
1000
1001
,  // measure 21
1100
0011
0101
1010
,  // measure 22
1001
1010
0110
1100
,  // measure 23
1001
0100
0100
0100
,  // measure 24
1001
0100
0100
0001
,  // measure 25
1000
0010
0001
0001
,  // measure 26
1000
1001
0001
1001
,  // measure 27
0010
0110
0100
0110
,  // measure 28
1001
1100
0100
0001
,  // measure 29
0010
0011
0010
0100
,  // measure 30
1000
1010
0010
0100
,  // measure 31
0001
0000
0001
0001
0000
0001
0000
0000
,  // measure 32
0010
0000
1000
0100
1000
0000
0010
0000
,  // measure 33
1000
0000
1000
0001
0000
1000
0000
0000
,  // measure 34
0010
0010
0100
0100
,  // measure 35
0001
0000
0000
0001
0000
0000
0001
0000
0000
0000
0000
0000
0000
0000
0000
0000
,  // measure 36
0010
0000
1000
0000
0100
1000
0100
0000
,  // measure 37
1000
0001
0010
0100
,  // measure 38
0010
1000
0100
0000
0010
0001
0100
0000
,  // measure 39
0010
0000
0000
0010
0000
0000
0010
0000
0010
0000
0000
0000
0000
0000
0000
0000
,  // measure 40
0100
0100
0100
0100
,  // measure 41
1001
0010
0100
0010
,  // measure 42
1001
0100
0010
0100
,  // measure 43
0110
0010
0100
0010
,  // measure 44
0001
0100
1000
0010
,  // measure 45
0011
0010
0100
0010
,  // measure 46
1100
0100
0010
0100
,  // measure 47
0011
0010
0100
0010
,  // measure 48
1000
0100
0001
0100
,  // measure 49
1001
0000
0010
0000
1000
0000
0001
1000
,  // measure 50
0001
0000
0010
0000
0001
0000
0100
0010
,  // measure 51
0100
0000
1000
0000
0001
0000
1000
0001
,  // measure 52
1000
0000
0001
1000
0001
1000
0000
0000
,  // measure 53
0001
0010
0100
1000
,  // measure 54
0001
0010
0100
1000
,  // measure 55
1001
0110
1100
0101
,  // measure 56
1001
1010
0011
0110
,  // measure 57
0010
1000
0100
1000
,  // measure 58
0010
1001
0001
0100
,  // measure 59
0010
1001
0100
1001
,  // measure 60
1000
0001
0010
1001
,  // measure 61
1000
0001
1000
1001
,  // measure 62
1100
0011
0101
1010
,  // measure 63
1001
1010
0110
1100
,  // measure 64
1001
0100
0100
0100
,  // measure 65
1001
0000
0000
0000
;

//---------------dance-single - ----------------
#NOTES:
     dance-single:
     :
     Medium:
     7:
     0.471940,0.506744,0.380058,0.000000,0.009745,339.000000,300.000000,39.000000,0.000000,0.000000,0.000000,0.471940,0.506744,0.380058,0.000000,0.009745,339.000000,300.000000,39.000000,0.000000,0.000000,0.000000:
// measure 0
0000
0000
0000
0000
,  // measure 1
0000
0000
0000
0000
,  // measure 2
0000
0000
0000
0000
,  // measure 3
0000
0000
0000
0000
0000
0000
0000
1000
,  // measure 4
1000
1000
1000
1000
,  // measure 5
0010
0010
0010
0010
,  // measure 6
0001
0001
0001
0001
,  // measure 7
1001
0000
0000
0000
,  // measure 8
0010
1000
0100
0000
0010
0001
0100
0000
,  // measure 9
0010
1000
0100
0000
0010
0001
0100
0000
,  // measure 10
0001
0001
1000
0000
0010
0010
0100
0000
,  // measure 11
0001
0001
1000
0000
0010
0010
0100
0000
,  // measure 12
0001
0010
0100
0000
1000
0010
0100
0000
,  // measure 13
0001
0100
0010
0000
1000
0100
0010
0000
,  // measure 14
0001
0010
0100
1000
,  // measure 15
0110
1001
0000
0000
,  // measure 16
0010
0000
0100
0000
0001
0010
0100
1000
,  // measure 17
0010
0000
0100
0000
0001
0010
0100
1000
,  // measure 18
0010
0000
1000
0000
0100
0100
0100
0000
,  // measure 19
0010
0100
1000
0001
,  // measure 20
1001
0000
1000
0000
0001
0010
0100
1000
,  // measure 21
0010
0100
0110
1001
,  // measure 22
0010
1000
0100
0000
0010
0001
0100
0000
,  // measure 23
1001
0100
0100
1001
,  // measure 24
0001
0010
0100
1000
,  // measure 25
0010
0100
0001
1000
,  // measure 26
0001
0100
1000
0000
1000
0100
0001
0000
,  // measure 27
0001
0100
1000
0000
1000
0100
0001
0000
,  // measure 28
1000
0100
0010
0001
,  // measure 29
0100
0010
1000
0001
,  // measure 30
1000
0100
0001
0000
0001
0100
1000
0000
,  // measure 31
1000
0000
0001
1000
0000
0001
0000
0000
,  // measure 32
0010
1000
0100
0001
,  // measure 33
1000
0010
0100
0001
0000
0010
0000
0000
,  // measure 34
0010
1000
0100
0000
0010
0001
0100
0000
,  // measure 35
0001
0000
0000
1000
0000
0000
0001
0000
0000
0000
0000
0000
0000
0000
0000
0000
,  // measure 36
0001
0010
0100
1000
,  // measure 37
0010
0001
0100
0000
1000
0100
0001
0000
,  // measure 38
0001
0001
0010
0000
1000
1000
0100
0000
,  // measure 39
0010
0000
0000
1000
0000
0000
0100
0000
0001
0000
0000
0000
0000
0000
0000
0000
,  // measure 40
1001
1001
1001
1001
,  // measure 41
1001
0000
0100
0001
0010
0000
0100
0000
,  // measure 42
1001
0000
0010
1000
0100
0000
0010
0000
,  // measure 43
1001
0000
0010
0001
0100
0000
1001
0000
,  // measure 44
0010
1000
0100
0000
0010
0001
0100
0000
,  // measure 45
1001
0000
0010
0100
0010
0000
0110
0000
,  // measure 46
1001
0000
1000
0001
1000
0000
0110
0000
,  // measure 47
1001
0000
0001
0100
1000
0000
0100
0000
,  // measure 48
1001
1100
0011
0110
,  // measure 49
1001
0010
0001
0100
,  // measure 50
1001
1000
0100
0110
,  // measure 51
1001
0010
0001
0100
,  // measure 52
1100
0100
0010
0011
,  // measure 53
0010
1000
0100
0000
0010
0001
0100
0000
,  // measure 54
0001
0100
1000
0000
0001
0100
1000
0000
,  // measure 55
1000
0100
0001
0000
1000
0100
0001
0000
,  // measure 56
0010
1000
0100
0001
0100
1000
0010
0000
,  // measure 57
0010
0000
0100
0000
0001
0010
0100
1000
,  // measure 58
0010
0000
0100
0000
0001
0010
0100
1000
,  // measure 59
0010
0000
1000
0000
0100
0100
0100
0000
,  // measure 60
0010
0100
1000
0001
,  // measure 61
1001
0000
1000
0000
0001
0010
0100
1000
,  // measure 62
0010
0100
0110
1001
,  // measure 63
0010
1000
0100
0000
0010
0001
0100
0000
,  // measure 64
1001
0110
1001
0110
,  // measure 65
1001
0000
0000
0000
;

//---------------dance-single - ----------------
#NOTES:
     dance-single:
     :
     Hard:
     9:
     0.647351,0.855130,0.535979,0.000000,0.219264,465.000000,410.000000,55.000000,0.000000,0.000000,0.000000,0.647351,0.855130,0.535979,0.000000,0.219264,465.000000,410.000000,55.000000,0.000000,0.000000,0.000000:
// measure 0
0000
0000
0000
0000
,  // measure 1
0000
0000
0000
0000
,  // measure 2
0000
0000
0000
0000
,  // measure 3
0000
0000
0000
0000
0000
0000
0000
0010
,  // measure 4
0100
0100
0100
0001
,  // measure 5
1000
1000
1000
0010
,  // measure 6
0100
0100
0100
0001
,  // measure 7
1001
0000
0000
0000
,  // measure 8
0001
0010
0100
1000
0010
1000
0001
0100
,  // measure 9
0000
0100
1000
0010
0000
0010
0001
0100
,  // measure 10
0010
0001
0100
0001
1000
0010
0100
1000
,  // measure 11
0000
0001
0010
0100
0000
1000
0010
0100
,  // measure 12
0001
0010
0100
1000
0010
0100
0001
1000
,  // measure 13
0000
1000
1000
0001
0000
0010
0010
0100
,  // measure 14
0001
0010
0100
1000
0010
0010
0100
0001
,  // measure 15
1001
0000
0000
0010
0100
0000
0000
0000
0000
0000
0000
0000
0000
0000
0000
0000
,  // measure 16
0010
0000
0000
0000
0001
0000
0000
0000
1000
0100
1000
0100
1000
0000
0100
0000
,  // measure 17
0010
0000
0000
0000
0001
0000
0000
0000
1000
0100
1000
0100
1000
0000
0100
0000
,  // measure 18
0010
0001
0000
0001
0000
0000
0010
0000
0100
1000
0000
1000
0000
0000
0010
0000
,  // measure 19
0010
1000
0000
0001
0100
0000
0010
0100
0000
0001
1000
0000
0010
0000
0100
0000
,  // measure 20
0010
1000
0000
0001
0000
0100
0000
0010
1000
0000
0100
0000
0010
0000
0001
1000
,  // measure 21
0100
1000
0001
0010
1001
0000
0110
0000
,  // measure 22
0010
1000
0100
0001
0100
1000
0010
0100
,  // measure 23
1001
0000
0110
0000
1001
1100
1001
0000
,  // measure 24
0010
1000
0100
1000
0010
1000
0001
0010
,  // measure 25
0100
1000
0010
1000
0001
0100
0010
1000
,  // measure 26
0100
0010
0001
1000
0010
0100
0010
0100
,  // measure 27
0001
1000
0010
1000
0001
0010
0001
1000
,  // measure 28
0100
1000
0001
0010
0100
1000
0010
0100
,  // measure 29
0001
1000
0100
0010
0001
1000
0010
0100
,  // measure 30
0001
1000
0010
0100
1000
0001
0100
0010
,  // measure 31
1001
0000
0110
1001
0000
0110
0000
0000
,  // measure 32
0001
0000
0010
0000
0100
0000
1000
0000
0010
0000
1000
0000
0001
0100
0001
0000
,  // measure 33
0010
0100
0100
1001
0000
0110
0000
0000
,  // measure 34
0100
1000
1000
0100
1000
0001
0001
0010
,  // measure 35
1100
0000
0000
1001
0000
0000
0011
0000
0000
0000
0000
0000
1001
0000
0000
0000
,  // measure 36
1000
0000
0010
0000
0100
0000
0001
0000
0010
0000
0001
0000
1000
0010
1000
0000
,  // measure 37
0100
0010
0010
1001
0000
0110
0000
0000
,  // measure 38
1001
0100
0001
0100
1001
0100
1000
0100
,  // measure 39
1001
0000
0000
1100
0000
0000
0011
0000
1001
0000
0010
0100
0010
0100
0010
0000
,  // measure 40
0010
0100
0010
0000
0100
0010
0100
0000
0010
0100
0010
0000
0100
0010
0100
0000
,  // measure 41
1001
0000
0010
0100
0000
0010
0000
0110
,  // measure 42
0000
0100
0001
1000
0000
0010
0000
1100
,  // measure 43
1000
0001
0010
0011
0000
1001
0000
0110
,  // measure 44
0000
1100
0000
0011
0000
0110
0000
1000
,  // measure 45
0010
1000
0100
0001
0000
1001
0000
0100
,  // measure 46
0010
1000
0100
0010
0000
1001
0000
0110
,  // measure 47
0000
0010
1000
0100
0000
1001
0000
0110
,  // measure 48
0000
0010
1000
0001
0010
1000
0000
0010
,  // measure 49
1000
0100
0001
1000
0000
0110
0000
0000
,  // measure 50
0010
0010
1000
0100
0000
0011
0000
0100
,  // measure 51
0010
0100
0001
0010
0000
1000
0000
0000
,  // measure 52
0100
0100
1000
0010
0100
0010
0000
0000
,  // measure 53
0010
1000
0100
0001
0000
0100
0000
0000
,  // measure 54
0010
0001
0100
1000
0000
0100
0000
0000
,  // measure 55
0010
0000
0100
0100
0100
0000
0010
0000
,  // measure 56
1000
0000
0010
0000
0100
0010
0110
0110
,  // measure 57
1001
0000
0000
0000
0001
0000
0000
0000
1000
0100
1000
0100
1000
0000
0100
0000
,  // measure 58
0010
0000
0000
0000
0001
0000
0000
0000
1000
0100
1000
0100
1000
0000
0100
0000
,  // measure 59
0010
0001
0000
0001
0000
0000
0010
0000
0100
1000
0000
1000
0000
0000
0010
0000
,  // measure 60
0010
1000
0000
0001
0100
0000
0010
0100
0000
0001
1000
0000
0010
0000
0100
0000
,  // measure 61
0010
1000
0000
0001
0000
0100
0000
0010
1000
0000
0100
0000
0010
0000
0001
1000
,  // measure 62
0100
1000
0001
0010
1001
0000
0110
0000
,  // measure 63
0010
1000
0100
0001
0100
1000
0010
0100
,  // measure 64
1001
0000
0110
0000
1001
1001
0110
0110
,  // measure 65
1001
0000
0000
0000
;
