#TITLE:Luv To Me;
#SUBTITLE:(Disco Mix);
#ARTIST:DJ KAZU feat. tiger YAMATO;
#TITLETRANSLIT:;
#SUBTITLETRANSLIT:;
#ARTISTTRANSLIT:;
#GENRE:;
#CREDIT:;
#BANNER:Luvdisco bn.png;
#BACKGROUND:Luvdisco bg.png;
#LYRICSPATH:;
#CDTITLE:;
#MUSIC:luvdisco.mp3;
#OFFSET:0.660000;
#SAMPLESTART:46.764999;
#SAMPLELENGTH:12.000000;
#SELECTABLE:YES;
#BPMS:0.000000=154.000000
;
#STOPS:
;
#BGCHANGES:;
#KEYSOUNDS:;
#ATTACKS:;

//---------------dance-single - ----------------
#NOTES:
     dance-single:
     :
     Easy:
     4:
     0.384250,0.446973,0.248633,0.000000,0.005651,238.000000,216.000000,22.000000,0.000000,0.000000,0.000000,0.384250,0.446973,0.248633,0.000000,0.005651,238.000000,216.000000,22.000000,0.000000,0.000000,0.000000:
// measure 0
0000
0000
0000
0000
,  // measure 1
0000
0000
0000
0000
,  // measure 2
0000
0000
0000
0000
,  // measure 3
0000
0000
0000
0000
,  // measure 4
0000
0000
0001
1000
,  // measure 5
0010
0100
0001
0001
,  // measure 6
0010
1000
0100
0100
,  // measure 7
0001
1000
1001
0001
,  // measure 8
1001
0010
0100
0001
,  // measure 9
0010
1000
1100
0100
,  // measure 10
0010
0011
0010
1000
,  // measure 11
0100
1001
0001
0010
,  // measure 12
0100
0010
1001
1000
,  // measure 13
0010
0001
0100
0100
,  // measure 14
0001
1000
0010
0100
,  // measure 15
0001
1000
0010
0010
,  // measure 16
1000
0001
0100
0000
1000
0000
1000
0000
,  // measure 17
0001
0001
0010
0001
,  // measure 18
0100
1000
1000
0001
,  // measure 19
0010
0100
0100
0010
,  // measure 20
0001
1000
0100
0000
0010
0000
1000
0000
,  // measure 21
0100
1000
0001
0010
,  // measure 22
0001
0010
1000
0100
,  // measure 23
1000
0100
0001
0010
,  // measure 24
0001
0010
0010
0001
,  // measure 25
0100
0001
0010
0001
,  // measure 26
0100
1000
0100
0010
,  // measure 27
0001
0000
0000
0000
0100
0000
0000
0000
1000
0000
0000
1000
0000
0000
1000
0000
,  // measure 28
1000
0000
0010
0010
,  // measure 29
0010
0010
0010
0010
,  // measure 30
0010
0010
1001
0100
,  // measure 31
0001
1000
0010
0100
,  // measure 32
0001
0010
1001
1000
,  // measure 33
0001
0100
1000
0100
,  // measure 34
0001
0110
1001
0100
,  // measure 35
0001
1000
0010
0100
,  // measure 36
0010
0100
0010
0001
,  // measure 37
0100
1000
0100
0001
,  // measure 38
0010
0100
1001
0010
,  // measure 39
0001
0100
1000
0001
,  // measure 40
0100
0010
1001
1000
,  // measure 41
0001
0010
0100
1000
,  // measure 42
0100
0000
0001
0000
0010
0100
0010
0000
,  // measure 43
1000
0000
0001
0000
0010
1000
0100
0000
,  // measure 44
0001
0000
0100
0000
0010
0001
0100
0000
,  // measure 45
0001
0000
1000
0000
0100
0100
0100
0000
,  // measure 46
0010
0010
0010
0000
0001
0000
1000
0000
,  // measure 47
0010
0100
0001
0001
,  // measure 48
0010
1000
0100
0100
,  // measure 49
0001
1000
1001
0001
,  // measure 50
1001
0010
0100
0001
,  // measure 51
0010
1000
1100
0100
,  // measure 52
0010
0011
0010
1000
,  // measure 53
0100
1001
0010
0100
,  // measure 54
0010
0100
0001
1000
,  // measure 55
0001
1000
1001
0110
,  // measure 56
1001
0110
1001
0000
;

//---------------dance-single - ----------------
#NOTES:
     dance-single:
     :
     Medium:
     7:
     0.447216,0.478900,0.135618,0.000000,0.033904,277.000000,265.000000,12.000000,0.000000,0.000000,0.000000,0.447216,0.478900,0.135618,0.000000,0.033904,277.000000,265.000000,12.000000,0.000000,0.000000,0.000000:
// measure 0
0000
0000
0000
0000
,  // measure 1
0000
0000
0000
0000
,  // measure 2
0000
0000
0000
0000
,  // measure 3
0000
0000
0000
0000
,  // measure 4
0000
0000
0001
0100
,  // measure 5
0010
1000
0001
0010
0100
0000
0010
0000
,  // measure 6
0100
0001
1000
0000
0000
0100
0000
0010
,  // measure 7
0000
0000
0001
0000
0000
0000
1000
0000
0001
0000
0000
1000
0000
0000
0001
0000
,  // measure 8
0000
1000
0000
0000
0010
0000
0100
0000
0010
0000
0001
0000
0100
0000
0000
0000
,  // measure 9
0010
1000
0100
0000
0010
0000
1001
0000
,  // measure 10
1100
1001
0010
0100
,  // measure 11
0001
1000
0010
0100
0001
1000
0000
0010
,  // measure 12
0000
0100
0000
0010
0000
0001
0000
0010
,  // measure 13
0000
0100
0000
1000
0000
1100
0000
0100
,  // measure 14
0000
0010
0000
0011
0000
0001
0000
0010
,  // measure 15
0000
0100
0000
1000
0000
0010
0000
1001
,  // measure 16
0000
0100
0000
1001
0000
0100
0000
0100
,  // measure 17
0000
0010
0000
0010
0000
0001
0000
0001
,  // measure 18
0000
1000
0000
1000
0000
0001
0001
1000
,  // measure 19
0000
0100
0100
0010
0000
1000
1000
0001
,  // measure 20
0000
0010
0010
0100
0000
0010
0000
1000
,  // measure 21
0000
0100
0000
0001
0100
1000
0010
0100
,  // measure 22
0000
0010
0000
0000
0010
1000
0100
1000
,  // measure 23
0010
0000
0000
0000
0000
0000
0100
0000
1000
0000
0000
0001
0000
0000
0010
0000
,  // measure 24
0000
0000
0000
0000
0010
0010
1000
1000
,  // measure 25
0001
0000
0000
0000
0001
0100
0010
1000
,  // measure 26
0000
0100
0000
0000
0010
1000
0100
0000
,  // measure 27
0010
0000
0001
0000
0100
0000
0000
0000
0010
0000
0000
1000
0000
0000
0001
0000
,  // measure 28
0100
0000
0010
0010
,  // measure 29
0010
0010
0010
0010
,  // measure 30
0010
0000
1001
0000
0010
1000
0100
0000
,  // measure 31
0010
0001
0100
0000
0001
1000
0100
0000
,  // measure 32
0010
0001
1000
0000
0010
1000
0001
0000
,  // measure 33
0100
0000
0000
0010
0000
0010
0000
0100
,  // measure 34
0000
0100
0000
0000
0010
1000
0100
0000
,  // measure 35
0010
0001
0100
0000
0001
0100
1000
0000
,  // measure 36
0100
0001
0010
0000
1000
1000
0100
0000
,  // measure 37
0001
0010
0100
1000
0000
0010
1000
0001
,  // measure 38
0100
0010
0000
0000
0001
1000
0001
0000
,  // measure 39
0100
0010
0100
0000
1000
0001
1000
0000
,  // measure 40
0010
0100
0010
0000
1000
0100
1000
0000
,  // measure 41
0001
0010
0001
0000
0001
0010
0100
1000
,  // measure 42
0010
0100
0000
0000
0010
1000
0100
1000
,  // measure 43
0000
0010
0000
0000
0010
0001
0100
0001
,  // measure 44
0000
0010
0000
0010
0000
0010
1000
0100
,  // measure 45
0000
0010
0001
0100
0000
0001
0010
0100
,  // measure 46
1000
0001
0000
0000
0001
0000
0100
0000
,  // measure 47
0010
1000
0001
0010
0100
0000
0010
0000
,  // measure 48
0100
0001
1000
0000
0000
0100
0000
0010
,  // measure 49
0000
0000
0001
0000
0000
0000
1000
0000
0001
0000
0000
1000
0000
0000
0001
0000
,  // measure 50
0000
1000
0000
0000
0010
0000
0100
0000
0010
0000
0001
0000
0100
0000
0000
0000
,  // measure 51
0010
1000
0100
0000
0010
0000
1001
0000
,  // measure 52
1100
1001
0010
0100
,  // measure 53
0001
1000
0010
0100
0001
1000
0000
0010
,  // measure 54
0000
0100
0000
0010
0000
0001
0000
1000
,  // measure 55
0000
0001
0000
1000
0000
0100
0000
0010
,  // measure 56
0000
0100
0000
0010
1001
0000
0000
0000
;

//---------------dance-single - ----------------
#NOTES:
     dance-single:
     :
     Hard:
     8:
     0.531169,0.606607,0.146919,0.000000,0.169522,329.000000,316.000000,13.000000,0.000000,0.000000,0.000000,0.531169,0.606607,0.146919,0.000000,0.169522,329.000000,316.000000,13.000000,0.000000,0.000000,0.000000:
// measure 0
0000
0000
0000
0000
,  // measure 1
0000
0000
0000
0000
,  // measure 2
0000
0000
0000
0000
,  // measure 3
0000
0000
0000
0000
,  // measure 4
0000
0000
1000
0100
,  // measure 5
0010
0001
0010
0001
0010
0000
0100
0000
1000
0000
0000
0000
0010
0000
0000
0000
,  // measure 6
0100
0001
0100
0001
0100
0000
1000
0000
0010
1000
0000
0001
0000
0000
0100
0000
,  // measure 7
0001
1000
0000
0010
0000
0000
0100
0000
0010
0000
0000
0001
0000
0000
1000
0000
,  // measure 8
0000
0100
0000
0000
0001
0000
1000
0000
0010
1000
0000
0100
1000
0000
0001
0000
,  // measure 9
0100
0010
1000
1000
0010
1000
0100
0000
,  // measure 10
0010
0001
0100
0000
0001
0010
0100
1000
,  // measure 11
0010
1000
0001
1000
0010
0000
0100
0000
0001
0000
1000
0000
0000
0000
0100
0000
,  // measure 12
0000
0010
0000
0010
0000
0001
1000
0010
,  // measure 13
0100
1000
0010
1000
0100
0010
0001
0100
,  // measure 14
0010
1000
0100
0010
0000
0010
1000
0100
,  // measure 15
0000
0010
0001
0100
0000
0010
1000
0100
,  // measure 16
0000
0010
0001
0100
0000
0010
0010
0001
,  // measure 17
1000
0100
1000
0001
0010
0100
1000
0100
,  // measure 18
0010
0001
1000
0010
0000
0010
0010
0010
,  // measure 19
0000
1000
1000
1000
0000
0001
0001
0001
,  // measure 20
0000
0100
0100
0100
0000
0010
0000
0001
,  // measure 21
0000
0100
1000
0000
0010
1000
0001
0100
,  // measure 22
0000
0100
0000
0000
0010
1000
0100
0001
,  // measure 23
0100
0000
0000
0000
0000
0000
1000
0000
1001
0000
0000
0110
0000
0000
1001
0000
,  // measure 24
0000
0000
0000
0000
0100
0001
0100
1000
,  // measure 25
0010
0000
0000
0000
0100
0100
1000
0010
,  // measure 26
0000
0100
0000
0000
0001
0010
0100
0010
,  // measure 27
1000
0000
0010
0000
0100
0000
0010
0000
1010
0000
0000
1001
0000
0000
0101
0000
,  // measure 28
1001
0000
0010
0010
,  // measure 29
0010
0010
0010
0010
,  // measure 30
0010
0000
0010
0000
0001
0010
0100
1000
,  // measure 31
0000
0010
0000
1000
0000
0010
0100
0001
,  // measure 32
0000
0010
0000
0000
0100
0010
1000
0001
,  // measure 33
0000
0100
0000
0010
0000
1001
0000
0010
,  // measure 34
0000
1001
0000
0000
0001
0010
0100
1000
,  // measure 35
0000
0010
0000
0000
1000
0010
0100
0001
,  // measure 36
0000
0010
0000
0010
0000
0001
0001
0100
,  // measure 37
0000
1000
1000
0001
0000
0010
1000
0001
,  // measure 38
0100
0010
0000
0000
0010
0010
1000
0100
,  // measure 39
0000
0010
0000
0000
0010
0010
0001
0100
,  // measure 40
0000
0010
0000
0000
0010
0001
0100
0001
,  // measure 41
0000
0010
0000
0000
1000
0100
0010
0100
,  // measure 42
0001
0100
0000
0000
0100
0100
1000
0010
,  // measure 43
0000
0100
0000
0000
0100
0100
0001
0010
,  // measure 44
0000
0100
0000
0000
0100
1000
0010
1000
,  // measure 45
0000
0100
0000
0010
0000
0010
0001
1000
,  // measure 46
0001
1001
0000
0000
1000
0000
0100
0000
,  // measure 47
0010
0001
0010
0001
0010
0000
0100
0000
1000
0000
0000
0000
0010
0000
0000
0000
,  // measure 48
0100
0001
0100
0001
0100
0000
1000
0000
0010
1000
0000
0001
0000
0000
0100
0000
,  // measure 49
0001
1000
0000
0010
0000
0000
0100
0000
0010
0000
0000
0001
0000
0000
1000
0000
,  // measure 50
0000
0100
0000
0000
0001
0000
1000
0000
0010
1000
0000
0100
1000
0000
0001
0000
,  // measure 51
0100
0010
1000
1000
0010
1000
0100
0000
,  // measure 52
0010
0001
0100
0000
0001
0010
0100
1000
,  // measure 53
0010
1000
0001
1000
0010
0000
0100
0000
0001
0000
1000
0000
0000
0000
0100
0000
,  // measure 54
0000
0010
0000
0100
0010
0100
0000
0100
,  // measure 55
0000
0100
0000
0100
0010
0100
0000
1001
,  // measure 56
0000
0100
0000
1001
1001
0000
0000
0000
;
