#VERSION:0.83;
#TITLE:Love & American Dollars;
#SUBTITLE:;
#ARTIST:King Kong & D Jungle Girls;
#TITLETRANSLIT:;
#SUBTITLETRANSLIT:;
#ARTISTTRANSLIT:;
#GENRE:;
#ORIGIN:;
#CREDIT:;
#BANNER:laadbanner.png;
#BACKGROUND:laadbg.png;
#PREVIEWVID:;
#JACKET:;
#CDIMAGE:;
#DISCIMAGE:;
#LYRICSPATH:;
#CDTITLE:;
#MUSIC:King Kong & D Jungle Girls - Love & American Dollars (DJ Robo.mp3;
#OFFSET:-0.067000;
#SAMPLESTART:56.178001;
#SAMPLELENGTH:12.000000;
#SELECTABLE:YES;
#BPMS:0.000=136.800;
#STOPS:;
#DELAYS:;
#WARPS:;
#TIMESIGNATURES:0.000=4=4;
#TICKCOUNTS:0.000=4;
#COMBOS:0.000=1;
#SPEEDS:0.000=1.000=0.000=0;
#SCROLLS:0.000=1.000;
#FAKES:;
#LABELS:0.000=Song Start;
#BGCHANGES:;
#KEYSOUNDS:;
#ATTACKS:
;

//---------------dance-single - ----------------
#NOTEDATA:;
#CHARTNAME:;
#STEPSTYPE:dance-single;
#DESCRIPTION:;
#CHARTSTYLE:;
#DIFFICULTY:Easy;
#METER:2;
#RADARVALUES:0.217144,0.249865,0.031233,0.020822,0.000000,146.000000,143.000000,3.000000,2.000000,0.000000,0.000000,0.000000,0.000000,0.000000,0.217144,0.249865,0.031233,0.020822,0.000000,146.000000,143.000000,3.000000,2.000000,0.000000,0.000000,0.000000,0.000000,0.000000;
#CREDIT:;
#NOTES:
// measure 0
0000
0000
0000
0000
,  // measure 1
0000
0000
0000
0000
,  // measure 2
0000
0000
0000
0000
,  // measure 3
0000
0000
0000
0000
,  // measure 4
0001
0000
0010
0000
,  // measure 5
1000
0000
0010
0100
,  // measure 6
1000
0000
0010
0000
,  // measure 7
2002
0000
0000
3003
,  // measure 8
1000
0001
1000
0010
,  // measure 9
0100
0010
0100
0001
,  // measure 10
0010
0100
1000
0001
,  // measure 11
0100
0010
1000
0001
,  // measure 12
1000
0001
1000
0010
,  // measure 13
0100
0010
0100
0001
,  // measure 14
1000
0100
1000
0010
,  // measure 15
0100
0100
0001
0010
,  // measure 16
1001
0000
0001
0000
,  // measure 17
0010
0100
1000
0010
,  // measure 18
0100
0000
0001
0000
,  // measure 19
0010
0100
0001
0010
,  // measure 20
0100
0000
1000
0000
,  // measure 21
0010
0100
0001
0010
,  // measure 22
0100
0000
1000
0000
,  // measure 23
0010
0100
1000
0010
,  // measure 24
0100
0001
0010
0000
,  // measure 25
0100
1000
0010
0000
,  // measure 26
0100
0001
1000
0000
,  // measure 27
0010
0001
1000
0000
,  // measure 28
0001
0100
1000
0000
,  // measure 29
0001
0100
1000
0000
,  // measure 30
0001
0010
1000
0010
,  // measure 31
0001
0010
1000
0010
,  // measure 32
0001
1000
0001
0001
,  // measure 33
1000
0001
1000
0001
,  // measure 34
0100
0000
0010
0000
,  // measure 35
1000
0000
0100
0000
,  // measure 36
1000
0001
1000
0001
,  // measure 37
0001
1000
0001
0010
,  // measure 38
0100
0000
0010
0000
,  // measure 39
0100
1000
0010
0001
,  // measure 40
0100
0100
0010
0100
,  // measure 41
0010
0010
0100
0010
,  // measure 42
0001
0000
1000
0000
,  // measure 43
0001
0000
0001
0000
,  // measure 44
0010
0100
0010
0010
,  // measure 45
0100
0010
0100
1000
,  // measure 46
0001
0000
1000
0000
,  // measure 47
0001
0100
1000
0010
,  // measure 48
1001
0000
0000
0000
;

//---------------dance-single - ----------------
#NOTEDATA:;
#CHARTNAME:;
#STEPSTYPE:dance-single;
#DESCRIPTION:;
#CHARTSTYLE:;
#DIFFICULTY:Medium;
#METER:6;
#RADARVALUES:0.331666,0.374797,0.114521,0.020822,0.000000,223.000000,212.000000,11.000000,2.000000,0.000000,0.000000,0.000000,0.000000,0.000000,0.331666,0.374797,0.114521,0.020822,0.000000,223.000000,212.000000,11.000000,2.000000,0.000000,0.000000,0.000000,0.000000,0.000000;
#CREDIT:;
#NOTES:
// measure 0
0000
0000
0000
0000
,  // measure 1
0000
0000
0000
0000
,  // measure 2
0000
0000
0000
0000
,  // measure 3
0000
0000
0000
0000
,  // measure 4
1000
0000
0001
0000
0010
0000
0100
1000
,  // measure 5
0000
0010
0000
0100
0000
0001
0000
1000
,  // measure 6
0010
0100
0000
0001
0000
0010
0010
0200
,  // measure 7
0000
0000
0000
0000
0000
0000
1300
1000
,  // measure 8
0010
0000
0100
0000
0001
0000
1000
0100
,  // measure 9
0010
0000
0001
0000
0100
0000
0010
1000
,  // measure 10
0001
0000
0100
0000
0001
0010
0100
0000
,  // measure 11
1000
0010
0100
0000
0010
0000
0010
0000
,  // measure 12
1001
0000
1000
0000
0010
0000
0100
0001
,  // measure 13
0010
0000
0100
0000
1000
0000
0010
0001
,  // measure 14
0100
0000
0010
1000
0100
0000
0100
0000
,  // measure 15
0000
1000
0010
0100
0001
0000
0110
0000
,  // measure 16
1000
0001
0000
0010
0000
0100
0000
1000
,  // measure 17
0010
0100
0000
0001
0000
0100
0010
1000
,  // measure 18
0000
0100
0000
1001
0000
0000
0000
0000
,  // measure 19
0001
0010
0100
0010
0000
0001
0001
0000
,  // measure 20
1000
0010
0000
0100
0000
0001
0010
0000
,  // measure 21
0100
1000
0000
0010
0000
0100
0001
0010
,  // measure 22
0000
0100
0000
1001
0000
0000
0000
0000
,  // measure 23
0010
1000
0100
1000
0000
0000
0000
0001
,  // measure 24
1000
0000
0010
0000
0100
0001
0000
0010
,  // measure 25
0000
0000
0100
1000
0000
0100
0000
0000
,  // measure 26
1000
0000
0010
0000
0100
0000
0001
0010
,  // measure 27
0000
0100
1000
0100
0000
1000
0010
0000
,  // measure 28
0100
0000
0001
0000
0010
0100
0000
1000
,  // measure 29
0000
0000
0010
0100
0000
0010
0000
0000
,  // measure 30
0100
0001
0010
0000
0100
1000
0010
0100
,  // measure 31
0000
0010
0000
0100
0000
1000
0001
0000
,  // measure 32
0010
1001
0100
1001
,  // measure 33
0001
0010
0100
0000
1000
0010
0100
0000
,  // measure 34
1000
0101
0010
1100
,  // measure 35
1000
0010
0100
0001
0010
0100
1000
0000
,  // measure 36
1100
1000
0101
0001
,  // measure 37
0001
1000
0100
0000
1000
0001
0100
0000
,  // measure 38
0001
0100
1000
0000
1000
0100
0001
0000
,  // measure 39
0001
0100
1000
0000
1000
0100
0001
0000
,  // measure 40
0001
0000
1000
0000
0001
0000
0010
0100
,  // measure 41
0000
1000
0000
0010
0000
0100
0000
0001
,  // measure 42
0010
0000
0100
0000
1000
0000
0010
0100
,  // measure 43
0000
0001
0010
0000
0100
0000
0100
0000
,  // measure 44
1000
0000
0010
0000
0100
0000
0100
0001
,  // measure 45
0000
0010
0000
0100
1000
0010
0000
0100
,  // measure 46
0001
0010
0000
0000
0000
0100
1000
0020
,  // measure 47
0100
0100
0100
1030
,  // measure 48
1001
0000
0000
0000
;

//---------------dance-single - ----------------
#NOTEDATA:;
#CHARTNAME:;
#STEPSTYPE:dance-single;
#DESCRIPTION:;
#CHARTSTYLE:;
#DIFFICULTY:Hard;
#METER:7;
#RADARVALUES:0.401568,0.424770,0.156165,0.010411,0.078083,270.000000,255.000000,15.000000,1.000000,0.000000,0.000000,0.000000,0.000000,0.000000,0.401568,0.424770,0.156165,0.010411,0.078083,270.000000,255.000000,15.000000,1.000000,0.000000,0.000000,0.000000,0.000000,0.000000;
#CREDIT:;
#NOTES:
// measure 0
0000
0000
0000
0000
,  // measure 1
0000
0000
0000
0000
,  // measure 2
0000
0000
0000
0000
,  // measure 3
0000
0000
0000
0000
,  // measure 4
0010
0000
0010
1000
0100
1000
0001
0100
,  // measure 5
0000
0010
0000
1000
0000
0010
0000
0100
,  // measure 6
0010
1000
0000
0001
0000
1000
1000
0200
,  // measure 7
0000
0000
0000
0000
0000
0000
1300
0000
0001
0000
0000
0000
1000
0010
1000
0000
,  // measure 8
0001
0000
0000
0010
0000
0000
0100
0000
1000
0000
0000
0000
0010
0000
0100
0010
,  // measure 9
0000
0000
1000
0000
0000
0000
0001
0000
0010
0000
0000
0000
0100
1000
0100
0000
,  // measure 10
0010
0000
0000
0001
0000
0000
0100
0000
0010
0000
0000
1000
0000
0000
0100
0000
,  // measure 11
0010
0000
0001
0000
0100
0001
0000
0100
0000
0000
0000
0000
1000
0100
1000
0000
,  // measure 12
0010
0000
0000
1000
0000
0000
0001
0000
0100
0000
0000
0000
0001
0000
1000
0100
,  // measure 13
0000
0000
0010
0000
0000
0000
0001
0000
0100
0000
0000
0000
0010
1000
0010
0000
,  // measure 14
0100
0000
0000
0010
0000
0000
0010
0000
1000
0000
0000
0100
0000
0000
0010
0000
,  // measure 15
0100
0000
1000
0000
0010
0000
0100
0000
0001
0000
0000
0010
0000
0000
0100
0000
,  // measure 16
1000
1000
0010
0100
0000
0001
0010
0100
,  // measure 17
1000
1000
0000
0010
0000
0010
0010
0100
,  // measure 18
0000
0001
0000
0010
0000
0000
0100
0000
,  // measure 19
1000
0010
0100
0001
0000
1001
1001
0000
,  // measure 20
1000
0001
0010
0100
0000
1000
0010
0000
,  // measure 21
0100
0001
0000
1000
0000
0100
0010
0001
,  // measure 22
0000
0010
0000
0100
0000
0000
1000
0000
,  // measure 23
0001
0010
0100
1000
0000
1001
0000
0010
,  // measure 24
0100
0000
1000
0000
0001
0010
0000
1100
,  // measure 25
0000
0000
1000
0100
0000
0010
0000
0000
,  // measure 26
0001
0010
0100
1000
0001
0010
0100
1000
,  // measure 27
0000
0010
0100
0001
0000
0010
0100
0000
,  // measure 28
1010
0000
0101
0000
0001
0010
0000
0100
,  // measure 29
0000
0000
1000
0100
0000
0010
0000
0000
,  // measure 30
0001
0010
0100
1000
0001
0010
0100
1000
,  // measure 31
0000
0100
0000
1001
0000
1000
0001
0000
,  // measure 32
1010
0000
0010
0100
0001
0010
0100
1000
,  // measure 33
0000
0001
0000
1000
0000
0010
0000
0000
,  // measure 34
1000
1000
0001
0001
0010
0100
1000
0010
,  // measure 35
0000
0100
0001
0000
0010
0100
1000
0010
,  // measure 36
0100
0100
0001
1000
0010
0010
0100
0001
,  // measure 37
0000
0010
0000
0100
0000
1000
0000
0010
,  // measure 38
0100
0001
0000
1000
0000
0001
0001
1000
,  // measure 39
1010
0000
0101
0000
0100
0010
1000
0100
,  // measure 40
0001
0100
1000
0010
0010
0100
0001
0100
,  // measure 41
0000
0010
0000
0100
0000
1001
0000
0000
,  // measure 42
1000
0010
0100
0001
1000
0010
0010
0100
,  // measure 43
0000
0001
0010
0000
1001
0000
0110
0000
,  // measure 44
1001
0001
0010
0100
1000
0010
0100
0001
,  // measure 45
0000
0010
0000
0100
0000
1000
0000
0100
,  // measure 46
1000
0010
0000
0100
0000
0010
0010
1000
,  // measure 47
0000
0010
0000
0100
0010
1000
0100
0001
,  // measure 48
1100
0000
0000
0000
;
