#VERSION:0.83;
#TITLE:Link's Theme;
#SUBTITLE:(Heavy Dance Remix);
#ARTIST:Koji Kondo (Remixed by Dave Phaneuf);
#TITLETRANSLIT:;
#SUBTITLETRANSLIT:;
#ARTISTTRANSLIT:;
#GENRE:;
#ORIGIN:;
#CREDIT:;
#BANNER:linkthemehdm bn.png;
#BACKGROUND:linkthemehdm bg.png;
#PREVIEWVID:;
#JACKET:;
#CDIMAGE:;
#DISCIMAGE:;
#LYRICSPATH:;
#CDTITLE:;
#MUSIC:Link's Theme (Heave Dance Remix).mp3;
#OFFSET:-0.094000;
#SAMPLESTART:27.973999;
#SAMPLELENGTH:12.000000;
#SELECTABLE:YES;
#BPMS:0.000=172.000;
#STOPS:;
#DELAYS:;
#WARPS:;
#TIMESIGNATURES:0.000=4=4;
#TICKCOUNTS:0.000=4;
#COMBOS:0.000=1;
#SPEEDS:0.000=1.000=0.000=0;
#SCROLLS:0.000=1.000;
#FAKES:;
#LABELS:0.000=Song Start;
#BGCHANGES:;
#KEYSOUNDS:;
#ATTACKS:
;

//---------------dance-single - ----------------
#NOTEDATA:;
#CHARTNAME:;
#STEPSTYPE:dance-single;
#DESCRIPTION:;
#CHARTSTYLE:;
#DIFFICULTY:Easy;
#METER:4;
#RADARVALUES:0.394675,0.593985,0.390031,0.000000,0.000000,340.000000,292.000000,48.000000,0.000000,0.000000,0.000000,0.000000,0.000000,0.000000,0.394675,0.593985,0.390031,0.000000,0.000000,340.000000,292.000000,48.000000,0.000000,0.000000,0.000000,0.000000,0.000000,0.000000;
#CREDIT:;
#NOTES:
// measure 0
0000
0000
0000
0000
,  // measure 1
0000
0000
0000
0000
,  // measure 2
0000
0000
0000
0000
,  // measure 3
0000
0000
0000
0000
,  // measure 4
0010
1000
0100
0001
,  // measure 5
0100
0000
0010
0000
,  // measure 6
0001
0100
1000
0010
,  // measure 7
1000
0000
0001
0000
,  // measure 8
0100
0001
0010
1000
,  // measure 9
0010
0000
0100
0000
,  // measure 10
1000
0100
0001
0010
,  // measure 11
1001
0000
0000
0000
,  // measure 12
0001
0010
0100
1000
,  // measure 13
1000
0010
0100
0001
,  // measure 14
0001
0100
0010
1000
,  // measure 15
1000
0100
0010
0001
,  // measure 16
0001
1000
0010
0010
,  // measure 17
0100
0100
0010
0001
,  // measure 18
1000
1000
0010
0100
,  // measure 19
0001
0001
1000
1000
,  // measure 20
1001
1000
0010
1000
,  // measure 21
0001
0100
0001
0010
,  // measure 22
0100
0100
1000
1000
,  // measure 23
0001
0001
0010
0010
,  // measure 24
1000
0001
1000
0001
,  // measure 25
0010
0001
0010
0001
,  // measure 26
1000
0100
1000
0010
,  // measure 27
1000
1000
1000
0010
,  // measure 28
1001
0010
0001
0100
,  // measure 29
0001
0001
1000
1000
,  // measure 30
0010
1000
0010
0001
,  // measure 31
0010
0010
0100
0100
,  // measure 32
0001
0010
0001
0010
,  // measure 33
0100
1000
0100
1000
,  // measure 34
0010
0001
0010
0001
,  // measure 35
1000
0100
1000
0100
,  // measure 36
0010
0100
0010
0100
,  // measure 37
0001
1000
0001
1000
,  // measure 38
0010
1000
0100
1000
,  // measure 39
0100
0001
0010
0001
,  // measure 40
1001
0001
0010
0100
,  // measure 41
1000
1000
0001
0001
,  // measure 42
1000
0010
0100
0001
,  // measure 43
1000
1000
0001
0001
,  // measure 44
1001
0110
0010
0010
,  // measure 45
1000
1000
0100
0100
,  // measure 46
0101
1100
0010
0010
,  // measure 47
0100
0100
0010
0100
,  // measure 48
1001
0010
1000
0010
,  // measure 49
1001
0001
0100
0001
,  // measure 50
1001
1000
1000
0010
,  // measure 51
1001
0001
0001
0100
,  // measure 52
0110
1000
0001
1000
,  // measure 53
1001
0010
0010
0010
,  // measure 54
0110
0100
0100
0110
,  // measure 55
1001
0010
1000
1000
,  // measure 56
1001
0000
0010
0010
,  // measure 57
1001
0010
0100
0100
,  // measure 58
0000
0000
0000
0000
,  // measure 59
1000
1000
0001
0001
,  // measure 60
0000
0000
0000
0000
,  // measure 61
0010
1001
0100
1001
,  // measure 62
1001
0000
0000
0000
,  // measure 63
0110
1001
1100
0101
,  // measure 64
1010
0110
0011
1001
,  // measure 65
0010
0000
0010
0000
,  // measure 66
0100
0100
0000
1001
,  // measure 67
0100
1001
0100
1001
,  // measure 68
1000
0000
0001
0000
,  // measure 69
1001
0000
0110
0110
,  // measure 70
1001
0000
0110
0000
,  // measure 71
1001
0010
1000
0100
,  // measure 72
1001
0010
0001
0100
,  // measure 73
1000
1000
0001
0001
,  // measure 74
0010
0000
0100
0000
,  // measure 75
0001
0000
1000
0000
,  // measure 76
0001
0010
0010
0100
,  // measure 77
1000
1000
0010
0100
,  // measure 78
0001
0001
0010
0100
,  // measure 79
0001
0001
1000
1000
,  // measure 80
1001
0100
1001
1000
,  // measure 81
0100
0100
0010
0100
,  // measure 82
0001
0110
1000
0110
,  // measure 83
0001
0110
0110
1001
,  // measure 84
0100
0000
0100
0000
,  // measure 85
0010
0000
0010
0000
,  // measure 86
1001
0000
0000
0000
;

//---------------dance-single - ----------------
#NOTEDATA:;
#CHARTNAME:;
#STEPSTYPE:dance-single;
#DESCRIPTION:;
#CHARTSTYLE:;
#DIFFICULTY:Medium;
#METER:7;
#RADARVALUES:0.504951,0.593985,0.373780,0.000000,0.048754,435.000000,389.000000,46.000000,0.000000,0.000000,0.000000,0.000000,0.000000,0.000000,0.504951,0.593985,0.373780,0.000000,0.048754,435.000000,389.000000,46.000000,0.000000,0.000000,0.000000,0.000000,0.000000,0.000000;
#CREDIT:;
#NOTES:
// measure 0
0000
0000
0000
0000
,  // measure 1
0000
0000
0000
0000
,  // measure 2
0000
0000
0000
0000
,  // measure 3
0000
0000
0000
0000
,  // measure 4
1000
1000
0001
0001
,  // measure 5
1000
1000
0001
0001
,  // measure 6
0010
0010
0100
0100
,  // measure 7
0010
0010
0100
0100
,  // measure 8
0010
1000
0100
0001
,  // measure 9
0010
1000
0100
0001
,  // measure 10
0010
0001
0100
0010
,  // measure 11
1001
0000
0000
0000
,  // measure 12
0010
0000
1000
0000
0100
1000
0010
0000
,  // measure 13
0100
0000
0001
0000
0010
0001
0100
0000
,  // measure 14
0010
0000
0100
0000
0001
0010
0100
0000
,  // measure 15
1000
0010
1000
0000
0001
0100
0001
0000
,  // measure 16
0010
0000
1001
0000
0010
1000
0100
0000
,  // measure 17
0010
0000
1001
0000
0010
0001
0100
0000
,  // measure 18
0010
0000
1001
0000
0010
0100
0010
0000
,  // measure 19
0010
1001
1100
0101
,  // measure 20
1001
0000
1000
0000
1000
0010
0100
0001
,  // measure 21
0010
0000
1001
0000
0001
0010
0100
1000
,  // measure 22
0010
0000
1001
0000
0010
0100
0010
0100
,  // measure 23
0010
0000
1001
0000
1000
0001
1000
0001
,  // measure 24
1000
0000
1001
0000
1000
0100
0001
0100
,  // measure 25
1000
0000
1001
0000
1000
0100
0001
0100
,  // measure 26
1000
0000
1001
0000
0010
1000
0100
0000
,  // measure 27
0110
1001
1100
0101
,  // measure 28
1001
0001
0010
0100
,  // measure 29
0001
0000
1000
0000
0001
0000
0100
0001
,  // measure 30
0010
1000
0010
0100
,  // measure 31
0001
0000
0100
0000
1000
0001
0010
0100
,  // measure 32
0010
0000
0001
0000
1000
1000
0001
0001
,  // measure 33
0010
0000
0100
0000
1000
1000
0001
0001
,  // measure 34
0010
0000
0100
0000
0001
1000
0001
0000
,  // measure 35
0110
0000
1001
0000
0100
0100
0100
0000
,  // measure 36
0010
1001
0100
1001
,  // measure 37
1000
0110
0001
0110
,  // measure 38
0010
1000
0100
0000
0010
0001
0100
0000
,  // measure 39
0010
0100
0010
0100
0010
0000
0110
0000
,  // measure 40
1001
0000
0000
0000
1000
0000
0000
0000
0001
0000
0000
0001
0000
0000
0001
0000
,  // measure 41
0000
0000
0000
0000
0100
0000
0000
0000
1000
0000
0000
1000
0000
0000
1000
0000
,  // measure 42
0000
0000
0000
0000
0010
0000
0000
0000
0100
0000
0000
0100
0000
0000
0100
0000
,  // measure 43
0001
0000
0010
0000
0100
0000
1000
0000
0010
0000
0000
0010
0000
0000
0010
0000
,  // measure 44
0000
0000
0000
0000
1001
0000
0000
0000
1000
0000
0000
0001
0000
0000
1000
0000
,  // measure 45
0000
0000
0000
0000
0110
0000
0000
0000
0010
0000
0000
0100
0000
0000
0010
0000
,  // measure 46
0000
0000
0000
0000
1100
0000
0000
0000
1000
0000
0000
0100
0000
0000
1000
0000
,  // measure 47
0010
0000
0100
0000
0001
0000
1000
0000
0001
0000
0000
0100
0000
0000
0001
0000
,  // measure 48
0010
0010
0100
0100
,  // measure 49
0010
1000
0100
0010
0001
0000
1001
0000
,  // measure 50
0100
0100
0010
0010
,  // measure 51
0100
0001
0010
0100
1000
0000
1001
0000
,  // measure 52
0010
1001
0100
1001
,  // measure 53
1000
1000
0001
0001
0010
0000
1001
0000
,  // measure 54
0100
1001
0010
1001
,  // measure 55
0001
0001
1000
1000
0100
0000
0100
0000
,  // measure 56
1001
0000
0000
0000
0010
1000
0010
1000
,  // measure 57
0010
0100
0010
0100
,  // measure 58
0000
0000
0000
0000
,  // measure 59
0010
0100
0010
0100
0010
0100
0010
0100
,  // measure 60
0000
0000
0000
0000
,  // measure 61
0001
1000
0001
1000
0001
1000
0001
1000
,  // measure 62
0000
0000
0000
0000
,  // measure 63
0010
1000
0010
1000
0010
1000
0010
1000
,  // measure 64
0001
0100
0001
0100
0001
0100
0001
0100
,  // measure 65
0001
0000
0100
1000
0100
0000
0001
0100
,  // measure 66
0001
0000
1000
0000
0010
0000
0100
0100
,  // measure 67
0010
0010
0100
0100
,  // measure 68
0001
0000
1000
0000
0001
0000
0100
0100
,  // measure 69
0010
0010
0110
0110
,  // measure 70
1001
0000
1000
0000
0001
0000
1000
1000
,  // measure 71
0001
0001
1000
0100
,  // measure 72
0010
0000
0010
0000
0001
0000
0100
0100
,  // measure 73
1000
0001
0001
1001
,  // measure 74
1001
0000
0000
0000
,  // measure 75
0110
0000
0000
0000
,  // measure 76
0010
0000
1000
0000
0100
1000
0010
0000
,  // measure 77
0100
0000
0001
0000
0010
0001
0100
0000
,  // measure 78
0010
0000
0100
0000
0001
0010
0100
0000
,  // measure 79
1000
0010
1000
0000
0001
0100
0001
0000
,  // measure 80
1001
0000
0000
0000
1000
0000
0000
0000
0001
0000
0000
0001
0000
0000
0001
0000
,  // measure 81
0000
0000
0000
0000
0100
0000
0000
0000
1000
0000
0000
1000
0000
0000
1000
0000
,  // measure 82
0000
0000
0000
0000
0010
0000
0000
0000
0100
0000
0000
0100
0000
0000
0100
0000
,  // measure 83
0001
0000
0010
0000
0100
0000
1000
0000
0010
0000
0000
0010
0000
0000
0010
0000
,  // measure 84
0100
0100
0100
0100
,  // measure 85
0010
0010
0010
0010
,  // measure 86
1001
0000
0000
0000
;

//---------------dance-single - ----------------
#NOTEDATA:;
#CHARTNAME:;
#STEPSTYPE:dance-single;
#DESCRIPTION:;
#CHARTSTYLE:;
#DIFFICULTY:Hard;
#METER:9;
#RADARVALUES:0.647731,0.803627,0.414408,0.000000,0.174702,558.000000,507.000000,51.000000,0.000000,0.000000,0.000000,0.000000,0.000000,0.000000,0.647731,0.803627,0.414408,0.000000,0.174702,558.000000,507.000000,51.000000,0.000000,0.000000,0.000000,0.000000,0.000000,0.000000;
#CREDIT:;
#NOTES:
// measure 0
0000
0000
0000
0000
,  // measure 1
0000
0000
0000
0000
,  // measure 2
0000
0000
0000
0000
,  // measure 3
0000
0000
0000
0000
,  // measure 4
1001
0000
0010
1000
0001
0100
0010
1000
,  // measure 5
0100
1000
0010
1000
0001
0010
0100
0000
,  // measure 6
1001
0000
0010
1000
0100
0100
1000
0001
,  // measure 7
0100
0000
0000
0010
0000
0000
1000
0000
0000
0100
0000
0000
0100
0000
0000
0000
0000
0000
0010
0000
1000
0000
0001
0000
,  // measure 8
0010
0000
0010
1000
0001
1000
0100
0010
,  // measure 9
0001
1000
0100
0010
0100
1000
0100
0000
,  // measure 10
1001
0000
1001
0000
1001
0000
1000
1000
,  // measure 11
1001
0000
0000
0010
,  // measure 12
0010
0000
0100
0000
0000
0000
0001
0000
1000
0000
0000
0010
0000
0000
0100
0000
,  // measure 13
0010
0000
1000
0000
0000
0000
0001
0000
1000
0000
0000
0100
0000
0000
0010
0000
,  // measure 14
0100
0000
0001
0000
0000
0000
1000
0000
1000
0000
0000
0010
0000
0000
1000
0000
,  // measure 15
0100
0000
0001
0100
0001
0000
1000
0000
0100
0000
0000
0100
0000
0000
0010
0000
,  // measure 16
0000
0000
1001
0000
0000
0000
0010
0000
0100
0000
0000
0001
0000
0000
1000
0000
,  // measure 17
0000
0000
0110
0000
0000
0000
0001
0000
0100
0000
0000
0010
0000
0000
1000
0000
,  // measure 18
0000
0000
1001
0000
0000
0000
0010
0000
0010
0000
0000
0010
0000
0000
1000
0000
,  // measure 19
0001
0000
0100
0010
0100
0000
0010
0000
1000
0000
0000
0001
0000
0000
0010
0000
,  // measure 20
0100
0000
1000
0010
0100
0001
0100
0010
,  // measure 21
1000
0000
0010
0100
0001
0010
0100
1000
,  // measure 22
0001
0000
1000
0010
1000
0010
0100
0001
,  // measure 23
0100
0000
0010
1000
0100
1000
0001
0100
,  // measure 24
0010
0000
1001
0000
0001
0010
0100
1000
,  // measure 25
0010
0000
1001
0000
1000
0010
0100
0001
,  // measure 26
0010
1001
0110
1001
,  // measure 27
0010
0100
0010
0100
0010
0100
0001
1000
,  // measure 28
0100
0000
1001
0000
0001
0100
1000
0001
,  // measure 29
0100
0000
1001
0000
1000
0100
0001
1000
,  // measure 30
0100
0000
1001
0000
1000
0001
0100
0001
,  // measure 31
1000
0000
1001
0000
0001
1000
0100
0000
,  // measure 32
0100
0001
0010
0001
0100
0001
0010
0001
,  // measure 33
0100
0001
0100
1000
0100
0001
0100
1000
,  // measure 34
0100
0001
0010
0001
0100
0001
0010
0001
,  // measure 35
0100
0001
0100
1000
0100
0001
0100
1000
,  // measure 36
0100
0001
1000
0001
0010
0001
1000
0001
,  // measure 37
1001
0110
1001
0110
,  // measure 38
0010
0010
1000
0000
0001
0001
0100
0000
,  // measure 39
0010
0100
0010
0100
0010
0100
0010
0010
,  // measure 40
1000
0000
0001
0000
0000
0000
1000
0000
0100
0000
0000
0010
0000
0000
0001
0000
,  // measure 41
0001
0000
1000
0000
0000
0000
0001
0000
0010
0000
0000
0100
0000
0000
1000
0000
,  // measure 42
0010
0000
0100
0000
0000
0000
0010
0000
0100
0000
0000
0001
0000
0000
1000
0000
,  // measure 43
0001
0000
1000
0100
1000
0000
0001
0000
0100
0000
0000
0100
0000
0000
0100
0000
,  // measure 44
0000
0000
1001
0000
0000
0000
1000
0000
0001
0000
0000
1001
0000
0000
1001
0000
,  // measure 45
0000
0000
0110
0000
0000
0000
0010
0000
0100
0000
0000
0110
0000
0000
0110
0000
,  // measure 46
0000
0000
1001
0000
0000
0000
1000
0000
0010
0000
0000
1010
0000
0000
1000
0000
,  // measure 47
0001
0000
1000
0100
1000
0000
0010
0000
0100
0000
0000
0100
0000
0000
0100
0000
,  // measure 48
1001
0000
0110
0000
0000
0001
0010
0100
,  // measure 49
1000
0000
1000
0010
0100
0001
0100
0000
,  // measure 50
1001
0000
0110
0000
0000
0001
0010
0100
,  // measure 51
1000
0000
1100
0101
,  // measure 52
1001
0000
0110
0000
0000
1000
0010
0100
,  // measure 53
0010
0000
0000
0000
0100
0100
0100
0000
,  // measure 54
1001
0000
0110
0000
0000
0001
0100
0010
,  // measure 55
0100
0000
0000
0000
1000
0100
1000
0010
,  // measure 56
1000
0000
0000
0000
1000
0100
1000
0010
,  // measure 57
1000
0000
0001
0000
1000
0010
0100
0001
,  // measure 58
0000
1000
1000
1000
,  // measure 59
0110
0000
1001
0000
0001
0010
0100
1000
,  // measure 60
0000
0001
0001
0001
,  // measure 61
1000
0010
0100
0001
0010
0100
1000
0001
,  // measure 62
0000
0010
0010
0100
,  // measure 63
0001
0010
0100
1000
0010
0100
0001
1000
,  // measure 64
0001
1000
0010
0100
0010
0001
1000
0010
,  // measure 65
0100
0100
0100
0000
0010
0010
0010
0000
,  // measure 66
1000
1000
0001
0001
,  // measure 67
0001
0010
0100
1000
0010
1000
0100
1000
,  // measure 68
0010
0010
1001
0110
,  // measure 69
1000
0000
0000
0100
1000
0100
1000
0000
0001
0000
0100
0000
0001
0100
0001
0000
,  // measure 70
1000
0110
1100
0101
,  // measure 71
0010
1000
0100
0000
0010
0001
0100
0000
,  // measure 72
0001
0100
1000
0100
0001
0100
1000
0000
,  // measure 73
0100
0100
0001
0001
1000
1000
0100
0000
,  // measure 74
1000
0000
0000
0010
0100
0010
0100
0000
0010
0000
0010
0000
1000
0001
1000
0001
,  // measure 75
1000
0000
0000
0001
0100
0001
0100
0000
0010
0000
0010
0000
0001
1000
0001
1000
,  // measure 76
0001
0000
0100
0000
0000
0000
0001
0000
1000
0000
0000
0010
0000
0000
0100
0000
,  // measure 77
0010
0000
1000
0000
0000
0000
0001
0000
1000
0000
0000
0100
0000
0000
0010
0000
,  // measure 78
0100
0000
0001
0000
0000
0000
1000
0000
1000
0000
0000
0010
0000
0000
1000
0000
,  // measure 79
0100
0000
0001
0100
0001
0000
1000
0000
0100
0000
0000
0100
0000
0000
0010
0000
,  // measure 80
0000
0000
1001
0000
0000
0000
0010
0000
0100
0000
0000
0001
0000
0000
1000
0000
,  // measure 81
0000
0000
0110
0000
0000
0000
0001
0000
0100
0000
0000
0010
0000
0000
1000
0000
,  // measure 82
0000
0000
1001
0000
0000
0000
0010
0000
0010
0000
0000
0010
0000
0000
1000
0000
,  // measure 83
0001
0000
0100
0010
0100
0000
0010
0000
1000
0000
0000
0001
0000
0000
0010
0000
,  // measure 84
0100
0000
0100
0000
0100
0100
0100
0000
,  // measure 85
0010
0000
0010
0000
0010
0010
0010
0000
,  // measure 86
1001
0000
0000
0000
;
