#VERSION:0.83;
#TITLE:Lies;
#SUBTITLE:;
#ARTIST:King Kong & D. Jungle Girls;
#TITLETRANSLIT:;
#SUBTITLETRANSLIT:;
#ARTISTTRANSLIT:;
#GENRE:;
#ORIGIN:;
#CREDIT:;
#BANNER:lies bn2.png;
#BACKGROUND:lies bg.png;
#PREVIEWVID:;
#JACKET:;
#CDIMAGE:;
#DISCIMAGE:;
#LYRICSPATH:;
#CDTITLE:;
#MUSIC:King Kong & D. Jungle Girls - Lies.mp3;
#OFFSET:-0.235000;
#SAMPLESTART:61.645000;
#SAMPLELENGTH:12.000000;
#SELECTABLE:YES;
#BPMS:0.000=125.040;
#STOPS:;
#DELAYS:;
#WARPS:;
#TIMESIGNATURES:0.000=4=4;
#TICKCOUNTS:0.000=4;
#COMBOS:0.000=1;
#SPEEDS:0.000=1.000=0.000=0;
#SCROLLS:0.000=1.000;
#FAKES:;
#LABELS:0.000=Song Start;
#BGCHANGES:;
#KEYSOUNDS:;
#ATTACKS:
;

//---------------dance-single - ----------------
#NOTEDATA:;
#CHARTNAME:;
#STEPSTYPE:dance-single;
#DESCRIPTION:;
#CHARTSTYLE:;
#DIFFICULTY:Easy;
#METER:2;
#RADARVALUES:0.228629,0.259440,0.020005,0.200050,0.000000,160.000000,158.000000,2.000000,20.000000,0.000000,0.000000,0.000000,0.000000,0.000000,0.228629,0.259440,0.020005,0.200050,0.000000,160.000000,158.000000,2.000000,20.000000,0.000000,0.000000,0.000000,0.000000,0.000000;
#CREDIT:;
#NOTES:
// measure 0
0000
0000
0000
0000
,  // measure 1
0000
0000
0000
0000
,  // measure 2
0000
0000
0000
0000
,  // measure 3
0000
0000
0000
0000
,  // measure 4
1000
0100
1000
0100
,  // measure 5
0010
0010
0100
0001
,  // measure 6
1000
0010
1000
0010
,  // measure 7
0100
0100
0010
0001
,  // measure 8
1000
0100
0000
0100
,  // measure 9
0010
0001
0000
1000
,  // measure 10
0010
0100
0010
0100
,  // measure 11
0001
0010
0100
0010
,  // measure 12
0001
1000
0000
0100
,  // measure 13
0010
0100
0000
1000
,  // measure 14
0010
0010
0100
0000
,  // measure 15
1000
1000
0100
0010
,  // measure 16
0001
1000
0100
1000
,  // measure 17
0002
0000
0023
0000
,  // measure 18
1030
1000
0001
1000
,  // measure 19
0001
0010
0100
1000
,  // measure 20
0010
1001
0000
0000
,  // measure 21
0100
0100
1000
0010
,  // measure 22
2000
0000
3200
0000
,  // measure 23
0320
0000
0032
0000
,  // measure 24
0103
1000
0000
1000
,  // measure 25
0001
0010
0100
0010
,  // measure 26
0001
1000
0100
0000
,  // measure 27
0200
0000
0320
0000
,  // measure 28
1030
0100
0001
0100
,  // measure 29
1000
1000
1000
0000
,  // measure 30
0001
0100
1000
0100
,  // measure 31
0001
0010
1000
0100
,  // measure 32
0002
0000
1003
0100
,  // measure 33
1000
0100
0010
0100
,  // measure 34
2000
0000
3200
0000
,  // measure 35
0301
0100
0001
0010
,  // measure 36
0200
0000
1300
0010
,  // measure 37
0100
0001
0010
0001
,  // measure 38
0200
0000
0320
0000
,  // measure 39
1030
0100
1000
0001
,  // measure 40
1000
0100
1000
0100
,  // measure 41
0010
0010
0100
0001
,  // measure 42
1000
0010
1000
0010
,  // measure 43
0100
0100
0010
0001
,  // measure 44
2000
0000
3002
0000
,  // measure 45
1003
1000
0001
0001
,  // measure 46
0020
0000
0230
0000
,  // measure 47
0310
0010
0100
0100
,  // measure 48
0001
0000
1000
0000
,  // measure 49
0001
0000
0001
0000
,  // measure 50
0010
0000
0100
0000
,  // measure 51
1000
0000
0001
0000
1000
0000
2002
3003
;

//---------------dance-single - ----------------
#NOTEDATA:;
#CHARTNAME:;
#STEPSTYPE:dance-single;
#DESCRIPTION:;
#CHARTSTYLE:;
#DIFFICULTY:Medium;
#METER:5;
#RADARVALUES:0.422963,0.415104,0.300075,0.040010,0.015004,296.000000,266.000000,30.000000,4.000000,0.000000,0.000000,0.000000,0.000000,0.000000,0.422963,0.415104,0.300075,0.040010,0.015004,296.000000,266.000000,30.000000,4.000000,0.000000,0.000000,0.000000,0.000000,0.000000;
#CREDIT:;
#NOTES:
// measure 0
0000
0000
0000
0000
,  // measure 1
0000
0000
0000
0000
,  // measure 2
0000
0000
0000
0000
,  // measure 3
0000
0000
0000
0000
,  // measure 4
1000
0100
1000
0000
1000
0100
1000
0000
,  // measure 5
0001
0010
0100
0010
0001
0000
1001
0000
,  // measure 6
0001
0010
0001
0000
0001
0010
0001
0000
,  // measure 7
1000
0100
0010
0100
1000
0000
1001
0000
,  // measure 8
1001
0000
0100
0010
0001
0000
1000
0100
,  // measure 9
0010
0000
0011
0000
0110
0000
1000
0010
,  // measure 10
0000
1000
0001
1000
0100
1000
0010
1000
,  // measure 11
0000
0001
1000
0001
0100
0001
0010
0001
,  // measure 12
1000
0000
0100
0000
0010
0000
0100
1000
,  // measure 13
0010
0000
0100
0000
0100
0000
0001
0010
,  // measure 14
0001
0000
0000
0010
0000
0000
0100
0000
1000
0000
0000
0000
1001
0000
0000
0000
,  // measure 15
0001
0010
0100
1000
0001
0100
0010
1000
,  // measure 16
0001
0000
0110
0000
1000
0100
1000
0000
,  // measure 17
1000
0000
0110
0000
0001
0010
0001
0000
,  // measure 18
1001
0000
0110
0000
1000
0100
0001
0000
,  // measure 19
0100
1000
0010
0100
0001
0010
0100
1000
,  // measure 20
0010
1001
0100
1001
,  // measure 21
1000
0100
1000
0000
0001
0100
0001
0000
,  // measure 22
0010
0011
0100
1100
,  // measure 23
1000
0100
0010
0000
0100
0010
0001
0000
,  // measure 24
0010
1001
0100
1001
,  // measure 25
1000
0010
1000
0000
0001
0100
0001
0000
,  // measure 26
0010
0000
0000
0100
0000
0000
1000
0000
0001
0000
0000
0000
0010
0000
0000
0000
,  // measure 27
1000
0100
0010
0001
1000
0010
0100
0001
,  // measure 28
1000
0100
0010
0001
,  // measure 29
0010
0000
0000
0010
0000
0000
0010
0000
0000
0000
0100
0000
0100
0000
0000
0000
,  // measure 30
1000
0001
0010
0001
,  // measure 31
1000
0001
0010
0001
1000
0001
0010
0001
,  // measure 32
1001
0000
0110
0000
0001
1000
0100
0010
,  // measure 33
0000
0001
0010
0001
0000
1000
0010
0200
,  // measure 34
0001
0001
0010
0310
,  // measure 35
1000
0100
1000
0100
0010
0001
0010
0001
,  // measure 36
1001
0000
0110
0000
0001
1000
0100
0010
,  // measure 37
0000
0001
0010
0001
0000
0100
0010
2000
,  // measure 38
0001
0001
0100
3100
,  // measure 39
0010
0001
0010
0001
1000
0100
1000
0100
,  // measure 40
1000
0100
1000
0000
1000
0100
1000
0000
,  // measure 41
0001
0010
0100
0010
0001
0000
1001
0000
,  // measure 42
0001
0010
0001
0000
0001
0010
0001
0000
,  // measure 43
1000
0100
0010
0100
1000
0000
1001
0000
,  // measure 44
1001
1100
1001
1100
,  // measure 45
0001
0010
0100
0000
0010
0100
1000
0000
,  // measure 46
1001
0101
1001
0101
,  // measure 47
1000
0100
0010
0000
0100
0010
0001
0000
,  // measure 48
1000
1000
1000
1000
,  // measure 49
0100
0100
0010
0010
,  // measure 50
0001
0001
0000
0001
,  // measure 51
0010
0000
0100
0000
2000
0000
0002
3003
;

//---------------dance-single - ----------------
#NOTEDATA:;
#CHARTNAME:;
#STEPSTYPE:dance-single;
#DESCRIPTION:;
#CHARTSTYLE:;
#DIFFICULTY:Hard;
#METER:8;
#RADARVALUES:0.514414,0.570768,0.240060,0.230058,0.275069,360.000000,336.000000,24.000000,23.000000,0.000000,0.000000,0.000000,0.000000,0.000000,0.514414,0.570768,0.240060,0.230058,0.275069,360.000000,336.000000,24.000000,23.000000,0.000000,0.000000,0.000000,0.000000,0.000000;
#CREDIT:;
#NOTES:
// measure 0
0000
0000
0000
0000
,  // measure 1
0000
0000
0000
0000
,  // measure 2
0000
0000
0000
0000
,  // measure 3
0000
0000
0000
0000
,  // measure 4
1001
0010
0100
0000
1001
0000
0001
0100
,  // measure 5
0001
0000
0001
0000
0010
0000
0010
0000
0200
0000
0000
2300
0000
0000
3000
0000
,  // measure 6
0001
0010
0100
0010
0001
1000
0100
1000
,  // measure 7
0100
0000
0100
0000
0010
0000
0010
0000
0002
0000
0000
0203
0000
0000
0300
0000
,  // measure 8
1001
0000
0100
1000
0100
0000
0010
0001
,  // measure 9
0010
0000
0100
0000
1000
0000
0100
0020
0000
0000
0031
0000
1000
0000
0100
1000
,  // measure 10
0000
0000
0100
0001
0100
0001
0100
0000
0010
0000
1000
0100
0000
1000
0100
0000
,  // measure 11
0000
0000
1000
0010
1000
0010
1000
0000
0100
0000
0010
0001
0000
0010
0001
0000
,  // measure 12
1001
0000
1000
0100
0001
0000
0100
1000
,  // measure 13
0010
0000
0100
0000
0010
0000
1000
0100
0000
0000
0010
0000
0001
0000
0010
0000
,  // measure 14
0011
0000
0000
0110
0000
0000
1100
0000
0000
0000
1000
0000
0001
0000
0000
0000
,  // measure 15
1000
0000
1000
0000
0010
0000
0010
0000
0100
0000
0000
0001
0000
0001
0100
0000
,  // measure 16
1010
0000
1000
0000
0010
0000
0100
0020
0000
0000
2030
0000
0000
0000
3000
0000
,  // measure 17
0001
0000
0000
0011
0000
0000
0010
0000
0000
0000
0100
0000
1000
0000
0000
0000
,  // measure 18
1001
0000
0100
0000
1000
0000
0100
0020
0000
0000
0032
0000
0000
0000
0003
0000
,  // measure 19
1000
0000
0100
0000
0010
0000
0100
0000
1000
0001
1000
0001
0100
0010
0100
0010
,  // measure 20
1000
0000
1001
0000
0001
0001
1001
0100
,  // measure 21
0010
0000
0001
0000
0100
0000
0001
0010
0000
0000
0100
0000
0010
0000
0100
1000
,  // measure 22
0000
0000
0001
0010
0100
0010
0001
0000
0100
0000
0010
1000
0000
1000
0001
0000
,  // measure 23
0000
0000
1000
0100
0010
0100
1000
0000
0010
0000
0100
0001
0000
0001
1000
0000
,  // measure 24
0001
0000
0100
0000
1001
0000
0100
0010
,  // measure 25
0001
0000
0100
0000
0010
0000
1000
0001
0000
0000
0100
0000
0010
0000
0100
0000
,  // measure 26
1001
0000
0000
0110
0000
0000
1001
0000
0000
0000
0010
0000
0100
0000
0000
0000
,  // measure 27
0100
0000
0010
0000
0001
1000
0001
1000
0010
0000
1000
0000
0001
0000
0010
0100
,  // measure 28
1000
0000
0100
0000
0010
0000
0100
1000
0000
0000
0010
0000
0000
0000
0100
0000
,  // measure 29
0101
0000
0000
0110
0000
0000
1010
0000
0000
0000
1000
0000
0001
0000
0000
0000
,  // measure 30
0000
0000
0100
0000
0100
0000
0100
0010
0000
0000
1000
0000
0010
0000
0100
0000
,  // measure 31
0001
0000
0010
0000
0100
0000
1000
0000
0001
1000
0001
1000
0001
0010
0001
0010
,  // measure 32
0001
1000
0100
0000
1000
0010
0100
0001
,  // measure 33
0000
0010
0100
0010
0000
0001
0010
0200
,  // measure 34
1000
1000
0001
0301
,  // measure 35
0001
0010
0001
0100
1000
0010
0001
0100
,  // measure 36
1001
0000
0001
0001
0010
0100
0010
0001
,  // measure 37
0000
0010
0100
0010
0000
0001
0100
0020
,  // measure 38
1000
1000
0001
0031
,  // measure 39
1000
0100
1000
0010
0001
0100
1000
0010
,  // measure 40
1000
0100
1000
0000
0100
0000
0000
0000
1000
0100
1000
0000
0100
0000
0000
0000
,  // measure 41
0100
0000
0100
0000
0010
0000
0010
0000
0200
0000
0000
2300
0000
0000
3000
0000
,  // measure 42
0010
0100
0010
0000
1000
0000
0000
0000
0100
0010
0100
0000
1000
0000
0000
0000
,  // measure 43
0001
0000
0010
0000
0100
0000
1000
0000
0200
0000
0000
0320
0000
0000
0030
0000
,  // measure 44
0001
0001
0010
0000
0100
0100
1000
0000
,  // measure 45
0100
0000
0010
0000
0001
0000
0100
0000
2000
0000
0000
3020
0000
0000
0030
0000
,  // measure 46
0001
0100
0001
0010
0100
1000
0100
0010
,  // measure 47
0001
0000
0001
0000
0010
0000
0010
0000
0200
0000
0000
2300
0000
0000
3000
0000
,  // measure 48
0001
0011
0001
0011
,  // measure 49
1000
0000
0100
0000
1000
0000
0100
0000
0020
0000
0000
0230
0000
0000
0300
0000
,  // measure 50
1000
1100
1000
1100
,  // measure 51
1000
0000
0010
0000
0001
0000
0010
0000
0200
0000
0000
2000
0000
0000
3300
0000
;
