#VERSION:0.83;
#TITLE:Libra;
#SUBTITLE:;
#ARTIST:Thomas Howard;
#TITLETRANSLIT:;
#SUBTITLETRANSLIT:;
#ARTISTTRANSLIT:;
#GENRE:;
#ORIGIN:;
#CREDIT:;
#BANNER:Libra - bn.png;
#BACKGROUND:Libra - bg.png;
#PREVIEWVID:;
#JACKET:;
#CDIMAGE:;
#DISCIMAGE:;
#LYRICSPATH:;
#CDTITLE:;
#MUSIC:Thomas Howard - Libra.mp3;
#OFFSET:-0.325000;
#SAMPLESTART:42.279999;
#SAMPLELENGTH:12.000000;
#SELECTABLE:YES;
#BPMS:0.000=180.000,
96.000=90.000,
104.000=180.000,
196.000=179.850;
#STOPS:115.500=1.320;
#DELAYS:;
#WARPS:;
#TIMESIGNATURES:0.000=4=4;
#TICKCOUNTS:0.000=4;
#COMBOS:0.000=1;
#SPEEDS:0.000=1.000=0.000=0;
#SCROLLS:0.000=1.000;
#FAKES:;
#LABELS:0.000=Song Start;
#BGCHANGES:;
#KEYSOUNDS:;
#ATTACKS:
;

//---------------dance-single - ----------------
#NOTEDATA:;
#CHARTNAME:;
#STEPSTYPE:dance-single;
#DESCRIPTION:;
#CHARTSTYLE:;
#DIFFICULTY:Easy;
#METER:5;
#RADARVALUES:0.368798,0.447085,0.113137,0.123423,0.010285,251.000000,240.000000,11.000000,12.000000,0.000000,0.000000,0.000000,0.000000,0.000000,0.368798,0.447085,0.113137,0.123423,0.010285,251.000000,240.000000,11.000000,12.000000,0.000000,0.000000,0.000000,0.000000,0.000000;
#CREDIT:;
#NOTES:
// measure 0
0000
0000
0000
0000
,  // measure 1
0000
0000
0000
0000
,  // measure 2
0000
0000
0000
0000
,  // measure 3
0000
0000
0000
0000
,  // measure 4
0000
0000
0100
0000
0000
0000
0100
0010
,  // measure 5
0000
1000
0000
0001
,  // measure 6
0000
0000
0010
0000
0000
0000
0010
0100
,  // measure 7
0000
0100
0010
0001
,  // measure 8
1001
0000
0100
0000
0000
0000
0010
0001
,  // measure 9
0000
1000
0000
0001
0000
0000
0010
0000
,  // measure 10
0000
0000
0001
0000
1000
0000
0100
1000
,  // measure 11
0000
0010
0000
0100
0000
0001
0000
0000
,  // measure 12
0000
0000
1000
0000
0001
0000
0100
0010
,  // measure 13
0000
0010
0100
0000
0000
0000
1000
0000
,  // measure 14
0000
0000
0001
0000
0100
0000
0001
1000
,  // measure 15
0000
0100
0000
0010
0000
0100
1000
0000
,  // measure 16
1001
0001
0100
0001
,  // measure 17
1000
0100
0010
0001
,  // measure 18
1000
0100
1000
0010
,  // measure 19
0100
0100
0010
0010
,  // measure 20
1000
0000
0001
0000
1000
0000
0000
0110
,  // measure 21
0000
0000
0001
0000
1000
0000
0000
0110
,  // measure 22
0000
0000
0100
0000
0010
0000
0000
0001
,  // measure 23
0000
0001
0000
1000
0000
0001
0000
0010
,  // measure 24
0002
0000
0000
0000
2003
0000
0000
0000
3020
0000
0000
0130
0000
0000
0000
0000
,  // measure 25
0002
0000
0000
0000
0000
0000
1003
0000
0200
0000
0000
0310
0000
0000
0000
0000
,  // measure 26
0001
0000
1000
0000
0000
0100
0000
0010
,  // measure 27
0000
0001
0000
1000
0000
0001
0000
0000
,  // measure 28
1001
0000
0010
0100
0000
0100
0000
0110
,  // measure 29
1000
1000
0001
0001
,  // measure 30
2000
0000
0000
3200
0000
0000
0310
0000
,  // measure 31
0001
0100
1000
0100
,  // measure 32
0001
1000
0000
0200
0000
0000
0310
0000
,  // measure 33
0001
0001
1000
1000
,  // measure 34
0001
0100
0000
0010
0000
1000
0000
0100
,  // measure 35
0010
0001
0100
1000
,  // measure 36
0100
0000
0001
0000
1000
0001
0000
0000
,  // measure 37
0010
0010
0100
0100
,  // measure 38
2000
0000
0000
3002
0000
0000
0103
0000
,  // measure 39
0010
1000
0100
0001
,  // measure 40
0010
1000
0000
0110
0000
0000
0110
0000
,  // measure 41
0001
0000
1000
0000
0010
0000
0100
0010
,  // measure 42
0000
1000
0000
0000
0100
0000
0100
0000
,  // measure 43
1000
0000
0001
0000
0010
0000
0100
0010
,  // measure 44
0000
0001
0000
1000
0000
0010
0100
0000
,  // measure 45
1001
0000
0001
0100
1000
0000
0100
0001
,  // measure 46
0000
1000
0000
0000
0100
0000
0100
0000
,  // measure 47
0010
0000
0001
1000
0001
1000
0000
0100
,  // measure 48
0000
0100
0000
0100
0000
0100
0010
0000
,  // measure 49
1001
0100
0001
0100
,  // measure 50
1000
0100
1000
0001
,  // measure 51
1000
0100
0001
0100
,  // measure 52
1000
0001
0100
0001
,  // measure 53
0010
0010
0010
0100
,  // measure 54
1000
1000
1000
0010
,  // measure 55
0100
0100
0100
0001
,  // measure 56
0010
0001
0100
0010
,  // measure 57
1000
0000
0000
1000
0000
0000
1000
0000
,  // measure 58
0001
0000
0000
0001
0000
0000
0001
0000
,  // measure 59
0010
0000
0000
0010
0000
0000
0010
0000
,  // measure 60
0100
0000
0000
0100
0000
0000
0100
0000
,  // measure 61
1000
0000
0000
0001
0000
0000
1000
0000
,  // measure 62
0010
0000
0000
0100
0000
0000
0010
0000
,  // measure 63
1000
0000
0000
0001
0000
0000
0100
0000
,  // measure 64
0010
1000
0001
0000
1000
0001
0000
1000
,  // measure 65
0001
0000
1000
0001
0000
1000
0001
0000
,  // measure 66
2002
0000
0000
0000
3003
0000
0010
0010
;

//---------------dance-single - ----------------
#NOTEDATA:;
#CHARTNAME:;
#STEPSTYPE:dance-single;
#DESCRIPTION:;
#CHARTSTYLE:;
#DIFFICULTY:Medium;
#METER:6;
#RADARVALUES:0.431979,0.481476,0.287986,0.133708,0.010285,294.000000,266.000000,28.000000,13.000000,0.000000,0.000000,0.000000,0.000000,0.000000,0.431979,0.481476,0.287986,0.133708,0.010285,294.000000,266.000000,28.000000,13.000000,0.000000,0.000000,0.000000,0.000000,0.000000;
#CREDIT:;
#NOTES:
// measure 0
0000
0000
0000
0000
,  // measure 1
0000
0000
0000
0000
,  // measure 2
0000
0000
0000
0000
,  // measure 3
0000
0000
0000
0000
,  // measure 4
1000
0000
1001
0000
0000
0001
0010
0000
,  // measure 5
0001
0000
1001
0000
0000
1000
0010
0000
,  // measure 6
0100
0000
1001
0000
0000
0100
0010
0000
,  // measure 7
0100
0000
1001
0000
0010
0010
0010
0000
,  // measure 8
1001
0000
0001
0000
0100
0000
0100
0010
,  // measure 9
0000
1000
0000
0001
0000
0000
0100
0000
,  // measure 10
0001
0000
1000
0000
0100
0000
0100
0010
,  // measure 11
0000
0001
0000
1000
0000
1000
0000
0000
,  // measure 12
0001
0000
0100
0000
1000
0000
0010
0001
,  // measure 13
0000
1000
0000
0000
0100
0000
0100
0000
,  // measure 14
0010
0000
1000
0000
0100
0000
0001
0010
,  // measure 15
0000
0001
0000
0100
0000
0010
1000
0000
,  // measure 16
1001
0100
1000
0100
,  // measure 17
0001
0010
1000
0010
,  // measure 18
0001
0000
1000
0100
1000
0001
0000
0010
,  // measure 19
0000
0100
0000
1000
0000
0001
0000
0000
,  // measure 20
1000
0000
0001
0000
0010
0100
0010
0100
,  // measure 21
0000
0000
1000
0000
0010
0100
0010
0100
,  // measure 22
0000
0000
0100
0010
1000
0000
0100
0010
,  // measure 23
0000
0110
0000
1001
0000
1001
0000
1000
,  // measure 24
0002
0000
0000
0000
2003
0000
0000
0000
3020
0000
0000
0130
0000
0000
0000
0000
,  // measure 25
0002
0000
0000
0000
1003
0000
0100
0000
0020
0000
0000
0031
0000
0000
1000
0000
,  // measure 26
0001
0000
0100
1000
0000
0100
0000
0001
,  // measure 27
0000
0010
0000
0100
0000
1000
0000
0000
,  // measure 28
1001
0000
1000
0001
0000
1001
0000
1001
,  // measure 29
2000
0000
0000
3002
0000
0000
0103
0000
,  // measure 30
0010
1010
0100
0101
,  // measure 31
0001
0010
0100
1000
,  // measure 32
0100
0010
0010
0100
0000
0000
0100
0000
,  // measure 33
0002
0000
0000
2003
0000
0000
3100
0000
,  // measure 34
0010
0011
0100
1100
,  // measure 35
1000
0010
0100
0001
,  // measure 36
1000
0100
1000
0000
0001
1000
0000
0001
,  // measure 37
0020
0000
0000
0230
0000
0000
1300
0000
,  // measure 38
0001
0110
1000
0110
,  // measure 39
0001
0010
0100
0000
1000
0010
0100
0000
,  // measure 40
0001
1000
0000
0110
0000
0000
0110
0000
,  // measure 41
1001
0000
1000
0000
0001
0000
0100
0010
,  // measure 42
0000
0100
0000
0000
0001
0000
0001
0000
,  // measure 43
0010
0000
0001
0000
1000
0000
0100
0010
,  // measure 44
0000
0001
0000
1000
0000
0001
0100
0000
,  // measure 45
1001
0000
0010
0000
0001
1000
0001
0010
,  // measure 46
0000
0100
0000
0000
1000
0000
1000
0000
,  // measure 47
0110
0000
0001
0100
0001
1000
0000
0001
,  // measure 48
0000
0001
0000
0010
0000
0100
0010
0000
,  // measure 49
1001
0100
0010
0001
,  // measure 50
1000
0001
0100
0010
,  // measure 51
1000
0100
0001
0100
,  // measure 52
1000
0010
0001
0010
,  // measure 53
1000
0000
1000
0000
0010
0000
0000
1001
,  // measure 54
0000
0001
0100
0010
,  // measure 55
0100
0000
0100
0000
0001
0000
0000
0110
,  // measure 56
0000
0000
1000
0000
0010
0010
0010
0000
,  // measure 57
1000
0000
0000
0100
0000
0000
0001
0000
,  // measure 58
0010
0000
0000
0001
0000
0000
0100
0000
,  // measure 59
1000
0000
0000
0010
0000
0000
0100
0000
,  // measure 60
0001
0000
0000
0010
0000
0000
0100
0000
,  // measure 61
1000
0000
0001
1000
0000
0000
0010
0000
,  // measure 62
0100
0000
0010
0100
0000
0000
0001
0000
,  // measure 63
1000
0000
0100
0010
0000
0001
1000
0000
,  // measure 64
0001
0100
0001
0000
1000
0100
0000
0001
,  // measure 65
0100
0000
1000
0100
0000
0001
0100
0000
,  // measure 66
2002
0000
0000
0000
3003
0000
0010
0110
;

//---------------dance-single - ----------------
#NOTEDATA:;
#CHARTNAME:;
#STEPSTYPE:dance-single;
#DESCRIPTION:;
#CHARTSTYLE:;
#DIFFICULTY:Hard;
#METER:8;
#RADARVALUES:0.573033,0.619041,0.647968,0.123423,0.015428,390.000000,327.000000,63.000000,12.000000,0.000000,0.000000,0.000000,0.000000,0.000000,0.573033,0.619041,0.647968,0.123423,0.015428,390.000000,327.000000,63.000000,12.000000,0.000000,0.000000,0.000000,0.000000,0.000000;
#CREDIT:;
#NOTES:
// measure 0
0000
0000
0000
0000
,  // measure 1
0000
0000
0000
0000
,  // measure 2
0000
0000
0000
0000
,  // measure 3
0000
0000
0000
0000
,  // measure 4
0010
0000
1000
0000
0001
0100
0010
0100
,  // measure 5
0000
0100
0001
0000
1000
0100
0001
0000
,  // measure 6
0100
1000
0001
0000
0100
0010
0100
0010
,  // measure 7
0000
1000
0001
0000
0100
0100
0100
0000
,  // measure 8
1010
0000
0001
0000
1000
0100
1000
0001
,  // measure 9
0000
1100
0000
1100
0000
0000
0010
0000
,  // measure 10
0001
0000
0100
0010
1000
0000
1000
0010
,  // measure 11
0000
0110
0000
0101
0000
0010
1000
0000
,  // measure 12
0001
0000
1000
0100
0001
0100
1000
0001
,  // measure 13
0000
0110
0000
0000
1000
0000
0110
0000
,  // measure 14
0001
0000
1000
0001
0010
0000
0001
0100
,  // measure 15
0000
1010
0000
0101
0000
0010
0100
0000
,  // measure 16
1001
0000
1000
0100
0010
0100
1000
0002
,  // measure 17
0000
0203
0000
0310
1000
0000
0110
0000
,  // measure 18
1000
0000
0001
0010
0100
0010
0001
2000
,  // measure 19
0000
3020
0000
0130
0001
0000
0110
0000
,  // measure 20
1001
0000
0001
0100
0010
0100
0100
0110
,  // measure 21
0000
0000
1000
0100
0010
0100
0100
0110
,  // measure 22
0000
0000
0001
0100
1000
0000
0010
0001
,  // measure 23
0000
1001
0000
0011
0000
0110
0000
0100
,  // measure 24
1000
0000
0000
0010
0100
0000
0001
0000
0010
0000
0000
0100
0000
0000
1000
0000
,  // measure 25
0002
0000
0000
0000
0103
0000
0010
0000
2000
0000
0000
3001
0000
0000
0010
0000
,  // measure 26
0001
0100
0010
1000
0000
0001
0000
1001
,  // measure 27
0000
0011
0000
0110
0000
1100
0000
0000
,  // measure 28
1001
0000
0001
0010
0000
0101
0000
1010
,  // measure 29
1001
0000
0010
0001
0100
0000
0101
0000
,  // measure 30
0010
1000
0010
0000
0100
0001
0100
0000
,  // measure 31
0010
1001
0100
1100
,  // measure 32
0001
0100
0010
0100
0001
1000
0100
0000
,  // measure 33
1001
0000
0010
1000
0100
0000
0110
0000
,  // measure 34
0001
1000
0000
0100
0010
0001
0100
0000
,  // measure 35
0001
1000
0100
1000
0010
0100
0001
0000
,  // measure 36
1000
0100
0001
0000
0100
1000
0000
0001
,  // measure 37
1001
0000
0010
0100
0000
1000
0001
0000
,  // measure 38
0100
0010
1000
0100
0010
0100
1000
0001
,  // measure 39
0010
1001
0100
1001
,  // measure 40
1000
0001
0000
0110
0000
0000
0110
0000
,  // measure 41
1000
0000
0001
0010
0001
0100
0100
0010
,  // measure 42
0000
1010
0000
0000
0010
0000
0100
0000
,  // measure 43
0001
0000
1000
0010
1000
0100
0100
0010
,  // measure 44
0000
0011
0000
1000
0000
1000
0100
1000
,  // measure 45
0001
0000
0110
0000
0001
0100
1000
0010
,  // measure 46
0000
1001
0000
0000
0100
0000
0100
0000
,  // measure 47
0010
0000
1000
0001
0100
0001
0000
0110
,  // measure 48
0000
0011
0000
1100
0000
1000
0001
0000
,  // measure 49
2001
0100
0010
3001
,  // measure 50
1002
0100
0010
1003
,  // measure 51
2001
0010
0100
3001
,  // measure 52
1002
0010
0100
1003
,  // measure 53
1001
0000
0010
0000
0001
0100
0001
0010
,  // measure 54
0000
0001
1000
0000
0100
0000
0100
0000
,  // measure 55
1000
0000
0010
0000
1000
0100
1000
0010
,  // measure 56
0000
1000
0001
0000
0010
0010
0010
0000
,  // measure 57
1001
0000
1000
0001
0000
0001
0010
0000
,  // measure 58
0011
0000
0010
0100
0000
0100
1000
0000
,  // measure 59
1001
0000
0001
1000
0000
1000
0010
0000
,  // measure 60
1010
0000
0010
0100
0000
0100
0001
0000
,  // measure 61
1001
0000
0001
0100
0000
0010
1000
0000
,  // measure 62
0110
0000
0100
0001
0000
1000
0010
0000
,  // measure 63
1001
0000
0001
0100
0000
1000
0100
0000
,  // measure 64
0001
0010
0011
0000
0100
0110
0000
0100
,  // measure 65
1100
0000
1000
1001
0000
0010
0110
0000
,  // measure 66
2002
0000
0000
0000
3003
0000
1001
1001
;
