#VERSION:0.83;
#TITLE:Let The Beat Control Your Body;
#SUBTITLE:;
#ARTIST:2 Unlimited;
#TITLETRANSLIT:;
#SUBTITLETRANSLIT:;
#ARTISTTRANSLIT:;
#GENRE:;
#ORIGIN:;
#CREDIT:;
#BANNER:ltbcyb bn.png;
#BACKGROUND:ltbcyb bg.PNG;
#PREVIEWVID:;
#JACKET:;
#CDIMAGE:;
#DISCIMAGE:;
#LYRICSPATH:;
#CDTITLE:;
#MUSIC:Let the Beat Control Your Body.mp3;
#OFFSET:-0.050000;
#SAMPLESTART:50.615002;
#SAMPLELENGTH:12.000000;
#SELECTABLE:YES;
#BPMS:0.000=142.425;
#STOPS:;
#DELAYS:;
#WARPS:;
#TIMESIGNATURES:0.000=4=4;
#TICKCOUNTS:0.000=4;
#COMBOS:0.000=1;
#SPEEDS:0.000=1.000=0.000=0;
#SCROLLS:0.000=1.000;
#FAKES:;
#LABELS:0.000=Song Start;
#BGCHANGES:;
#KEYSOUNDS:;
#ATTACKS:
;

//---------------dance-single - ----------------
#NOTEDATA:;
#CHARTNAME:;
#STEPSTYPE:dance-single;
#DESCRIPTION:;
#CHARTSTYLE:;
#DIFFICULTY:Easy;
#METER:3;
#RADARVALUES:0.291963,0.347647,0.094813,0.305508,0.000000,194.000000,185.000000,9.000000,29.000000,0.000000,0.000000,0.000000,0.000000,0.000000,0.291963,0.347647,0.094813,0.305508,0.000000,194.000000,185.000000,9.000000,29.000000,0.000000,0.000000,0.000000,0.000000,0.000000;
#CREDIT:;
#NOTES:
// measure 0
0000
0000
0000
0000
,  // measure 1
0000
0000
0000
0000
,  // measure 2
0000
0000
0000
0000
,  // measure 3
0000
0000
0000
0000
,  // measure 4
2000
3001
0020
0030
,  // measure 5
0100
1000
0010
0001
,  // measure 6
0200
1300
0002
0003
,  // measure 7
0010
1000
0100
0001
,  // measure 8
0020
0130
0002
0003
,  // measure 9
0010
0100
0010
0001
,  // measure 10
2000
3010
0200
0300
,  // measure 11
0010
1000
0001
1001
,  // measure 12
0010
1000
0010
0001
,  // measure 13
0100
1000
0100
0001
,  // measure 14
0010
1000
0010
0100
,  // measure 15
1000
0001
0010
1000
,  // measure 16
1000
0100
1000
0010
,  // measure 17
0100
0001
0100
0010
,  // measure 18
1000
0001
0010
0001
,  // measure 19
1000
0100
0010
0100
,  // measure 20
2000
3000
0020
0030
,  // measure 21
0200
0300
0002
0003
,  // measure 22
0200
0301
2000
3001
,  // measure 23
0001
0010
0100
1000
,  // measure 24
0002
1003
0020
0030
,  // measure 25
0200
0301
2000
3000
,  // measure 26
0100
0000
1000
0000
,  // measure 27
0010
0010
0100
0010
,  // measure 28
1000
0110
0000
1000
,  // measure 29
0010
0100
0010
1000
,  // measure 30
1001
1000
0100
0010
,  // measure 31
0001
0010
0001
0100
,  // measure 32
0010
1000
0001
0010
,  // measure 33
0002
0000
2003
3100
,  // measure 34
1001
0010
0100
0010
,  // measure 35
0002
0000
2003
0000
,  // measure 36
3100
0100
0010
1001
,  // measure 37
0010
0100
0001
0010
,  // measure 38
1001
0010
1000
0001
,  // measure 39
0100
0010
0100
0001
,  // measure 40
1000
0010
0100
1000
,  // measure 41
0002
0013
0200
1300
,  // measure 42
0010
1001
0010
0001
,  // measure 43
0100
1001
0100
1000
,  // measure 44
0100
1001
0010
0001
,  // measure 45
1000
0000
0100
0000
0010
0010
0010
0000
,  // measure 46
0002
2003
3100
0000
,  // measure 47
1000
0001
0010
0100
,  // measure 48
2000
3002
0103
0000
,  // measure 49
0010
0000
1000
0000
0001
0000
0010
0100
,  // measure 50
1000
0010
0100
0000
,  // measure 51
0001
0001
0010
0100
,  // measure 52
1000
1000
0010
0000
,  // measure 53
0100
0000
0001
0000
0010
0000
0100
0100
,  // measure 54
2000
0000
0000
3000
,  // measure 55
0001
0000
0000
0000
;

//---------------dance-single - ----------------
#NOTEDATA:;
#CHARTNAME:;
#STEPSTYPE:dance-single;
#DESCRIPTION:;
#CHARTSTYLE:;
#DIFFICULTY:Medium;
#METER:5;
#RADARVALUES:0.385271,0.405588,0.105347,0.010535,0.000000,256.000000,246.000000,10.000000,1.000000,0.000000,0.000000,0.000000,0.000000,0.000000,0.385271,0.405588,0.105347,0.010535,0.000000,256.000000,246.000000,10.000000,1.000000,0.000000,0.000000,0.000000,0.000000,0.000000;
#CREDIT:;
#NOTES:
// measure 0
0000
0000
0000
0000
,  // measure 1
0000
0000
0000
0000
,  // measure 2
0000
0000
0000
0000
,  // measure 3
0000
0000
0000
0000
,  // measure 4
1000
0000
0100
0000
0010
0100
0000
1000
,  // measure 5
0000
1000
0000
0010
0000
0010
0100
0000
,  // measure 6
0001
0000
0010
0000
0100
0010
0000
0001
,  // measure 7
0000
0001
0000
0010
0000
0100
1000
0000
,  // measure 8
0001
0000
0010
0000
0001
0100
0000
0010
,  // measure 9
0000
1000
0000
0100
0000
0010
0001
0000
,  // measure 10
0010
0000
0010
0000
0100
1000
0000
0001
,  // measure 11
0000
0001
0000
0010
0000
0010
0100
0000
,  // measure 12
1001
0000
0001
0000
0010
0001
0010
0000
,  // measure 13
0100
0000
1000
0000
0001
0100
0001
0000
,  // measure 14
0010
0000
0100
0000
1000
0100
1000
0000
,  // measure 15
0010
0000
0100
0000
0001
0010
0001
0000
,  // measure 16
0100
0001
1000
0000
0100
0000
0010
0000
,  // measure 17
0001
1000
0100
0000
0010
0000
0001
0000
,  // measure 18
1000
0100
0010
0000
0001
0000
1000
0000
,  // measure 19
0010
0100
0001
0000
0010
0000
0100
0000
,  // measure 20
1001
0000
0001
0000
0001
0010
0000
0001
,  // measure 21
0000
0001
0000
0001
0010
0000
0100
0000
,  // measure 22
1001
0000
1000
0000
1000
0100
0000
1000
,  // measure 23
0000
1000
0000
0010
0000
0010
0100
0000
,  // measure 24
0001
0000
1000
0000
0001
0010
0000
0001
,  // measure 25
0000
1000
0000
0010
0100
0000
0001
0000
,  // measure 26
0110
0000
1000
0000
0100
0010
0000
0001
,  // measure 27
0000
0001
0000
0010
0000
0010
0100
0000
,  // measure 28
1001
0000
0100
0000
0001
0010
0001
0000
,  // measure 29
1000
1000
1000
0000
0001
0001
0001
0000
,  // measure 30
1001
0000
1100
0000
0010
0000
0001
0010
,  // measure 31
0000
0100
0000
1000
0001
0000
0010
0100
,  // measure 32
1000
0000
0001
0000
0001
1000
0000
0010
,  // measure 33
0000
0100
0000
1000
0000
0001
0010
0000
,  // measure 34
1001
0000
0011
0000
0100
0000
0010
0001
,  // measure 35
0000
0100
0000
0010
1000
0000
0001
0100
,  // measure 36
1000
0000
0100
0000
0100
0010
0000
1000
,  // measure 37
0000
0100
0000
0010
0000
0001
0000
0010
,  // measure 38
0100
0000
1001
0000
0001
0000
0100
0010
,  // measure 39
0000
0010
0000
0010
1000
0000
0001
0000
,  // measure 40
0010
0000
0010
0000
0010
0100
0000
1000
,  // measure 41
0000
1000
0000
0010
0000
0010
1000
0000
,  // measure 42
0001
0100
0001
0000
1000
0100
1000
0000
,  // measure 43
0001
0010
0001
0000
1000
0010
1000
0000
,  // measure 44
0001
0010
0100
0000
1000
0010
0100
0010
,  // measure 45
0000
1000
0000
0001
0000
0001
0010
0001
,  // measure 46
1000
0000
0100
0000
0010
0001
0000
0100
,  // measure 47
0000
0100
0000
0010
0000
0010
1000
0010
,  // measure 48
0100
0000
0001
0000
0010
0010
0000
1000
,  // measure 49
0000
0001
0000
0010
0000
0010
0100
0010
,  // measure 50
0001
0000
1000
0100
0010
0001
0000
0100
,  // measure 51
0000
0100
0000
0010
0000
0010
1000
0010
,  // measure 52
0100
0000
0001
0000
0010
0010
0000
0100
,  // measure 53
0000
0100
0000
0010
0000
0010
0100
0001
,  // measure 54
2000
0000
0000
3000
,  // measure 55
0001
0000
0000
0000
;

//---------------dance-single - ----------------
#NOTEDATA:;
#CHARTNAME:;
#STEPSTYPE:dance-single;
#DESCRIPTION:;
#CHARTSTYLE:;
#DIFFICULTY:Hard;
#METER:7;
#RADARVALUES:0.484598,0.492499,0.179091,0.063208,0.000000,322.000000,305.000000,17.000000,6.000000,0.000000,0.000000,0.000000,0.000000,0.000000,0.484598,0.492499,0.179091,0.063208,0.000000,322.000000,305.000000,17.000000,6.000000,0.000000,0.000000,0.000000,0.000000,0.000000;
#CREDIT:;
#NOTES:
// measure 0
0000
0000
0000
0000
,  // measure 1
0000
0000
0000
0000
,  // measure 2
0000
0000
0000
0000
,  // measure 3
0000
0000
0000
0000
,  // measure 4
0100
0000
1000
0000
0010
0100
0000
0001
,  // measure 5
0000
0001
0000
1000
0000
1000
0100
0010
,  // measure 6
0001
0000
0100
0000
0010
1000
0000
0010
,  // measure 7
0000
0010
0000
0100
0000
0100
0001
0010
,  // measure 8
0100
1000
0100
0000
1000
0010
0000
0100
,  // measure 9
0000
0100
0000
0001
0000
0001
0100
0010
,  // measure 10
1000
0100
1000
0000
0010
0100
0000
0010
,  // measure 11
0000
0010
0000
1000
0000
1000
0100
1000
,  // measure 12
0010
0100
0010
1000
0100
0010
0001
0010
,  // measure 13
0100
1000
0001
0100
0010
1000
0001
0010
,  // measure 14
0100
0100
1000
0010
0100
0001
0001
0010
,  // measure 15
0100
0100
1000
0010
0010
0100
0100
0000
,  // measure 16
0001
0010
0001
0100
0010
1000
0010
0100
,  // measure 17
0001
0100
0001
0010
0100
1000
0100
0001
,  // measure 18
0100
0000
1000
0010
0100
0010
1000
0000
,  // measure 19
0001
0010
1000
0100
0010
0001
0100
1000
,  // measure 20
0010
0000
1001
0000
0001
0001
0010
0100
,  // measure 21
0010
0000
1001
0000
1000
0100
0010
0001
,  // measure 22
0010
0000
1001
0000
1000
0001
0010
0100
,  // measure 23
0010
0100
0001
1000
0100
1000
0010
0100
,  // measure 24
0001
1000
0100
0000
1000
0010
0100
0010
,  // measure 25
0000
1000
0000
0001
0010
0100
0010
0100
,  // measure 26
1000
0100
0001
0000
0010
0100
0000
0001
,  // measure 27
0000
0001
0000
0010
0000
0010
0001
0010
,  // measure 28
0100
0000
1010
0000
0001
0010
0001
0010
,  // measure 29
0100
1000
1010
0000
0100
0010
0101
0000
,  // measure 30
1000
0010
0001
0000
1000
0000
0100
0010
,  // measure 31
0000
0011
0000
1000
0100
0000
0010
0100
,  // measure 32
1000
0000
0010
0000
0100
0001
0000
0010
,  // measure 33
0000
0100
0000
1000
0000
1000
0100
0010
,  // measure 34
1001
0000
0010
0100
0001
0000
0100
0010
,  // measure 35
0000
1010
0000
0001
0100
0000
0010
0000
,  // measure 36
1001
0000
1100
0000
0001
1000
0000
0010
,  // measure 37
0000
0100
0000
0001
0000
0100
0000
0010
,  // measure 38
1001
0000
1000
0000
0001
0001
0200
0301
,  // measure 39
0000
0001
0000
0001
2000
3010
0100
0020
,  // measure 40
1030
0000
0001
0000
0010
0001
2000
3010
,  // measure 41
0100
0001
0010
0001
1000
0100
0010
0000
,  // measure 42
0001
0010
0001
0010
0010
0010
0100
1000
,  // measure 43
0001
0010
0001
0010
0010
0010
0100
1000
,  // measure 44
0001
0100
0001
0100
0100
0100
0010
1000
,  // measure 45
0000
0100
0000
0110
0000
0001
0010
0001
,  // measure 46
0100
0000
1001
0000
1000
0001
0000
0100
,  // measure 47
0000
0100
0000
0010
0000
0010
1000
0001
,  // measure 48
0010
0000
1001
0000
0001
1000
0000
0010
,  // measure 49
0000
0010
0000
1000
0000
1000
0100
1000
,  // measure 50
0001
0010
0100
1000
0100
0100
0000
0001
,  // measure 51
0000
0100
0000
1000
0000
0010
0100
0010
,  // measure 52
1000
0001
0010
0100
0010
0001
0000
0100
,  // measure 53
0000
0100
0000
0010
0000
0010
1000
0001
,  // measure 54
2002
0000
0000
3003
,  // measure 55
1001
0000
0000
0000
;
