#TITLE:Let The Beat Control Your Body;
#SUBTITLE:(B4 ZA Beat Speed Mix);
#ARTIST:2 Unlimited;
#TITLETRANSLIT:;
#SUBTITLETRANSLIT:;
#ARTISTTRANSLIT:;
#GENRE:;
#CREDIT:;
#BANNER:ltbcybb4zabeatmix bn.png;
#BACKGROUND:ltbcybb4zabeatmix bg.png;
#LYRICSPATH:;
#CDTITLE:;
#MUSIC:2 Unlimited - Let The Beat Control Your Body (B4 ZA Beat Spe.mp3;
#OFFSET:-0.460000;
#SAMPLESTART:63.169998;
#SAMPLELENGTH:12.000000;
#SELECTABLE:YES;
#BPMS:0.000000=172.199997
;
#STOPS:
;
#BGCHANGES:;
#KEYSOUNDS:;
#ATTACKS:;

//---------------dance-single - ----------------
#NOTES:
     dance-single:
     :
     Easy:
     4:
     0.445626,0.499598,0.507038,0.011023,0.000000,283.000000,237.000000,46.000000,1.000000,0.000000,0.000000,0.445626,0.499598,0.507038,0.011023,0.000000,283.000000,237.000000,46.000000,1.000000,0.000000,0.000000:
// measure 0
0000
0000
0000
0000
,  // measure 1
0000
0000
0000
0000
,  // measure 2
0000
0000
0000
0000
,  // measure 3
0000
0000
0000
0000
,  // measure 4
1000
0001
1000
1000
,  // measure 5
0100
0100
0010
0010
,  // measure 6
0100
1001
0010
0010
,  // measure 7
0001
0001
0010
0100
,  // measure 8
0010
0010
0010
0010
,  // measure 9
1001
0000
0110
0000
,  // measure 10
1001
1010
0001
0010
,  // measure 11
0001
1000
0100
0010
,  // measure 12
0011
0010
0001
0100
,  // measure 13
0010
1000
0100
0100
,  // measure 14
1001
0011
1000
0100
,  // measure 15
0010
0100
1000
0010
,  // measure 16
1010
0001
1000
0110
,  // measure 17
1001
0010
1000
0100
,  // measure 18
1001
0100
0100
0110
,  // measure 19
1001
1000
0100
0010
,  // measure 20
0100
0100
0001
0010
,  // measure 21
0011
0010
0100
0001
,  // measure 22
0100
1000
0010
1010
,  // measure 23
1001
0100
0010
0100
,  // measure 24
1000
0001
0011
1010
,  // measure 25
1001
0000
0100
0000
0010
0000
0000
0100
,  // measure 26
0000
0100
0000
0010
0000
0010
1000
0000
,  // measure 27
0001
0001
0010
1000
,  // measure 28
0100
0100
1000
0001
,  // measure 29
0010
0100
0010
0001
,  // measure 30
0010
0100
1000
0100
,  // measure 31
0001
0011
1000
1100
,  // measure 32
0010
1010
0100
0101
,  // measure 33
1001
0100
0001
0110
,  // measure 34
1000
0010
0001
0100
,  // measure 35
1001
0100
1000
0100
,  // measure 36
1001
0100
0001
0100
,  // measure 37
1001
0100
1000
0010
,  // measure 38
1001
0100
1000
0001
,  // measure 39
1000
0100
0001
0010
,  // measure 40
1000
0100
0001
0010
,  // measure 41
0001
0100
1000
0010
,  // measure 42
0001
0110
1000
0110
,  // measure 43
0001
1000
0001
1000
,  // measure 44
0110
0000
0110
0000
,  // measure 45
1001
0010
0010
0100
,  // measure 46
0001
0010
0100
0100
,  // measure 47
1000
0011
1000
0100
,  // measure 48
0010
1100
0010
0001
,  // measure 49
1001
0010
0010
0100
,  // measure 50
0010
0001
0110
1100
,  // measure 51
1001
0000
0001
0000
1000
0100
0000
0010
,  // measure 52
0000
0100
0000
1000
0000
0100
0000
1000
,  // measure 53
0000
0010
0001
0110
,  // measure 54
1001
0010
0100
1000
,  // measure 55
0001
0010
1000
0100
,  // measure 56
1001
0001
1000
1000
,  // measure 57
0100
0001
0010
0001
,  // measure 58
0100
1001
0100
1000
,  // measure 59
0010
0001
0100
1000
,  // measure 60
0001
0000
0010
0000
0001
0000
0000
0100
,  // measure 61
0000
0100
0000
0010
0000
0010
1000
0000
,  // measure 62
1001
0000
0001
0000
0001
0010
0000
0100
,  // measure 63
0000
1000
0000
0100
0000
0010
0002
0000
,  // measure 64
0000
0000
0000
0003
;

//---------------dance-single - ----------------
#NOTES:
     dance-single:
     :
     Medium:
     7:
     0.505463,0.570969,0.352722,0.011023,0.000000,321.000000,289.000000,32.000000,1.000000,0.000000,0.000000,0.505463,0.570969,0.352722,0.011023,0.000000,321.000000,289.000000,32.000000,1.000000,0.000000,0.000000:
// measure 0
0000
0000
0000
0000
,  // measure 1
0000
0000
0000
0000
,  // measure 2
0000
0000
0000
0000
,  // measure 3
0000
0000
0000
0000
,  // measure 4
0001
0000
0010
0000
0100
0010
0000
0001
,  // measure 5
0000
0100
0000
0010
0000
0010
1000
0000
,  // measure 6
0001
0000
1000
0000
0010
0100
0000
0001
,  // measure 7
0000
0001
0000
0010
0000
0010
0100
0000
,  // measure 8
1000
1000
0001
0001
,  // measure 9
0001
0010
0001
0000
1000
0100
1000
0000
,  // measure 10
1001
0000
0100
0000
0010
0000
0100
1000
,  // measure 11
0000
0010
0000
0100
0001
0000
0010
0000
,  // measure 12
0100
0000
1000
0000
0001
0010
0000
0001
,  // measure 13
0000
0010
0000
0100
0000
1000
0100
0000
,  // measure 14
1001
0000
0100
0000
0100
0000
1000
0100
,  // measure 15
0000
0010
0000
0001
0100
0000
0010
0000
,  // measure 16
1000
0000
0100
0000
1000
0010
0000
0100
,  // measure 17
0000
0010
0000
1000
0000
0100
0000
0010
,  // measure 18
0000
0001
1000
0001
0010
0000
0110
0000
,  // measure 19
1001
0000
0011
0000
1000
1000
0000
0100
,  // measure 20
0000
0100
0000
0010
0000
0010
0100
0000
,  // measure 21
1001
0000
1100
0000
0001
0100
0000
0010
,  // measure 22
0000
0010
0000
1000
0000
1000
0100
0000
,  // measure 23
1001
0000
0101
0000
0010
1000
0000
0100
,  // measure 24
0000
0100
0000
0010
0000
0010
0100
0000
,  // measure 25
1001
0000
1010
0000
0001
0100
0000
0010
,  // measure 26
0000
0010
0000
1000
0000
1000
0100
0010
,  // measure 27
0001
0000
1000
0000
0001
0010
0001
0000
,  // measure 28
1000
0000
0001
0000
1000
0100
1000
0000
,  // measure 29
0001
0000
0010
0000
0100
1000
0100
0000
,  // measure 30
1000
0000
0010
0000
0100
0001
0100
0000
,  // measure 31
0010
1000
0100
0000
0010
0001
0100
0000
,  // measure 32
0010
1000
0001
0000
0011
0000
1001
0000
,  // measure 33
1100
0000
0001
0100
0010
0000
1001
0000
,  // measure 34
1001
0000
1000
0100
0010
0000
1001
0000
,  // measure 35
0011
0000
0010
0100
1000
0000
1001
0000
,  // measure 36
1010
0000
0010
0100
0001
0000
1001
0000
,  // measure 37
0110
0000
0010
0100
0001
1000
0100
1000
,  // measure 38
0010
0000
1001
0000
0001
0010
0100
1000
,  // measure 39
0001
0000
1100
0000
0100
1000
0010
0000
,  // measure 40
1000
0000
0101
0000
0100
0001
0010
0000
,  // measure 41
0001
0000
1001
0000
1000
0100
0001
0000
,  // measure 42
0100
1000
0010
0000
0100
0001
1000
0000
,  // measure 43
1001
0100
0010
0100
,  // measure 44
0001
1000
0100
0000
0001
1000
0100
0000
,  // measure 45
1001
0000
0010
0000
0010
0000
0100
0010
,  // measure 46
0000
1000
0000
0001
0010
0000
0100
0000
,  // measure 47
0001
0000
1000
0000
0001
0100
0000
0010
,  // measure 48
0000
1000
0000
0100
0000
0010
0001
0000
,  // measure 49
1001
0000
0001
0000
1000
0000
0100
0010
,  // measure 50
0000
0001
0000
0100
0010
0000
1000
0000
,  // measure 51
0001
0000
0001
0000
1000
0010
0000
0100
,  // measure 52
0000
0010
0000
1000
0000
0100
0000
0010
,  // measure 53
0000
0001
1000
0100
1000
0000
0110
0000
,  // measure 54
1001
0000
0010
0000
0100
0010
0000
1000
,  // measure 55
0000
0001
0000
0010
0000
0010
0100
0000
,  // measure 56
1000
0000
0001
0000
0010
0100
0000
1000
,  // measure 57
0000
0010
0000
0100
0000
0100
0010
0000
,  // measure 58
1001
0000
0100
0000
0010
1000
0000
0001
,  // measure 59
0000
0001
0000
0010
0000
0010
0100
0000
,  // measure 60
1000
0000
0001
0000
1000
0100
0000
0010
,  // measure 61
0000
0010
0000
0001
0000
0001
0010
0001
,  // measure 62
1000
0000
1000
0100
1000
0010
0000
0100
,  // measure 63
0000
0010
0000
1000
0000
0001
0020
0000
,  // measure 64
0000
0000
0000
0030
;

//---------------dance-single - ----------------
#NOTES:
     dance-single:
     :
     Hard:
     8:
     0.606241,0.606654,0.231474,0.011023,0.000000,385.000000,364.000000,21.000000,1.000000,0.000000,0.000000,0.606241,0.606654,0.231474,0.011023,0.000000,385.000000,364.000000,21.000000,1.000000,0.000000,0.000000:
// measure 0
0000
0000
0000
0000
,  // measure 1
0000
0000
0000
0000
,  // measure 2
0000
0000
0000
0000
,  // measure 3
0000
0000
0000
0000
,  // measure 4
1000
0001
0010
0000
0001
1000
0000
0100
,  // measure 5
0000
0100
0000
0010
0000
0010
0100
0010
,  // measure 6
0001
0010
0100
1000
0001
0001
0000
1000
,  // measure 7
0000
1000
0000
0010
0000
0010
0100
0010
,  // measure 8
1000
0010
1001
0100
,  // measure 9
1100
1100
0011
0011
,  // measure 10
1001
0000
0001
1000
0010
0000
0100
0001
,  // measure 11
0000
0011
0000
1000
0001
0000
0000
0100
,  // measure 12
0010
1000
0001
0000
0010
0100
1000
0000
,  // measure 13
0010
0100
0001
0000
1000
0100
0010
0000
,  // measure 14
1001
0000
1100
0000
1000
0001
0100
0010
,  // measure 15
0000
1000
0000
0001
0010
0000
0100
0000
,  // measure 16
1000
0010
0100
0000
0100
0010
0000
1000
,  // measure 17
0000
0100
0000
0010
0000
0100
0000
1001
,  // measure 18
0000
1000
0010
0100
0010
0000
1001
0000
,  // measure 19
0001
0010
0100
0000
1000
0010
0000
0100
,  // measure 20
0000
0100
0000
0010
0000
0010
0100
0010
,  // measure 21
1000
0000
0001
0000
1000
0100
0000
0010
,  // measure 22
0000
0010
0000
0001
0000
0001
0010
0001
,  // measure 23
0100
0010
0100
0001
0100
0010
0000
0100
,  // measure 24
0000
0100
0000
0001
0000
0001
0100
0001
,  // measure 25
0010
0100
1000
0000
0001
1000
0000
1001
,  // measure 26
0000
1001
0000
0110
0000
0001
1000
0000
,  // measure 27
0001
0010
0100
0010
0001
0100
1000
0100
,  // measure 28
0001
0010
0100
1000
0010
0100
0010
1000
,  // measure 29
0001
0010
0001
1000
0100
1000
0001
0100
,  // measure 30
0010
1000
0010
0100
0001
0010
0100
0010
,  // measure 31
0001
1000
0100
1000
0001
1000
0010
1000
,  // measure 32
0001
0010
0001
1000
0001
0100
0001
1000
,  // measure 33
0010
0000
0010
0100
0001
0010
0001
0100
,  // measure 34
0010
0100
0010
1000
0100
0010
0001
0010
,  // measure 35
0100
1000
0100
1000
0010
0100
0001
0100
,  // measure 36
0001
0010
0001
0010
0100
1000
0010
0100
,  // measure 37
0010
1000
0010
1000
0001
0010
0100
1000
,  // measure 38
0100
0001
0100
1000
0100
0010
0001
0100
,  // measure 39
0010
1000
0001
0100
0010
1000
0100
0010
,  // measure 40
0001
0100
0010
1000
0001
0010
0100
1000
,  // measure 41
0010
0100
0010
0100
0001
1000
0100
0010
,  // measure 42
0001
0010
1000
0010
0001
0100
1000
0100
,  // measure 43
0001
0001
1000
1000
,  // measure 44
0100
0010
0001
0000
0100
0010
0001
0000
,  // measure 45
1001
0000
1000
0001
0100
0000
0100
0010
,  // measure 46
0000
1000
0000
0100
0010
0000
0001
1000
,  // measure 47
0010
0000
1000
0000
0010
1000
0000
0001
,  // measure 48
0000
0010
0000
0100
0000
1000
0001
0010
,  // measure 49
0001
0000
1001
0000
1001
0000
0100
0010
,  // measure 50
0000
0001
0000
1000
0100
0001
0100
1000
,  // measure 51
0100
0000
1100
0000
0100
1000
0000
0010
,  // measure 52
0000
0100
0000
0001
0000
0100
0000
0010
,  // measure 53
0000
1000
0010
0001
0100
0000
0110
0000
,  // measure 54
1000
0001
0100
0001
0010
0010
0000
0100
,  // measure 55
0000
0100
0000
1000
0000
1000
0100
0010
,  // measure 56
0001
0100
0010
1000
0001
0001
0000
1000
,  // measure 57
0000
1000
0000
0010
0000
0010
0100
0010
,  // measure 58
1000
0100
0001
0100
1000
0010
0100
0001
,  // measure 59
0000
1000
0000
0010
0000
0010
0100
0001
,  // measure 60
0010
0100
1000
0100
0010
0001
1000
0010
,  // measure 61
0000
1001
0000
0110
0000
0001
0010
0001
,  // measure 62
1000
0000
1000
0100
1000
0010
0000
1000
,  // measure 63
0000
0100
0000
0010
0000
0001
2000
0000
,  // measure 64
0000
0000
0000
3000
;
