#TITLE:Lazenca, Save Us;
#SUBTITLE:;
#ARTIST:NEXT;
#TITLETRANSLIT:;
#SUBTITLETRANSLIT:;
#ARTISTTRANSLIT:;
#GENRE:;
#CREDIT:;
#BANNER:lazencabn.png;
#BACKGROUND:lazencabg.png;
#LYRICSPATH:;
#CDTITLE:;
#MUSIC:lazenca.mp3;
#OFFSET:0.510000;
#SAMPLESTART:70.580002;
#SAMPLELENGTH:12.000000;
#SELECTABLE:YES;
#BPMS:0.000000=85.126999
;
#STOPS:
;
#BGCHANGES:;
#KEYSOUNDS:;
#ATTACKS:;

//---------------dance-single - ----------------
#NOTES:
     dance-single:
     :
     Easy:
     2:
     0.163487,0.154090,0.009011,0.027033,0.000000,127.000000,126.000000,1.000000,3.000000,0.000000,0.000000,0.163487,0.154090,0.009011,0.027033,0.000000,127.000000,126.000000,1.000000,3.000000,0.000000,0.000000:
0000
0000
0000
0000
,
0000
0000
0000
0000
,
0000
0000
0010
0010
0000
0000
0000
0000
,
0000
0000
0100
0100
0000
0000
0100
0100
,
0000
0020
0000
0000
,
0030
1000
1000
0010
,
0010
1000
1000
0010
,
0010
0100
0100
0001
,
0001
0100
0100
0001
,
0001
0001
0010
0100
,
1000
0100
0001
0100
,
1000
0100
0010
0001
,
0100
0001
0010
1000
,
0100
0001
1000
0010
,
0100
0001
0010
1000
,
0010
0001
0100
0010
,
0001
1000
0010
1000
,
0100
0010
0000
0001
,
1000
0100
0010
0100
,
0010
0100
0000
1000
,
0001
0010
0001
0100
,
1000
0010
0000
0001
,
1000
0100
0010
0100
,
0010
0100
0000
1000
,
0001
0010
0001
0100
,
1000
0001
0100
1000
,
0100
0010
0001
0100
,
0001
1000
0100
0001
,
0100
1000
0100
0010
,
0001
0001
0100
1000
,
0100
0010
0001
0100
,
0001
1000
0100
0001
,
0100
1000
0100
0010
,
0001
0000
1000
1000
0000
0000
0000
0000
,
0000
0000
0001
0001
0000
0000
0000
0000
,
0000
0000
0010
0010
0000
0000
0000
0000
,
0000
0000
0100
0100
0000
0000
0100
0100
,
0000
2002
0000
0000
,
3003
0000
0000
0000
;

//---------------dance-single - ----------------
#NOTES:
     dance-single:
     :
     Medium:
     5:
     0.274195,0.308180,0.135167,0.036044,0.022528,213.000000,198.000000,15.000000,4.000000,0.000000,0.000000,0.274195,0.308180,0.135167,0.036044,0.022528,213.000000,198.000000,15.000000,4.000000,0.000000,0.000000:
0000
0000
0000
0000
,
0000
0000
0000
0000
,
0000
0000
1000
0001
0000
0000
0000
0000
,
0000
0000
0010
0100
0000
0000
0010
0100
,
0000
2002
0000
0000
,
3003
0000
0010
1000
0100
0000
1000
0001
,
1000
0000
0001
0100
0001
0000
1000
0001
,
1000
0000
0010
1000
0100
0000
0010
0001
,
0100
0000
0000
0000
0010
0000
0010
0000
0100
0000
0000
0000
1000
0000
0000
0001
,
0000
1000
0010
0010
0001
0000
0100
0100
,
0001
0000
0000
0000
1000
0000
1000
0000
0100
0000
0000
0000
0010
0000
0000
0100
,
0000
0010
0001
1000
1000
0000
0100
1000
,
1000
0000
0010
0100
0100
0000
1001
0000
,
0110
0000
1000
1000
0001
0000
0010
0010
,
0100
0000
0000
0000
1000
0000
0010
0000
0100
0000
0000
0000
0010
0000
0000
0010
,
0000
0100
0001
0100
1000
0000
0100
0001
,
0010
0000
0100
0100
1000
0000
0010
0000
,
0100
0000
0001
1000
0100
0010
0001
0001
,
1000
0010
1000
0100
0010
0001
1000
1000
,
0010
0100
0001
1000
0100
1000
0001
0001
,
0010
0100
1000
0010
1000
0100
1000
1000
,
0001
0010
0100
1000
0010
0100
0001
0001
,
1000
0010
1000
0100
0010
0001
0100
0100
,
0010
1000
0100
0010
0001
0100
0010
1000
,
0100
0010
0100
1000
0001
0100
1001
0000
,
0110
0000
1000
0100
0001
0100
1000
0000
,
1001
0000
0001
0100
1000
0100
0001
0000
,
1001
0000
1000
0100
0001
0100
1000
0000
,
1001
0000
0000
0000
0001
0000
0100
0000
0010
0000
0000
0000
0010
0000
0000
1000
,
0000
0001
1000
0100
0001
0100
1000
0000
,
1001
0000
0001
0100
1000
0100
0001
0000
,
1001
0000
1000
0100
0001
0100
1000
0000
,
1001
0000
0000
0000
0001
0000
0100
0000
0010
0000
0000
0000
0100
0000
0000
0001
,
0000
0010
1000
0010
0000
0000
0000
0000
,
0000
0000
0001
0100
0000
0000
0000
0000
,
0000
0000
0010
0100
0000
0000
0000
0000
,
0000
0000
0010
1001
0000
0000
0110
1001
,
0000
2002
0000
0000
,
3003
0000
0000
0000
;

//---------------dance-single - ----------------
#NOTES:
     dance-single:
     :
     Hard:
     8:
     0.429959,0.479392,0.594734,0.036044,0.247806,334.000000,268.000000,66.000000,4.000000,0.000000,0.000000,0.429959,0.479392,0.594734,0.036044,0.247806,334.000000,268.000000,66.000000,4.000000,0.000000,0.000000:
// measure 0
0000
0000
0000
0000
,  // measure 1
0000
0000
0000
0000
,  // measure 2
0000
0000
0001
1000
0010
0000
0100
0000
,  // measure 3
0010
0000
1000
0001
0010
0000
0100
1000
,  // measure 4
0010
2002
0000
0000
,  // measure 5
3003
0000
1001
0001
0010
0100
1000
0010
,  // measure 6
1001
0000
1000
0010
0100
0100
0101
0000
,  // measure 7
1010
0000
1100
1000
0010
0001
0011
0010
,  // measure 8
1001
0000
0000
0000
0001
1000
0001
1000
0001
0000
0000
0000
1001
0000
0000
1010
,  // measure 9
0000
0000
0101
0000
1001
0000
0001
0000
0100
0000
0010
1000
0001
0000
0100
0000
,  // measure 10
1001
0000
0000
0000
0110
0000
0001
0000
0010
0000
0100
0000
0011
0000
0000
1100
,  // measure 11
0000
0000
0110
0000
1100
0000
0100
0000
0010
0000
0001
1000
0100
0000
0100
0000
,  // measure 12
1001
0000
0010
1000
0100
0001
0011
0000
,  // measure 13
1100
0000
0000
0000
1001
0000
0001
0000
0010
0000
0100
1000
0001
0000
0010
0000
,  // measure 14
1001
0000
0000
0000
0011
0000
0010
0000
0100
0000
1000
0000
1100
0000
0000
0011
,  // measure 15
0000
1001
1001
0001
0010
0100
0010
1000
,  // measure 16
0110
0000
1001
0010
0100
1100
0110
0000
,  // measure 17
0011
0000
0000
0000
1000
0000
0001
0010
0100
0000
1000
0010
0100
0000
0001
0010
,  // measure 18
0100
0000
1000
0010
0100
0000
0001
1000
0010
0000
1000
0001
0100
0000
0001
1000
,  // measure 19
0010
0000
0001
1000
0100
0000
0010
0100
1000
0000
0001
1000
0010
0000
0100
0010
,  // measure 20
0001
0000
0010
0100
1000
0000
0010
1000
0100
0000
0010
0001
0100
0000
0010
1000
,  // measure 21
0010
0000
1001
0000
0010
0000
1000
0010
1000
0000
0001
1000
0001
0000
1000
0100
,  // measure 22
1000
0000
1000
0001
1000
0000
0010
0100
0010
0000
1000
0001
1000
0000
0100
0010
,  // measure 23
0100
0000
0001
1000
0001
0000
0010
0100
1000
0000
0010
0100
0001
0000
0010
1000
,  // measure 24
0100
0000
0010
0001
0100
0000
1000
0100
0001
0000
0100
1000
0010
1000
0100
1000
,  // measure 25
0001
0100
0001
0010
1001
0000
1000
0000
0010
0000
1000
0001
0100
0000
0010
0000
,  // measure 26
1001
0000
0000
0000
0010
0000
0010
1000
0010
0100
0001
0000
0100
0000
0000
0000
,  // measure 27
1001
0000
0000
0000
0010
0000
0010
0000
0100
0000
0001
1000
0010
0000
0000
0000
,  // measure 28
1001
0000
0000
0000
0010
1000
0010
1000
0100
0000
0010
0000
0011
0000
0000
1100
,  // measure 29
0000
0000
0110
0000
1001
0000
1100
0000
1001
0000
0010
0100
0010
0000
0010
0000
,  // measure 30
1001
0000
0000
0000
0110
0000
0001
0100
0001
1000
0010
0000
1001
0000
0000
0000
,  // measure 31
0110
0000
0000
0000
1100
0000
1100
0000
1001
0000
0010
0001
0100
0000
0000
0000
,  // measure 32
1001
0000
0000
0000
0010
1000
0100
1000
0010
0000
0000
0000
1001
0000
0000
0110
,  // measure 33
0000
0110
1001
1001
0000
0000
0000
0000
,  // measure 34
0000
0000
0110
0110
0000
0000
0000
0000
,  // measure 35
0000
0000
1100
0011
0000
0000
0000
0000
,  // measure 36
0000
0000
1010
0101
0000
0000
0110
1001
,  // measure 37
0000
2002
0000
0000
,  // measure 38
3003
0000
0000
0000
;
