#TITLE:Kamui;
#SUBTITLE:;
#ARTIST:X Ova;
#TITLETRANSLIT:;
#SUBTITLETRANSLIT:;
#ARTISTTRANSLIT:;
#GENRE:;
#CREDIT:;
#BANNER:kamui bn.png;
#BACKGROUND:kamui bg.png;
#LYRICSPATH:;
#CDTITLE:;
#MUSIC:Kamui -Instrumental Edit-.mp3;
#OFFSET:-0.120000;
#SAMPLESTART:47.270000;
#SAMPLELENGTH:12.000000;
#SELECTABLE:YES;
#BPMS:0.000000=140.000000
;
#STOPS:
;
#BGCHANGES:;
#KEYSOUNDS:;
#ATTACKS:;

//---------------dance-single - ----------------
#NOTES:
     dance-single:
     :
     Easy:
     3:
     0.242107,0.311160,0.119629,0.249227,0.000000,170.000000,158.000000,12.000000,25.000000,0.000000,0.000000,0.242107,0.311160,0.119629,0.249227,0.000000,170.000000,158.000000,12.000000,25.000000,0.000000,0.000000:
// measure 0
0000
0000
0000
0000
,  // measure 1
0000
0000
0000
0000
,  // measure 2
0000
0000
0000
0000
,  // measure 3
0000
0000
0000
0000
,  // measure 4
1001
1000
1000
1000
,  // measure 5
0001
0001
0001
0001
,  // measure 6
0010
0010
0010
0010
,  // measure 7
2002
0000
0000
3003
,  // measure 8
1001
0000
0100
0000
0000
0100
0000
0000
,  // measure 9
0010
0000
0001
0000
0000
0001
0000
0000
,  // measure 10
1000
0000
0010
0000
0000
0010
0000
0000
,  // measure 11
1000
0000
0001
0000
0000
0001
0000
0000
,  // measure 12
1000
0000
0010
0000
0000
0010
0000
0000
,  // measure 13
1000
0000
0100
0000
0000
0100
0000
0000
,  // measure 14
0010
0000
0001
0000
0000
0001
0000
0000
,  // measure 15
1000
0000
0001
0000
0000
0001
0000
0000
,  // measure 16
1000
0000
0001
0000
0000
0010
0000
0000
,  // measure 17
0001
0000
1000
0000
0000
0010
0000
0000
,  // measure 18
0100
0000
0001
0000
0000
1000
0000
0000
,  // measure 19
0010
0000
1000
0000
0000
0001
0000
0000
,  // measure 20
1002
0000
0000
0000
,  // measure 21
0023
0000
0000
0000
,  // measure 22
0230
0000
0000
0000
,  // measure 23
2300
0000
0000
0000
,  // measure 24
3001
0001
0010
0100
,  // measure 25
1000
1000
0010
0100
,  // measure 26
0001
0001
1000
0010
,  // measure 27
2000
0000
0001
3001
,  // measure 28
1001
0000
0100
0000
0000
0100
0000
0000
,  // measure 29
0001
0010
0001
0200
,  // measure 30
0301
0000
1000
0000
0000
1000
0000
0000
,  // measure 31
0001
1000
0010
0200
,  // measure 32
0301
0000
0010
0000
0000
0010
0000
0000
,  // measure 33
0100
0100
2000
3002
,  // measure 34
0013
0000
0100
0000
0000
0100
0000
0000
,  // measure 35
1000
1000
0001
0001
,  // measure 36
0100
0000
0010
0000
0000
0010
0000
0000
,  // measure 37
1000
1000
0001
0200
,  // measure 38
0301
0100
2002
3003
,  // measure 39
0010
1001
0100
0100
,  // measure 40
2002
3003
1000
0001
,  // measure 41
0010
0001
0100
0010
,  // measure 42
2000
3000
0001
0100
,  // measure 43
0001
0010
0002
0003
,  // measure 44
0001
0010
0010
0100
,  // measure 45
1000
0001
2002
3003
,  // measure 46
0000
0010
0010
0100
,  // measure 47
1000
0001
0010
0100
,  // measure 48
1000
0001
0100
0010
,  // measure 49
2000
3000
0100
0010
,  // measure 50
0002
0013
0200
1300
,  // measure 51
0001
1001
0100
1001
,  // measure 52
0001
0000
0000
0000
,  // measure 53
0100
0000
0000
0000
,  // measure 54
0010
0000
0000
0000
,  // measure 55
1000
0000
0100
0000
,  // measure 56
2002
0000
0000
3003
;

//---------------dance-single - ----------------
#NOTES:
     dance-single:
     :
     Medium:
     6:
     0.351767,0.424310,0.229289,0.179444,0.034892,247.000000,224.000000,23.000000,18.000000,0.000000,0.000000,0.351767,0.424310,0.229289,0.179444,0.034892,247.000000,224.000000,23.000000,18.000000,0.000000,0.000000:
// measure 0
0000
0000
0000
0000
,  // measure 1
0000
0000
0000
0000
,  // measure 2
0000
0000
0000
0000
,  // measure 3
0000
0000
0000
0000
,  // measure 4
1001
0000
0100
0000
0000
0000
0100
0010
,  // measure 5
0001
0000
0100
0000
0000
0000
0010
1000
,  // measure 6
0001
0110
0000
0110
,  // measure 7
2002
0000
0000
3003
,  // measure 8
1001
0000
0001
0000
1000
0100
0000
0000
,  // measure 9
0010
0000
0001
0000
1000
0001
0200
0000
,  // measure 10
0310
0000
1000
0000
0001
1000
0000
0100
,  // measure 11
0010
0000
0001
0000
0001
0100
0010
0000
,  // measure 12
1001
0000
0100
0000
0000
0100
0000
0000
,  // measure 13
1000
0000
0000
0000
0001
0000
0000
0000
1000
0000
0000
0001
0000
0000
1000
0000
,  // measure 14
0010
0000
0100
0000
0000
0001
0000
0100
,  // measure 15
0010
0010
1000
0002
,  // measure 16
0013
0000
1001
0000
0100
1000
0000
0000
,  // measure 17
0001
0000
0110
0000
1000
0010
0200
0000
,  // measure 18
0302
0000
0000
1003
0100
0000
0010
0000
,  // measure 19
0001
1000
0100
0000
0010
0001
1000
0000
,  // measure 20
1002
0000
0000
0000
,  // measure 21
0023
0000
0000
0000
,  // measure 22
0230
0000
0000
0000
,  // measure 23
2300
0000
0000
0000
,  // measure 24
3001
0000
0001
0000
1000
0100
0010
0001
,  // measure 25
1000
0000
1000
0000
0001
0100
0010
1000
,  // measure 26
0001
0000
1000
0000
0010
0100
0001
0000
,  // measure 27
2000
0000
0001
3001
,  // measure 28
0110
0000
1000
0000
0001
0010
0000
0100
,  // measure 29
1000
0000
1001
0000
0001
0100
0002
0000
,  // measure 30
0013
0000
1001
0000
0001
1000
0000
0100
,  // measure 31
1000
0000
0110
0000
0001
0010
0002
0000
,  // measure 32
1003
0000
0110
0000
0001
0010
0000
0000
,  // measure 33
0001
0000
0000
0000
1001
0000
0000
0000
1000
0000
0000
0001
0000
0000
0010
0000
,  // measure 34
0010
0000
1001
0000
0100
0010
0000
1000
,  // measure 35
0001
0000
1001
0000
1000
0001
0200
0000
,  // measure 36
0310
1000
0001
0000
1000
0001
0000
0000
,  // measure 37
0010
0100
1000
0000
0001
1000
0200
0000
,  // measure 38
0320
0000
0000
0031
1000
0000
1001
0000
,  // measure 39
0001
0100
1000
0100
0001
0010
0100
1000
,  // measure 40
0001
0000
1000
0000
0100
1000
0000
0000
,  // measure 41
0001
1000
0010
0100
0000
0010
0000
1000
,  // measure 42
0001
0100
1000
0010
,  // measure 43
0001
0010
0100
1000
0000
0001
1000
0000
,  // measure 44
0100
0000
0000
0000
1001
0000
0000
0000
1000
0000
0000
0001
0000
0000
1000
0000
,  // measure 45
0100
0000
0010
0100
0000
1000
0001
0000
,  // measure 46
0010
0000
0000
0000
1001
0000
0000
0000
0001
0000
0000
1000
0000
0000
0001
0000
,  // measure 47
0100
0000
0000
0010
0000
0000
1000
0000
0001
0000
0010
0000
0100
0000
1000
0000
,  // measure 48
0100
0000
0000
0000
1001
0000
0000
0000
0010
0000
0000
0001
0000
0000
0100
0000
,  // measure 49
0010
0000
0000
0000
1001
0000
0000
0000
0100
0000
0000
0010
0000
0000
1000
0000
,  // measure 50
0001
1000
0100
0001
0100
0000
1000
0000
,  // measure 51
0010
0100
0001
0100
0010
1000
0100
1000
,  // measure 52
0001
0000
0000
0000
,  // measure 53
0100
0000
0000
0000
,  // measure 54
0010
0000
0000
0000
,  // measure 55
1000
0000
0100
0000
,  // measure 56
2002
0000
0000
3003
;

//---------------dance-single - ----------------
#NOTES:
     dance-single:
     :
     Hard:
     9:
     0.462851,0.763757,0.219320,0.169475,0.259196,325.000000,303.000000,22.000000,17.000000,0.000000,0.000000,0.462851,0.763757,0.219320,0.169475,0.259196,325.000000,303.000000,22.000000,17.000000,0.000000,0.000000:
// measure 0
0000
0000
0000
0000
,  // measure 1
0000
0000
0000
0000
,  // measure 2
0000
0000
0000
0000
,  // measure 3
0000
0000
0000
0000
,  // measure 4
1001
0000
0000
0100
0000
0000
0100
0000
0000
0100
0000
0000
0010
0000
1000
0000
,  // measure 5
0001
0000
0000
0010
0000
0000
0010
0000
0000
0010
0000
0000
0100
0000
1000
0000
,  // measure 6
0001
0000
0000
0110
0000
0000
1000
0000
0000
0100
0000
0000
0001
0000
0010
0000
,  // measure 7
2002
0000
0000
3003
,  // measure 8
1001
0000
0000
0001
0010
0000
0001
0000
0000
0000
1000
0000
0000
0000
0100
0000
,  // measure 9
1000
0000
0000
1000
0001
0000
0100
0000
0000
0000
0010
0000
0200
0000
0000
0000
,  // measure 10
0301
0000
0000
0001
0100
0000
0010
0000
0000
0000
1000
0000
0000
0000
0001
0100
,  // measure 11
0001
1000
0001
0010
0000
0100
2000
0000
,  // measure 12
3001
0000
0000
0001
0100
0000
0010
0000
0000
0000
0100
0000
0000
0000
0001
0000
,  // measure 13
1000
0000
0000
1000
0100
0000
0001
0000
0100
0000
0000
1000
0000
0000
0001
0000
,  // measure 14
0001
0000
0000
0001
0010
0000
0001
0000
0000
0000
1000
0000
0000
0000
0001
0100
,  // measure 15
0001
1000
0100
0001
0000
0100
2000
0000
,  // measure 16
3001
0100
0010
0000
1000
0001
0000
0001
,  // measure 17
1000
0100
1000
0000
0001
0010
0100
0000
,  // measure 18
0020
0000
0000
0000
0030
0000
0001
0100
0001
0000
0000
0000
1000
0000
0000
0000
,  // measure 19
0001
1000
0100
0010
0001
0100
1000
0100
,  // measure 20
1002
0000
0000
0000
,  // measure 21
0023
0000
0000
0000
,  // measure 22
0230
0000
0000
0000
,  // measure 23
2300
0000
0000
0000
,  // measure 24
3001
0100
1000
0100
0001
0010
0100
1000
,  // measure 25
0001
0100
0010
0100
0001
1000
0100
0010
,  // measure 26
0100
1000
0100
0001
0100
1000
0010
0100
,  // measure 27
0002
0000
1000
1003
,  // measure 28
0110
0000
0000
0001
1000
0000
0100
0000
0000
0000
0010
0000
0000
0000
0001
0000
,  // measure 29
1000
0000
0000
0001
0100
0000
0010
0000
0000
0000
1000
0000
0200
0000
0000
0000
,  // measure 30
0310
0000
0000
0001
1000
0000
0010
0000
0000
0000
0100
0000
0000
0000
0001
0100
,  // measure 31
0001
0000
0000
1000
0100
0000
0010
0000
0001
0000
1000
0000
0200
0000
0000
0000
,  // measure 32
1300
0000
0000
0001
0100
0000
0001
0000
0000
0000
0010
0000
0000
0000
0100
0000
,  // measure 33
0010
0000
0000
0001
0100
0000
0010
0000
1000
0000
0000
0001
0000
0000
0010
0000
,  // measure 34
0010
0000
0000
0001
1000
0000
0100
0000
0000
0000
0100
0000
0000
0000
1000
0100
,  // measure 35
1000
0000
0000
0001
0100
0000
0010
0000
0000
0000
1000
0000
0200
0000
0000
0000
,  // measure 36
0310
0000
0000
0001
0100
0000
1000
0000
0000
0000
0001
0000
0000
0000
0100
0000
,  // measure 37
1000
0000
0000
1000
0100
0000
0001
0000
0000
0000
1000
0000
0200
0000
0000
0000
,  // measure 38
0310
0000
0001
0000
1000
0000
0010
0100
0001
0000
0000
0000
1000
0000
0000
0000
,  // measure 39
0001
0000
0001
0000
0001
0000
0001
0000
1000
0100
1000
0001
1000
0100
1000
0001
,  // measure 40
0100
0000
1001
0000
0100
0010
1000
0010
,  // measure 41
0100
0000
0001
0000
0010
0000
1100
0000
0000
0000
0001
0000
0000
0000
1000
0100
,  // measure 42
1000
0000
0000
0000
0001
0000
0100
0000
0010
0000
1000
0000
0001
0000
0100
0010
,  // measure 43
1000
0100
0001
0100
1000
0000
0001
0000
,  // measure 44
1000
0000
0010
0000
0110
0000
0000
0000
0110
0000
0000
0101
0000
0000
1100
0000
,  // measure 45
1001
0001
0010
1001
0000
0000
1000
0001
,  // measure 46
0010
0000
0000
0001
1000
0000
0000
0000
0110
0000
0000
1100
0000
0000
0001
0000
,  // measure 47
1000
0000
0000
0001
0000
0000
0010
0001
1000
0000
0010
0000
0100
0000
0010
0000
,  // measure 48
1001
0000
0000
0000
1000
0000
0000
0000
0100
0000
0000
0010
0000
0000
0011
0000
,  // measure 49
1001
0000
0000
0000
0100
0000
0000
0000
0010
0000
0000
1001
0000
0000
0010
0000
,  // measure 50
1001
0000
0001
0000
1000
0000
0010
0100
0001
0000
1000
0000
0001
0000
0001
0000
,  // measure 51
1000
0001
1000
0100
1000
0001
1000
0100
1000
0001
0100
0001
1000
0100
1000
0001
,  // measure 52
1000
0000
0000
0000
,  // measure 53
0001
0000
0000
0000
,  // measure 54
0010
0000
0000
0000
,  // measure 55
0100
0000
1000
0000
,  // measure 56
2002
0000
0000
3003
;
