#TITLE:Jump;
#SUBTITLE:;
#ARTIST:Bus Stop;
#TITLETRANSLIT:;
#SUBTITLETRANSLIT:;
#ARTISTTRANSLIT:;
#GENRE:;
#CREDIT:;
#BANNER:Jump bn2.png;
#BACKGROUND:Jumb bg.png;
#LYRICSPATH:;
#CDTITLE:;
#MUSIC:Bus Stop - Jump (Short Mix).mp3;
#OFFSET:-0.450000;
#SAMPLESTART:51.235001;
#SAMPLELENGTH:12.000000;
#SELECTABLE:YES;
#BPMS:0.000000=132.100006
;
#STOPS:
;
#BGCHANGES:;
#KEYSOUNDS:;
#ATTACKS:;

//---------------dance-single - ----------------
#NOTES:
     dance-single:
     :
     Easy:
     3:
     0.234601,0.316197,0.144053,0.230486,0.000000,171.000000,156.000000,15.000000,24.000000,0.000000,0.000000,0.234601,0.316197,0.144053,0.230486,0.000000,171.000000,156.000000,15.000000,24.000000,0.000000,0.000000:
// measure 0
0000
0000
0000
0000
,  // measure 1
0000
0000
0000
0000
,  // measure 2
0000
0000
0000
0000
,  // measure 3
0000
0000
0000
0000
,  // measure 4
1001
0002
0000
0003
,  // measure 5
0200
0300
0020
0030
,  // measure 6
1000
0002
0000
0003
,  // measure 7
0200
0300
0020
0030
,  // measure 8
1000
0001
1000
0001
,  // measure 9
0010
0100
0010
0100
,  // measure 10
1000
0010
0100
0100
,  // measure 11
0001
2000
0002
3003
,  // measure 12
1000
0001
0010
0010
,  // measure 13
0001
1000
0100
0100
,  // measure 14
1000
1000
0001
1000
,  // measure 15
0010
0010
0100
0010
,  // measure 16
1000
0001
0001
0010
,  // measure 17
0100
1000
1000
0001
,  // measure 18
1000
0010
0010
0100
,  // measure 19
2002
0000
3003
0010
,  // measure 20
1001
0010
0000
1000
,  // measure 21
0000
0100
0000
1000
,  // measure 22
0000
0010
0000
0001
,  // measure 23
0000
0100
0000
0010
,  // measure 24
1001
1000
0000
0010
,  // measure 25
0000
0100
0000
1000
,  // measure 26
0000
0100
0000
0001
,  // measure 27
0010
0100
0100
0010
,  // measure 28
1001
0002
0003
0020
,  // measure 29
0030
0200
0310
0010
,  // measure 30
0001
2000
3000
0100
,  // measure 31
0020
0000
0200
0330
,  // measure 32
1001
2000
3000
0020
,  // measure 33
0030
0200
0301
0001
,  // measure 34
1000
0020
0030
0100
,  // measure 35
0002
0000
2000
3003
,  // measure 36
1001
1000
0000
0010
,  // measure 37
0001
0010
1000
0001
,  // measure 38
0100
0010
0000
0100
,  // measure 39
0001
0001
0100
1000
,  // measure 40
1001
0001
0000
0010
,  // measure 41
0100
1000
0100
0001
,  // measure 42
0010
0100
0000
0100
,  // measure 43
1000
1000
0001
0001
,  // measure 44
1001
0010
0100
1000
,  // measure 45
1000
0001
0010
0010
,  // measure 46
1001
0010
1000
0010
,  // measure 47
0100
0100
0001
0110
,  // measure 48
1001
0001
1000
0010
,  // measure 49
0100
0100
0001
0010
,  // measure 50
1001
0010
0100
0100
,  // measure 51
1000
0010
0001
0110
,  // measure 52
2002
0000
0000
0000
,  // measure 53
0000
0000
0000
0000
,  // measure 54
0000
0000
0000
0000
0000
0000
0000
3003
;

//---------------dance-single - ----------------
#NOTES:
     dance-single:
     :
     Medium:
     5:
     0.270272,0.368897,0.211278,0.316918,0.000000,197.000000,175.000000,22.000000,33.000000,0.000000,0.000000,0.270272,0.368897,0.211278,0.316918,0.000000,197.000000,175.000000,22.000000,33.000000,0.000000,0.000000:
// measure 0
0000
0000
0000
0000
,  // measure 1
0000
0000
0000
0000
,  // measure 2
0000
0000
0000
0000
,  // measure 3
0000
0000
0000
0000
,  // measure 4
1001
0000
0001
0000
0000
0010
0000
0000
,  // measure 5
0100
0000
0000
1000
0000
0001
0000
0002
,  // measure 6
0000
0000
0013
0000
0000
0100
0000
2000
,  // measure 7
0000
3002
0000
0200
0000
0000
0303
0000
,  // measure 8
1001
0000
1000
0000
0000
0010
0000
0000
,  // measure 9
0100
0000
0000
0100
0000
0010
0000
2000
,  // measure 10
0000
0000
3010
0000
0000
0100
0000
0002
,  // measure 11
0000
2003
0000
0200
0000
0000
3300
0000
,  // measure 12
1001
1000
0100
0100
,  // measure 13
0010
0000
0010
0000
0001
0010
0001
0000
,  // measure 14
1000
0000
1000
0000
0001
1000
0010
0000
,  // measure 15
0100
0001
0100
0000
0010
0000
0110
0000
,  // measure 16
1000
0000
1000
0000
0001
0010
0001
0000
,  // measure 17
1000
0000
1000
0000
0010
0100
0001
0000
,  // measure 18
0100
0000
0100
0000
0010
1000
0001
0000
,  // measure 19
2002
0000
0000
0000
3003
0000
1000
0010
,  // measure 20
0100
0000
0010
0000
0100
0001
1000
0000
,  // measure 21
0100
0000
0100
0000
0010
0001
1000
0000
,  // measure 22
0010
0000
1001
0000
0000
1000
0000
0001
,  // measure 23
0000
0020
0000
0200
0000
0000
0330
0000
,  // measure 24
0001
0000
0001
0000
0010
0100
1000
0000
,  // measure 25
0010
0000
0100
0001
1000
0000
0010
0000
,  // measure 26
0100
0000
1001
0000
0000
0100
0000
0010
,  // measure 27
0000
0002
0000
2000
0000
0000
3003
0000
,  // measure 28
1001
0000
0010
0000
0000
0001
0000
0000
,  // measure 29
0100
0000
0000
0100
0000
0020
0000
2030
,  // measure 30
0000
0000
3001
0000
0000
1000
0000
0100
,  // measure 31
0000
2000
0000
0002
0000
0000
3003
0000
,  // measure 32
1001
0000
1000
0000
0000
0010
0000
0000
,  // measure 33
0100
0000
0000
0100
0000
0002
0000
2003
,  // measure 34
0000
0000
3010
0000
0000
0100
0000
0001
,  // measure 35
0000
0020
0000
0200
0000
0000
0330
0000
,  // measure 36
1000
0001
0000
0001
0000
0100
0000
0100
,  // measure 37
0000
0001
0000
0001
0000
0010
0000
0010
,  // measure 38
0000
0100
0000
0100
0000
1000
0000
0001
,  // measure 39
0000
0020
0000
0200
0000
0000
0330
0000
,  // measure 40
1001
0000
0110
0000
0000
1010
0000
0000
,  // measure 41
0101
0000
0000
1001
0000
0011
0000
0002
,  // measure 42
0000
0000
1003
0000
0000
0010
0000
0100
,  // measure 43
0000
0002
0000
2000
0000
0000
3003
0000
,  // measure 44
0001
1000
0000
1000
0000
0100
0000
0100
,  // measure 45
0000
1000
0000
1000
0000
0010
0000
0010
,  // measure 46
0000
0100
0000
0100
0000
0001
0000
1000
,  // measure 47
0000
0020
0000
0200
0000
0000
0330
0000
,  // measure 48
1001
0000
0110
0000
0000
1010
0000
0000
,  // measure 49
0101
0000
0000
1001
0000
1100
0000
1000
,  // measure 50
0001
0010
0100
0000
0000
1000
0001
1000
,  // measure 51
0000
0020
0000
0200
0000
0000
0330
0000
,  // measure 52
2002
0000
0000
0000
,  // measure 53
0000
0000
0000
0000
,  // measure 54
0000
0000
0000
0000
0000
0000
0000
3003
;

//---------------dance-single - ----------------
#NOTES:
     dance-single:
     :
     Hard:
     7:
     0.425301,0.500646,0.403350,0.259296,0.096036,310.000000,268.000000,42.000000,27.000000,0.000000,0.000000,0.425301,0.500646,0.403350,0.259296,0.096036,310.000000,268.000000,42.000000,27.000000,0.000000,0.000000:
// measure 0
0000
0000
0000
0000
,  // measure 1
0000
0000
0000
0000
,  // measure 2
0000
0000
0000
0000
,  // measure 3
0000
0000
0000
0000
,  // measure 4
0010
0000
1001
0000
0000
1010
0000
0000
,  // measure 5
0101
0000
0000
1100
0000
0011
0000
2002
,  // measure 6
3003
0000
1010
0000
0000
1001
0000
1010
,  // measure 7
0000
1100
0000
0110
0001
1000
0010
0100
,  // measure 8
1001
0000
1000
0001
0100
0010
0000
1000
,  // measure 9
0001
0000
1000
0010
0000
0100
0001
2000
,  // measure 10
0000
0000
3010
0100
0001
1000
0000
0110
,  // measure 11
0000
1100
0000
0202
0000
0000
0303
0000
,  // measure 12
1000
0001
0100
0000
0001
0001
0010
0000
,  // measure 13
0100
1000
0001
0000
1000
1000
0010
0000
,  // measure 14
0100
0001
0010
0000
0100
1000
0010
0000
,  // measure 15
0100
0001
1000
0001
0010
0100
1000
0000
,  // measure 16
0001
1000
1000
0000
0010
0100
0001
0000
,  // measure 17
0010
0010
0100
0000
1000
0001
1000
0000
,  // measure 18
0010
0100
0001
0010
0010
0100
1000
0000
,  // measure 19
2002
0000
0000
0000
0000
0000
0000
0000
3003
0000
0000
0000
1000
0001
1000
0001
,  // measure 20
1000
0100
0020
0000
0031
1000
0000
0001
,  // measure 21
0100
0000
0010
1000
0001
0100
0010
0200
,  // measure 22
0001
0000
0301
0000
0000
0010
0100
2000
,  // measure 23
0000
3200
0000
0020
0000
0000
0330
0000
,  // measure 24
0001
1000
1010
0000
0010
0110
0000
0100
,  // measure 25
0101
0000
0001
1001
0000
0011
0000
0020
,  // measure 26
0000
0000
0130
0000
0000
1100
0000
1000
,  // measure 27
0000
0020
0000
0200
0000
0000
0330
0000
,  // measure 28
1001
1000
1100
0000
0001
0011
0000
0010
,  // measure 29
0110
0000
0100
1100
0000
1001
0000
0002
,  // measure 30
0000
0000
1003
0000
0000
1010
0000
2000
,  // measure 31
0000
3200
0000
0310
0001
1000
0010
1000
,  // measure 32
1001
0001
0101
0000
0001
0011
0000
0010
,  // measure 33
0110
0000
0100
1100
0000
1001
0000
0200
,  // measure 34
0000
0000
0310
0000
0001
0011
0000
0101
,  // measure 35
0000
1010
0000
1000
0010
0100
0010
1000
,  // measure 36
0001
0000
1000
0100
0000
0000
0100
1000
0000
0000
1000
0001
0000
0000
0001
0100
,  // measure 37
0000
0000
0100
0010
0000
0000
0010
0100
0000
0000
0100
0001
0000
0000
0002
0000
,  // measure 38
0000
0000
0013
0000
0000
1001
0000
2000
,  // measure 39
0000
3020
0000
0130
0000
0001
1000
0000
,  // measure 40
1000
0100
1000
0010
0100
0001
0100
0010
,  // measure 41
1000
0100
1000
0010
0100
0001
0100
0010
,  // measure 42
1000
0001
1000
0010
0100
0001
0100
0010
,  // measure 43
1000
0001
1000
0100
0010
0100
0010
0001
,  // measure 44
1000
0000
0001
1000
0000
0000
1000
0001
0000
0000
0001
0010
0000
0000
0010
0001
,  // measure 45
0000
0000
0001
1000
0000
0000
1000
0100
0000
0000
1000
0001
0000
0000
0002
0000
,  // measure 46
0000
0000
0013
0000
0000
1001
0000
0100
,  // measure 47
0000
2000
0000
3002
0000
1003
0010
0000
,  // measure 48
1001
0000
0000
1000
0000
0000
1000
0000
0000
0100
0000
0000
0010
0000
0001
0000
,  // measure 49
1000
0000
0000
1000
0000
0000
0001
0000
0000
0001
0000
0000
0010
0000
0100
0000
,  // measure 50
1000
0001
0010
0001
1000
0010
0100
0001
,  // measure 51
1000
1000
0001
0001
1000
1000
0001
0001
,  // measure 52
2002
0000
0000
0000
,  // measure 53
0000
0000
0000
0000
,  // measure 54
0000
0000
0000
0000
0000
0000
0000
3003
;
