#VERSION:0.83;
#TITLE:Jingle Bell Rock;
#SUBTITLE:;
#ARTIST:Speedmaster;
#TITLETRANSLIT:;
#SUBTITLETRANSLIT:;
#ARTISTTRANSLIT:;
#GENRE:;
#ORIGIN:;
#CREDIT:;
#BANNER:JingleBellRock bn .png;
#BACKGROUND:JingleBellRock bg.png;
#PREVIEWVID:;
#JACKET:;
#CDIMAGE:;
#DISCIMAGE:;
#LYRICSPATH:;
#CDTITLE:;
#MUSIC:Speedmaster - Jingle Bell Rock (Short Edit).mp3;
#OFFSET:-1.825000;
#SAMPLESTART:26.554998;
#SAMPLELENGTH:12.000000;
#SELECTABLE:YES;
#BPMS:0.000=172.000;
#STOPS:35.000=1.060;
#DELAYS:;
#WARPS:;
#TIMESIGNATURES:0.000=4=4;
#TICKCOUNTS:0.000=4;
#COMBOS:0.000=1;
#SPEEDS:0.000=1.000=0.000=0;
#SCROLLS:0.000=1.000;
#FAKES:;
#LABELS:0.000=Song Start;
#BGCHANGES:;
#KEYSOUNDS:;
#ATTACKS:
;

//---------------dance-single - ----------------
#NOTEDATA:;
#CHARTNAME:;
#STEPSTYPE:dance-single;
#DESCRIPTION:;
#CHARTSTYLE:;
#DIFFICULTY:Easy;
#METER:5;
#RADARVALUES:0.410652,0.505411,0.308344,0.039786,0.000000,289.000000,258.000000,31.000000,4.000000,0.000000,0.000000,0.000000,0.000000,0.000000,0.410652,0.505411,0.308344,0.039786,0.000000,289.000000,258.000000,31.000000,4.000000,0.000000,0.000000,0.000000,0.000000,0.000000;
#CREDIT:;
#NOTES:
// measure 0
0000
0000
0000
1000
,  // measure 1
1000
1000
1000
0001
,  // measure 2
0001
0001
0001
1000
,  // measure 3
1000
1000
1000
0001
,  // measure 4
0001
0001
0001
0010
,  // measure 5
0010
0100
0100
0010
,  // measure 6
0010
0100
0100
1000
,  // measure 7
0100
0001
0100
1000
,  // measure 8
0001
0100
0100
1001
,  // measure 9
1000
1000
0100
0100
,  // measure 10
0001
0100
1000
1000
,  // measure 11
0001
0100
1000
0100
,  // measure 12
0001
1000
0100
0100
,  // measure 13
1000
0001
0010
0010
,  // measure 14
0001
1000
0010
0010
,  // measure 15
0100
0001
1000
0010
,  // measure 16
0100
0000
0000
0100
0000
0000
0100
0000
,  // measure 17
1001
0001
0100
0100
,  // measure 18
0010
1000
1001
0000
,  // measure 19
0001
0010
0100
0010
,  // measure 20
0001
1000
1001
0000
,  // measure 21
0001
0100
0010
1000
,  // measure 22
0001
1000
1001
0000
,  // measure 23
1000
0001
0100
0010
,  // measure 24
1000
0000
0001
0100
0000
0000
0000
0000
,  // measure 25
1001
1000
0100
0100
,  // measure 26
0010
0001
1001
0000
,  // measure 27
1000
0010
0100
0010
,  // measure 28
1000
0001
1001
0000
,  // measure 29
1000
0100
0010
1001
,  // measure 30
1001
1001
1001
0000
,  // measure 31
0001
0000
0100
0000
0010
0000
1000
0002
,  // measure 32
0000
0000
0000
1003
,  // measure 33
0010
1001
0100
1001
,  // measure 34
0010
1001
0100
1001
,  // measure 35
0001
0000
0010
0000
0100
0000
1000
0200
,  // measure 36
0000
1300
0001
0100
,  // measure 37
0010
1001
0100
1001
,  // measure 38
0010
1001
0100
1001
,  // measure 39
1001
0000
0000
0000
,  // measure 40
0001
0010
0100
1000
,  // measure 41
0001
0001
0100
0100
,  // measure 42
1001
0000
0010
0100
0000
0000
0000
0000
,  // measure 43
1000
0100
0001
0010
,  // measure 44
1000
0100
0001
0010
,  // measure 45
1000
0001
0010
0001
,  // measure 46
1000
0001
0110
0000
,  // measure 47
1000
0001
0000
0100
0010
0000
0110
0000
,  // measure 48
2002
0000
0000
3003
,  // measure 49
0001
0001
0100
0100
,  // measure 50
1000
0100
0001
0001
,  // measure 51
1000
0100
0001
0100
,  // measure 52
1000
0001
0100
0100
,  // measure 53
0001
1000
0010
0010
,  // measure 54
1000
0001
0010
0010
,  // measure 55
0100
1000
0001
0100
,  // measure 56
0010
0000
0010
0010
0000
0100
0010
0000
,  // measure 57
1000
1010
0001
0101
,  // measure 58
1000
0000
0010
0100
0000
0000
0000
0000
,  // measure 59
0001
0010
1000
0100
,  // measure 60
0001
0010
1000
0100
,  // measure 61
0001
1000
0010
0110
,  // measure 62
0100
0000
0001
1000
0000
0000
0100
0000
,  // measure 63
0010
0001
0000
1000
0001
0000
0100
0000
,  // measure 64
0010
1000
0000
0001
1000
0000
0100
0000
,  // measure 65
0010
0001
0000
0100
0010
0000
0110
0000
,  // measure 66
1000
1000
1000
0000
0001
0001
0001
0000
,  // measure 67
0100
0010
0100
0000
1001
0000
1001
0000
;

//---------------dance-single - ----------------
#NOTEDATA:;
#CHARTNAME:;
#STEPSTYPE:dance-single;
#DESCRIPTION:;
#CHARTSTYLE:;
#DIFFICULTY:Medium;
#METER:6;
#RADARVALUES:0.476015,0.539105,0.547062,0.308344,0.000000,335.000000,280.000000,55.000000,31.000000,0.000000,0.000000,0.000000,0.000000,0.000000,0.476015,0.539105,0.547062,0.308344,0.000000,335.000000,280.000000,55.000000,31.000000,0.000000,0.000000,0.000000,0.000000,0.000000;
#CREDIT:;
#NOTES:
// measure 0
0000
0000
0000
1000
,  // measure 1
1000
0001
0001
1000
,  // measure 2
1000
0001
0001
0100
,  // measure 3
0100
0010
0010
0100
,  // measure 4
0100
0000
0010
0000
0010
0000
1000
0001
,  // measure 5
0000
0000
0100
0000
0100
0000
0001
1000
,  // measure 6
0000
0000
0100
0000
0100
0000
1000
0001
,  // measure 7
0000
0000
0010
0000
0010
0000
0001
0100
,  // measure 8
0000
0100
0010
0000
0010
0000
1001
0000
,  // measure 9
0010
2001
3100
1002
,  // measure 10
0103
2001
3100
0120
,  // measure 11
0031
1002
0103
2010
,  // measure 12
3100
0120
0031
0120
,  // measure 13
1030
2100
3001
0102
,  // measure 14
1003
0100
0010
0000
0110
0000
0110
0000
,  // measure 15
1002
0103
2010
3100
,  // measure 16
0010
0000
0100
0010
0000
0100
0010
0000
,  // measure 17
0001
0001
0100
0100
,  // measure 18
0010
1000
0001
0000
0110
0000
0000
0000
,  // measure 19
1000
1000
0100
0010
,  // measure 20
0001
1000
0100
0000
0110
0000
0000
0000
,  // measure 21
1000
0001
0001
0110
,  // measure 22
0100
1000
0001
0000
0110
0000
0000
0000
,  // measure 23
1000
0001
0100
0100
,  // measure 24
0010
0000
1000
0001
0000
0000
0000
0000
,  // measure 25
1000
0100
1000
0000
0001
0100
0001
0000
,  // measure 26
0010
0100
0010
0000
1001
0000
0000
0000
,  // measure 27
0001
1000
0001
0000
0100
0000
0010
0000
,  // measure 28
1000
0001
1000
0000
0110
0000
0000
0000
,  // measure 29
0001
1000
0100
0110
,  // measure 30
1001
1001
1001
0100
,  // measure 31
0010
0001
0000
0001
1000
0000
0100
0020
,  // measure 32
0000
0000
0000
0000
0030
0000
0001
0100
,  // measure 33
0020
0000
0000
2030
0000
0000
3100
0010
,  // measure 34
0002
0000
0000
0203
0000
0000
0300
0010
,  // measure 35
1000
0000
0100
0000
0010
0000
0001
1000
,  // measure 36
0001
0000
0001
0000
1000
0000
0100
0010
,  // measure 37
0002
0000
0000
0203
0000
0000
0301
1000
,  // measure 38
0000
0020
0000
0230
0000
0000
0300
0001
,  // measure 39
1001
0000
0000
0000
,  // measure 40
1000
0010
0100
0001
,  // measure 41
1000
1010
0001
0101
,  // measure 42
1000
0001
1000
0000
0110
0000
0000
0000
,  // measure 43
0001
0010
1000
0100
,  // measure 44
0001
1001
0100
0110
,  // measure 45
0010
1000
0001
0001
,  // measure 46
0010
0000
0001
1000
0000
0000
0100
0010
,  // measure 47
0001
1000
0000
0100
1000
0010
0100
0000
,  // measure 48
2002
0000
0000
3003
,  // measure 49
2001
3100
1002
0103
,  // measure 50
2001
3100
0110
0110
,  // measure 51
1002
0103
0110
0110
,  // measure 52
2001
3100
0110
0110
,  // measure 53
1002
0103
2010
3100
,  // measure 54
0012
0103
0110
0110
,  // measure 55
1000
0100
0010
0000
0001
0100
0000
0010
,  // measure 56
1000
0000
0001
1000
0000
0100
0010
0000
,  // measure 57
1000
1001
0001
1001
,  // measure 58
0110
0000
0001
0100
0000
0000
0000
0000
,  // measure 59
1000
0100
0001
0010
,  // measure 60
1000
0010
0001
0100
,  // measure 61
1000
0000
0001
0000
0010
0100
0010
0000
,  // measure 62
0001
0000
1000
0010
0000
0000
0000
0000
,  // measure 63
1000
0001
0000
0100
0010
0000
0110
0000
,  // measure 64
1000
0001
0000
0100
0010
0000
0110
0000
,  // measure 65
1000
0001
0000
0100
0010
1000
0001
0000
,  // measure 66
1000
0100
1000
0000
0001
0100
0001
0000
,  // measure 67
0100
0010
0100
0000
1001
0000
1001
0000
;

//---------------dance-single - ----------------
#NOTEDATA:;
#CHARTNAME:;
#STEPSTYPE:dance-single;
#DESCRIPTION:;
#CHARTSTYLE:;
#DIFFICULTY:Hard;
#METER:8;
#RADARVALUES:0.591111,0.572799,0.547062,0.109412,0.000000,416.000000,361.000000,55.000000,11.000000,0.000000,0.000000,0.000000,0.000000,0.000000,0.591111,0.572799,0.547062,0.109412,0.000000,416.000000,361.000000,55.000000,11.000000,0.000000,0.000000,0.000000,0.000000,0.000000;
#CREDIT:;
#NOTES:
// measure 0
0000
0000
0000
1000
,  // measure 1
1000
0100
0010
1000
,  // measure 2
1000
0100
1000
0001
,  // measure 3
0001
0010
0100
0001
,  // measure 4
0001
0000
0100
0000
1000
0000
0100
0001
,  // measure 5
0000
0100
0010
0000
1000
0000
0100
0001
,  // measure 6
0000
0100
0010
0000
0001
0000
1000
0100
,  // measure 7
0000
0010
0001
0000
1000
0000
0001
1000
,  // measure 8
0000
0100
0001
0010
1000
0000
1001
0000
,  // measure 9
1000
0100
0010
0000
0010
0100
1000
0000
,  // measure 10
1000
0010
0100
0000
1001
0000
0110
0000
,  // measure 11
0001
0010
0100
0000
1100
0000
0011
0000
,  // measure 12
0001
1000
0100
0000
0110
0000
0110
0000
,  // measure 13
0001
1000
0100
0010
0001
1000
0000
0001
,  // measure 14
0100
0010
1000
0001
0010
0000
0110
0000
,  // measure 15
1000
0001
0100
0010
1000
0001
0000
1000
,  // measure 16
0010
0000
1000
0010
0000
0100
0010
0000
,  // measure 17
1001
0000
0001
0000
0100
0010
0100
0000
,  // measure 18
0001
0010
0001
0000
1001
0000
0100
0000
,  // measure 19
0010
0001
1000
0000
1001
0000
0010
0000
,  // measure 20
1000
0001
1000
0000
0110
0000
0000
0000
,  // measure 21
0001
1000
0000
1000
0100
0010
0000
0001
,  // measure 22
0100
1000
0100
0001
0000
1000
0000
0100
,  // measure 23
0010
0200
0000
1300
0001
0000
1001
0000
,  // measure 24
0020
0000
0130
0001
0100
1000
0001
1000
,  // measure 25
0010
0000
1001
0000
0100
0100
0100
0000
,  // measure 26
0001
0010
0100
0000
1100
0000
0001
0000
,  // measure 27
0100
0010
1000
0000
0011
0000
0100
0000
,  // measure 28
0010
1000
0001
0000
0110
0000
0000
0000
,  // measure 29
1000
0010
0000
0010
1000
0001
1001
0000
,  // measure 30
1100
1001
0101
0001
,  // measure 31
0100
0010
0000
0010
1000
0000
0100
0020
,  // measure 32
0001
0000
1000
0000
0130
0000
0001
0100
,  // measure 33
0010
0000
2001
0000
3100
0000
0010
0001
,  // measure 34
1000
0000
0120
0000
1030
0000
0100
0010
,  // measure 35
0001
0000
0011
0000
1001
0000
1000
0100
,  // measure 36
0010
0001
1000
0001
0100
0001
0100
0010
,  // measure 37
1000
0000
0210
0000
0301
0000
1000
0100
,  // measure 38
0010
0000
1002
0000
0103
0000
0010
0100
,  // measure 39
1001
0100
0100
0100
,  // measure 40
0010
1000
0001
1000
0100
1000
0100
0010
,  // measure 41
0001
0000
1001
0000
0010
0010
0010
0000
,  // measure 42
0100
0010
0001
0100
0000
0010
0010
0000
,  // measure 43
1000
0100
0001
0000
0011
0000
1010
0000
,  // measure 44
2001
0000
3001
0000
0100
0010
0100
0010
,  // measure 45
1000
2001
3010
0210
,  // measure 46
0301
1000
0100
0010
0000
0001
1000
0000
,  // measure 47
0001
0010
0000
0001
0100
0010
1000
0000
,  // measure 48
2001
0100
0010
3001
,  // measure 49
1001
0001
0100
0000
0100
0010
1000
0000
,  // measure 50
1000
0010
1000
0000
0110
0000
0110
0000
,  // measure 51
0001
0010
0001
0000
0110
0000
1001
0000
,  // measure 52
0100
0010
1000
0000
0110
0000
1001
0000
,  // measure 53
0100
0010
0001
1000
0100
0010
0000
0001
,  // measure 54
0100
0010
1000
0001
0100
0000
0110
0000
,  // measure 55
1000
0001
0100
0010
0100
0010
0000
1000
,  // measure 56
0001
0000
0100
0001
0000
0100
0010
0000
,  // measure 57
1001
0000
0110
0000
0010
1000
0100
0000
,  // measure 58
0010
0001
0100
0000
0010
1000
0001
0000
,  // measure 59
1001
1100
0101
0011
,  // measure 60
1010
1000
0001
1000
,  // measure 61
1001
0000
0011
0000
0010
0100
1000
0001
,  // measure 62
0100
0010
1000
0001
0010
0100
1000
0000
,  // measure 63
1000
0001
0000
0100
0010
1000
0100
0000
,  // measure 64
1000
0001
0000
0100
0010
1000
0100
0000
,  // measure 65
1000
0001
0000
0100
0010
1000
0001
0000
,  // measure 66
1000
0100
1000
0000
0001
0100
0001
0000
,  // measure 67
0100
0010
0110
0000
1001
0000
1001
0000
;
