#TITLE:Japan;
#SUBTITLE:(War Mix);
#ARTIST:Re-Venge (Mixed By Dave Phaneuf);
#TITLETRANSLIT:;
#SUBTITLETRANSLIT:;
#ARTISTTRANSLIT:;
#GENRE:;
#CREDIT:;
#BANNER:japan war bn.png;
#BACKGROUND:japan war bg.png;
#LYRICSPATH:;
#CDTITLE:;
#MUSIC:Japan (War Remix).mp3;
#OFFSET:0.500000;
#SAMPLESTART:75.013000;
#SAMPLELENGTH:12.000000;
#SELECTABLE:YES;
#BPMS:0.000000=189.000000
;
#STOPS:
;
#BGCHANGES:;
#KEYSOUNDS:;
#ATTACKS:;

//---------------dance-single - ----------------
#NOTES:
     dance-single:
     :
     Easy:
     5:
     0.392971,0.511476,0.257887,0.009551,0.000000,288.000000,261.000000,27.000000,1.000000,0.000000,0.000000,0.392971,0.511476,0.257887,0.009551,0.000000,288.000000,261.000000,27.000000,1.000000,0.000000,0.000000:
// measure 0
0000
0000
0000
0000
,  // measure 1
0000
0000
0000
0000
,  // measure 2
0000
0000
0010
0000
,  // measure 3
1000
0000
0100
0000
,  // measure 4
1000
0000
0001
0000
,  // measure 5
0010
0000
0100
0000
,  // measure 6
1000
0000
0010
0000
,  // measure 7
0100
0000
0001
0000
,  // measure 8
0100
0000
1000
0000
,  // measure 9
0010
0000
1000
0000
,  // measure 10
0100
0000
0001
0001
,  // measure 11
1000
1000
0001
0001
,  // measure 12
1000
1000
0001
1000
,  // measure 13
0010
0100
1001
0000
,  // measure 14
0100
0010
0000
0010
,  // measure 15
0010
0010
0001
1000
,  // measure 16
0001
1000
0000
0100
,  // measure 17
0100
0100
1000
0001
,  // measure 18
1000
0001
0000
0010
,  // measure 19
0010
0010
0001
1000
,  // measure 20
0001
1000
0000
0100
,  // measure 21
0100
0100
1000
0001
,  // measure 22
1000
0001
0010
1000
,  // measure 23
0100
1000
0010
0100
,  // measure 24
0010
0100
0001
0100
,  // measure 25
1000
0100
0001
1000
,  // measure 26
0001
1000
0010
1000
,  // measure 27
0100
1000
0010
0100
,  // measure 28
0010
0100
1000
0100
,  // measure 29
0001
0100
1000
0001
,  // measure 30
1000
0001
1001
0100
,  // measure 31
0001
1000
0001
0100
,  // measure 32
0010
0100
1000
0010
,  // measure 33
0100
0001
0010
0100
,  // measure 34
0001
0010
0001
0010
,  // measure 35
0100
1000
1000
0100
,  // measure 36
0010
0001
0001
0010
,  // measure 37
1000
0100
1000
0010
,  // measure 38
0100
0001
0010
0100
,  // measure 39
0010
0100
1001
1000
,  // measure 40
0010
0100
0001
1000
,  // measure 41
0010
1000
0010
0001
,  // measure 42
0100
0010
1000
0010
,  // measure 43
0100
1001
0110
0001
,  // measure 44
0100
0010
1000
0010
,  // measure 45
0001
0100
0001
0010
,  // measure 46
1000
0100
1001
0001
,  // measure 47
0001
0001
0110
0100
,  // measure 48
0100
0100
1001
1000
,  // measure 49
1000
1000
0110
0010
,  // measure 50
0010
0010
1000
1100
,  // measure 51
1100
1000
0001
0101
,  // measure 52
0101
0001
1000
1010
,  // measure 53
1010
1000
0001
0011
,  // measure 54
0011
0001
0010
1000
,  // measure 55
0100
1000
0010
1000
,  // measure 56
0100
1000
0010
0001
,  // measure 57
0100
0001
0010
0001
,  // measure 58
0100
0001
0010
0000
,  // measure 59
0000
0000
1001
0100
,  // measure 60
0000
0010
0001
1000
,  // measure 61
0001
1000
0000
0010
,  // measure 62
0000
0010
1000
1000
,  // measure 63
0001
0001
0100
1000
,  // measure 64
0001
0000
1000
0010
,  // measure 65
1000
0010
0000
0100
,  // measure 66
0010
1000
0001
0100
,  // measure 67
0001
0100
0000
0010
,  // measure 68
0010
0010
1001
0100
,  // measure 69
1001
0100
0000
0001
,  // measure 70
0001
0001
0110
1000
,  // measure 71
0110
1000
0000
0100
,  // measure 72
0100
0100
1001
0010
,  // measure 73
1001
0010
0000
1000
,  // measure 74
1000
1000
0110
0001
,  // measure 75
0110
0001
0020
0000
,  // measure 76
0000
0030
1001
0000
;

//---------------dance-single - ----------------
#NOTES:
     dance-single:
     :
     Medium:
     6:
     0.507587,0.584544,0.296093,0.009551,0.000000,372.000000,341.000000,31.000000,1.000000,0.000000,0.000000,0.507587,0.584544,0.296093,0.009551,0.000000,372.000000,341.000000,31.000000,1.000000,0.000000,0.000000:
// measure 0
0000
0000
0000
0000
,  // measure 1
0000
0000
0000
0000
,  // measure 2
0000
0000
0001
0010
,  // measure 3
1000
0100
0001
0001
,  // measure 4
1000
1000
0100
1000
,  // measure 5
0010
0001
0100
0100
,  // measure 6
0010
0010
1000
0100
,  // measure 7
0001
0010
1000
1000
,  // measure 8
0001
0001
0010
0001
,  // measure 9
0100
1000
0010
0010
,  // measure 10
0100
0100
0001
0001
,  // measure 11
1000
1000
0010
0010
,  // measure 12
0100
0100
1001
0110
,  // measure 13
1001
0110
1001
0000
,  // measure 14
1001
0110
0001
0010
,  // measure 15
0100
1000
0001
0001
,  // measure 16
1000
1000
0010
0001
,  // measure 17
1000
0100
0010
0010
,  // measure 18
0100
0100
1000
0010
,  // measure 19
0100
0001
1000
1000
,  // measure 20
0001
0001
0100
1000
,  // measure 21
0001
0010
0100
0100
,  // measure 22
0010
0010
1000
1000
,  // measure 23
0001
0000
0100
0000
0010
1000
0100
0000
,  // measure 24
0010
0001
0100
0000
0010
0000
0010
0000
,  // measure 25
0100
0000
0001
0000
0001
0010
1000
0000
,  // measure 26
0001
0100
1000
0000
0001
0000
0001
0000
,  // measure 27
1000
0000
0100
0000
0100
0001
0010
0000
,  // measure 28
0100
1000
0010
0000
0100
0000
0100
0000
,  // measure 29
0010
0000
1000
0000
1000
0100
0001
0000
,  // measure 30
1000
0010
0001
0000
0010
0000
0010
0000
,  // measure 31
0010
0000
0010
0000
0000
0100
0000
0100
,  // measure 32
0000
0100
0000
0100
0001
0000
0001
0000
,  // measure 33
0001
0000
0001
0000
0000
1000
0000
1000
,  // measure 34
0000
1000
0000
1000
0010
0000
0010
0000
,  // measure 35
0010
0000
0010
0000
0000
0100
0000
0100
,  // measure 36
0000
0100
0000
0100
0001
0000
0001
0000
,  // measure 37
0001
0000
0001
0000
0000
1000
0000
1000
,  // measure 38
0000
1000
0000
1000
0010
0000
1001
0000
,  // measure 39
0100
0000
0001
0000
1001
0000
0000
0100
,  // measure 40
0000
1001
0000
0001
0010
0000
1001
0000
,  // measure 41
0100
0000
0100
0000
0000
1000
0000
0010
,  // measure 42
0000
1001
0000
1000
0100
0000
0001
0000
,  // measure 43
1000
0000
0001
0000
0000
0010
0000
1001
,  // measure 44
0000
1001
0000
0010
0100
0000
0001
0000
,  // measure 45
1000
0000
0010
0000
0000
1001
0000
0110
,  // measure 46
0000
1001
0000
1000
1000
0000
0001
0000
,  // measure 47
1000
0001
0010
0100
,  // measure 48
0010
0000
0100
0000
0010
1000
0100
0000
,  // measure 49
0010
0001
0100
0000
0001
1000
0100
0000
,  // measure 50
1000
0001
0010
0000
0001
0000
1001
0000
,  // measure 51
0100
0110
1000
1100
,  // measure 52
0001
0000
0011
0000
0010
1000
0100
0000
,  // measure 53
0001
0100
1000
0000
0001
1000
0001
0000
,  // measure 54
0010
0100
0010
0000
1001
0000
0010
1000
,  // measure 55
0100
0000
1001
0000
0110
0000
1000
0100
,  // measure 56
0001
0000
0110
0000
1001
0000
0100
0001
,  // measure 57
0010
0000
1001
0000
0110
0000
0001
0010
,  // measure 58
1000
0110
0010
0010
,  // measure 59
0010
0010
1001
1000
,  // measure 60
0001
0000
0100
0000
0010
1000
0100
0000
,  // measure 61
0010
0001
0100
0000
0010
0000
0010
0000
,  // measure 62
0100
0000
0001
0000
0001
0010
1000
0000
,  // measure 63
0001
0100
1000
0000
0001
0000
0001
0000
,  // measure 64
1000
0000
0100
0000
0100
0001
0010
0000
,  // measure 65
0100
1000
0010
0000
0100
0000
0100
0000
,  // measure 66
0010
0000
1000
0000
1000
0100
0001
0000
,  // measure 67
1000
0010
0001
0000
0010
1000
0100
0000
,  // measure 68
0100
1000
0010
0000
1000
0001
0010
0100
,  // measure 69
0010
0001
1000
0000
0001
0010
1000
0000
,  // measure 70
1000
0010
0001
0000
0010
0100
0001
1000
,  // measure 71
0001
0100
0010
0000
0010
0001
0100
0000
,  // measure 72
0100
0001
0010
0000
0001
1000
0100
0010
,  // measure 73
0100
1000
0001
0000
0001
0100
1000
0000
,  // measure 74
1000
0100
0001
0000
0100
0010
1000
0001
,  // measure 75
1000
0010
0100
0000
0200
0000
0000
0000
,  // measure 76
0000
0300
1001
0000
;

//---------------dance-single - ----------------
#NOTES:
     dance-single:
     :
     Hard:
     9:
     0.714988,0.621078,0.458466,0.019103,0.434587,524.000000,476.000000,48.000000,2.000000,0.000000,0.000000,0.714988,0.621078,0.458466,0.019103,0.434587,524.000000,476.000000,48.000000,2.000000,0.000000,0.000000:
// measure 0
0000
0000
0000
0000
,  // measure 1
0000
0000
0000
0000
,  // measure 2
0000
0000
0000
0000
0000
0000
1000
0000
0100
0010
0000
0001
,  // measure 3
0100
0000
0010
1000
0000
0001
0100
0000
0010
0100
0000
0001
,  // measure 4
1000
0000
0000
0000
0010
0000
0100
0000
0000
0000
1000
0000
0001
0000
0000
1000
0000
0000
0100
0000
0000
0010
0000
0000
,  // measure 5
0100
1000
0001
1000
0001
0010
0100
0010
,  // measure 6
0001
0000
0000
1000
0000
0000
0100
0000
0000
0000
0000
0000
1000
0000
0000
0000
0100
0000
0010
0000
0000
0000
0001
0000
,  // measure 7
0100
0000
0010
1000
0000
0001
0100
0000
0010
0100
0000
0001
,  // measure 8
1000
0000
0000
0000
0010
0000
0100
0000
0000
0000
1000
0000
0010
0000
0000
0100
0000
0000
0010
0000
0000
0100
0000
0000
,  // measure 9
0010
1000
0010
1000
0001
1000
0001
1000
,  // measure 10
0100
0000
0000
0010
0000
0000
0100
0000
0000
0000
0000
0000
0010
0000
0000
0000
0100
0000
0010
0000
0000
0000
0100
0000
,  // measure 11
0010
0000
0100
0010
0000
0100
1000
0000
0001
1000
0000
0001
,  // measure 12
1000
0000
0001
1000
0000
0001
1000
0000
0010
0100
0000
0001
,  // measure 13
1000
0000
0100
0010
0000
0000
1001
0000
0000
0000
0000
0000
,  // measure 14
1001
0000
0000
0110
0000
0000
0010
0000
0100
0010
0000
0100
,  // measure 15
0010
0000
0100
0010
0000
0000
1001
0000
0000
0110
0000
0000
,  // measure 16
1001
0000
0000
0110
0000
0000
1000
0000
0001
1000
0000
0001
,  // measure 17
1000
0000
0001
1000
0000
0000
0110
0000
0000
1001
0000
0000
,  // measure 18
0110
0000
0000
1001
0000
0000
0100
0000
1000
0100
0000
1000
,  // measure 19
0100
0000
1000
0100
0000
0000
0101
0000
0000
1100
0000
0000
,  // measure 20
0101
0000
0000
1100
0000
0000
0010
0000
0001
0010
0000
0001
,  // measure 21
0010
0000
0001
0010
0000
0000
1010
0000
0000
0011
0000
0000
,  // measure 22
1010
0000
0000
0011
0000
0000
1000
0000
0010
0100
0000
0001
,  // measure 23
0010
0000
0000
0000
0100
0000
1000
0000
0000
0000
0000
0000
0010
0000
0000
1000
0000
0000
0001
0000
0000
0000
0000
0000
,  // measure 24
0010
0000
0000
1000
0000
0000
0001
0000
0000
0000
0000
0000
0001
0000
0000
0000
0010
0000
0100
0000
0000
0000
1000
0000
,  // measure 25
0010
0000
0000
0000
0100
0000
0001
0000
0000
0000
0000
0000
0100
0000
0000
1000
0000
0000
0001
0000
0000
0000
0000
0000
,  // measure 26
0100
0000
0000
1000
0000
0000
0001
0000
0000
0000
0000
0000
0001
0000
0000
0000
1000
0000
0100
0000
0000
0000
0010
0000
,  // measure 27
0100
0000
0000
0000
1000
0000
0001
0000
0000
0000
0000
0000
1000
0000
0000
0010
0000
0000
0100
0000
0000
0000
0000
0000
,  // measure 28
0001
0000
0000
0010
0000
0000
0100
0000
0000
0000
0000
0000
0010
0000
0000
0000
0100
0000
1000
0000
0000
0000
0001
0000
,  // measure 29
1000
0000
0000
0000
0100
0000
0010
0000
0000
0000
0000
0000
0100
0000
0000
1000
0000
0000
0001
0000
0000
0000
0000
0000
,  // measure 30
0010
1000
0001
0000
0010
1000
0100
0010
,  // measure 31
0001
0010
0100
1000
0000
0001
0100
0010
,  // measure 32
1000
0001
0010
0000
0100
1000
0100
0010
,  // measure 33
0001
1000
0010
0100
0000
0001
1000
0100
,  // measure 34
0010
0001
0100
0000
0010
1000
0001
0010
,  // measure 35
0001
0100
0010
1000
0000
0001
0100
0010
,  // measure 36
1000
0001
0010
0000
0100
1000
0001
0100
,  // measure 37
0010
1000
0100
1000
0000
0001
0100
0010
,  // measure 38
1000
0100
0010
0000
0001
1000
0100
1000
,  // measure 39
0001
0100
0010
0000
1001
0000
0010
0100
,  // measure 40
1000
0001
1000
0000
0100
1000
0100
0010
,  // measure 41
0001
1000
0001
0100
0000
0010
1000
0100
,  // measure 42
0010
0001
0100
0000
1000
0000
1001
0000
,  // measure 43
0010
1000
0100
0001
,  // measure 44
0100
1001
0010
1000
,  // measure 45
0001
0110
1001
0100
,  // measure 46
1100
0000
1001
0000
0001
0010
0100
1000
,  // measure 47
0010
0100
0001
1000
0100
0010
0001
1000
,  // measure 48
0010
0100
0001
0010
0100
1000
0010
0100
,  // measure 49
0001
0010
0100
1000
0010
0100
0001
1000
,  // measure 50
0010
0100
0010
0000
1001
0000
0010
1000
,  // measure 51
0100
1000
0001
1000
0100
1000
0001
0010
,  // measure 52
0100
1000
0001
0100
0010
1000
0001
1000
,  // measure 53
0100
0010
0001
1000
0010
0000
0110
0000
,  // measure 54
1000
0000
0000
1001
0000
0000
1000
0000
0100
0010
0000
0001
,  // measure 55
1000
0000
0010
0100
0000
0001
1000
0000
0001
0010
0000
0100
,  // measure 56
1000
0000
0010
0100
0000
0001
1000
0000
0100
0010
0000
0001
,  // measure 57
1000
0000
0010
0100
0000
0001
1000
0000
0001
0010
0000
0100
,  // measure 58
1000
0000
0000
0000
0010
0000
0100
0000
0000
0000
0001
0000
0100
0000
0000
0100
0000
0000
0100
0000
0000
0000
0000
0000
,  // measure 59
0010
0000
0000
1001
0000
0000
0010
0000
0100
0010
0000
0100
,  // measure 60
0010
0000
0100
0010
0000
0000
1001
0000
0000
0110
0000
0000
,  // measure 61
1001
0000
0000
0110
0000
0000
1000
0000
0001
1000
0000
0001
,  // measure 62
1000
0000
0001
1000
0000
0000
0110
0000
0000
1001
0000
0000
,  // measure 63
0110
0000
0000
1001
0000
0000
0100
0000
1000
0100
0000
1000
,  // measure 64
0100
0000
1000
0100
0000
0000
0101
0000
0000
1100
0000
0000
,  // measure 65
0101
0000
0000
1100
0000
0000
0010
0000
0001
0010
0000
0001
,  // measure 66
0010
0000
0001
0010
0000
0000
1010
0000
0000
0011
0000
0000
,  // measure 67
1010
0000
0000
0011
0000
0000
1000
0000
0010
0100
0000
0001
,  // measure 68
0010
0000
0000
0000
0100
0000
1000
0000
0000
0000
0000
0000
0010
0000
0000
1000
0000
0000
0001
0000
0000
0000
0000
0000
,  // measure 69
0010
0000
0000
1000
0000
0000
0001
0000
0000
0000
0000
0000
0001
0000
0000
0000
0010
0000
0100
0000
0000
0000
1000
0000
,  // measure 70
0010
0000
0000
0000
0100
0000
0001
0000
0000
0000
0000
0000
0100
0000
0000
1000
0000
0000
0001
0000
0000
0000
0000
0000
,  // measure 71
0100
0000
0000
1000
0000
0000
0001
0000
0000
0000
0000
0000
0001
0000
0000
0000
1000
0000
0100
0000
0000
0000
0010
0000
,  // measure 72
0100
0000
0000
0000
1000
0000
0001
0000
0000
0000
0000
0000
1000
0000
0000
0010
0000
0000
0100
0000
0000
0000
0000
0000
,  // measure 73
0001
0000
0000
0010
0000
0000
0100
0000
0000
0000
0000
0000
0010
0000
0000
0000
0100
0000
1000
0000
0000
0000
0001
0000
,  // measure 74
1000
0000
0000
0000
0100
0000
0010
0000
0000
0000
0000
0000
0100
0000
0000
1000
0000
0000
0001
0000
0000
0000
0000
0000
,  // measure 75
0010
1000
0001
0000
2002
0000
0000
0000
,  // measure 76
0000
3003
1001
0000
;
